当前位置: 首页 >> 欧美电影 >> 双虎屠龙[中文字幕].The.Man.Who.Shot.Liberty.Valance.1962.2160p.UHD.BluRay.x265.10bit.HDR.TrueHD.5.1-B0MBARDi >> 正文

双虎屠龙[中文字幕].The.Man.Who.Shot.Liberty.Valance.1962.2160p.UHD.BluRay.x265.10bit.HDR.TrueHD.5.1-B0MBARDi

2022年05月20日 20:37:52     电影发布:来源于网络     电影分类:欧美电影     评论(0)    

双虎屠龙[中文字幕].The.Man.Who.Shot.Liberty.Valance.1962.2160p.UHD.BluRay.x265.10bit.HDR.TrueHD.5.1 B0MBARDi  欧美电影  第1张

双虎屠龙[中文字幕].The.Man.Who.Shot.Liberty.Valance.1962.2160p.UHD.BluRay.x265.10bit.HDR.TrueHD.5.1 B0MBARDi  欧美电影  第2张

◎译 名 双虎屠龙 / 枪杀了理贝特瓦朗斯的人

◎片 名 The Man Who Shot Liberty Valance

◎年 代 1962

◎产 地 美国

◎类 别 剧情 / 爱情 / 西部

◎语 言 英语

◎上映日期 1962-04-22

◎IMDb链接 https://www.imdb.com/title/tt0056217/

◎豆瓣评分 8.2/10 (4248人评价)

◎豆瓣链接 https://movie.douban.com/subject/1295134/

◎片 长 123分钟

◎导 演 约翰·福特 John Ford (id:1007035)

◎编 剧 詹姆斯·华纳·贝拉 James Warner Bellah (id:1051308)

威利斯·戈德贝克 Willis Goldbeck (id:1042846)

◎演 员 约翰·韦恩 John Wayne (id:1017917)

詹姆斯·斯图尔特 James Stewart (id:1048136)

维拉·迈尔斯 Vera Miles (id:1049722)

李·马文 Lee Marvin (id:1007027)

艾德蒙·奥布莱恩 Edmond O'Brien (id:1049767)

伍迪·斯特罗德 Woody Strode (id:1025269)

李·范·克里夫 Lee Van Cleef (id:1013853)

卡尔·M·莱维尼斯 Carl M. Leviness (id:1125401)

◎简 介

参议员Ransom "Rance" Stoddard(詹姆斯·斯图尔特 James Stewart饰)带着他的妻子Hallie(维拉·迈尔斯 Vera Miles饰)回到一个小镇去参加一个老朋友Tom的葬礼,他们三人的友情还得追溯到多年前......

年轻的律师Ransom在来小镇的路上遭到了一路恶棍的抢劫,恶棍们的头领叫Liberty Valance(李·马文 Lee Marvin 饰)。受伤的Ransom被镇里的一家开餐厅的人收留,认识了开餐厅的夫妇的女儿Hallie,同时也结识了爱着Hallie的Tom(约翰·韦恩 John Wayne饰)。镇上的人民也深受Liberty一伙人所害。Ransom开始运用自己的知识启发当地民众,希望用法律途径来惩罚Liberty。而Tom则一次次劝说Ransom离开小镇。在一次选举上,双方的矛盾达到了最高潮。Ra...

◎获奖情况 (共1项)

第35届奥斯卡金像奖 (1963)

黑白片最佳服装设计(提名)

└──伊迪丝·海德 (id:1041085)

  1. Video

  2. ID : 1

  3. Format : HEVC

  4. Format/Info : High Efficiency Video Coding

  5. Format profile : Main [email protected]@High

  6. HDR format : SMPTE ST 2086, HDR10 compatible

  7. Codec ID : V_MPEGH/ISO/HEVC

  8. Duration : 2 h 3 min

  9. Bit rate : 29.4 Mb/s

  10. Width : 3 840 pixels

  11. Height : 2 076 pixels

  12. Display aspect ratio : 1.85:1

  13. Frame rate mode : Constant

  14. Frame rate : 23.976 (24000/1001/53354) FPS

  15. Color space : YUV

  16. Chroma subsampling : 4:2:0 (Type 2)

  17. Bit depth : 10 bits

  18. Bits/(Pixel*Frame) : 0.154

  19. Stream size : 25.3 GiB (90%)

  20. Writing library : x265 3.5+36-9b59d4554:[Windows][GCC 11.2.0][64 bit] 10bit

  21. Encoding settings : cpuid=533541176575 / frame-threads=6 / numa-pools=36 / wpp / no-pmode / no-pme / no-psnr / no-ssim / log-level=2 / input-csp=1 / input-res=3840x2076 / interlace=0 / total-frames=177417 / level-idc=51 / high-tier=1 / uhd-bd=0 / ref=4 / no-allow-non-conformance / repeat-headers / annexb / aud / no-eob / no-eos / hrd / info / hash=0 / no-temporal-layers / open-gop / min-keyint=23 / keyint=250 / gop-lookahead=0 / bframes=4 / b-adapt=2 / b-pyramid / bframe-bias=0 / rc-lookahead=25 / lookahead-slices=4 / NTMzNTQ=uuDQuD2mJt9fsCf / scenecut=40 / no-hist-scenecut / radl=0 / no-splice / no-intra-refresh / ctu=64 / min-cu-size=8 / rect / no-amp / max-tu-size=32 / tu-inter-depth=1 / tu-intra-depth=1 / limit-tu=0 / rdoq-level=2 / dynamic-rd=0.00 / no-ssim-rd / signhide / no-tskip / nr-intra=0 / nr-inter=0 / no-constrained-intra / strong-intra-smoothing / max-merge=3 / limit-refs=3 / limit-modes / me=3 / subme=3 / merange=57 / temporal-mvp / no-frame-dup / no-hme / weightp / no-weightb / no-analyze-src-pics / deblock=-3:-3 / no-sao / no-sao-non-deblock / rd=4 / selective-sao=0 / no-early-skip / rskip / no-fast-intra / no-tskip-fast / no-cu-lossless / no-b-intra / no-splitrd-skip / rdpenalty=0 / psy-rd=2.00 / psy-rdoq=1.00 / no-rd-refine / no-lossless / cbqpoffs=0 / crqpoffs=0 / rc=crf / crf=18.3 / qcomp=0.60 / qpstep=4 / stats-write=0 / stats-read=0 / vbv-maxrate=160000 / vbv-bufsize=160000 / vbv-init=0.9 / min-vbv-fullness=50.0 / max-vbv-fullness=80.0 / crf-max=0.0 / crf-min=0.0 / ipratio=1.40 / pbratio=1.30 / aq-mode=2 / aq-strength=1.00 / cutree / zone-count=0 / no-strict-cbr / qg-size=32 / no-rc-grain / qpmax=69 / qpmin=0 / no-const-vbv / sar=1 / overscan=0 / videoformat=5 / range=0 / colorprim=9 / transfer=16 / colormatrix=9 / chromaloc=1 / chromaloc-top=2 / chromaloc-bottom=2 / display-window=0 / master-display=G(13250,34500)B(7500,3000)R(34000,16000)WP(15635,16450)L(10000000,1) / cll=0,0 / min-luma=0 / max-luma=1023 / log2-max-poc-lsb=8 / vui-timing-info / vui-hrd-info / slices=1 / no-opt-qp-pps / no-opt-ref-list-length-pps / no-multi-pass-opt-rps / scenecut-bias=0.05 / hist-threshold=0.03 / no-opt-cu-delta-qp / no-aq-motion / hdr10 / hdr10-opt / no-dhdr10-opt / no-idr-recovery-sei / analysis-reuse-level=0 / analysis-save-reuse-level=0 / analysis-load-reuse-level=0 / scale-factor=0 / refine-intra=0 / refine-inter=0 / refine-mv=1 / refine-ctu-distortion=0 / no-limit-sao / ctu-info=0 / no-lowpass-dct / refine-analysis-type=0 / copy-pic=1 / max-ausize-factor=1.0 / no-dynamic-refine / no-single-sei / no-hevc-aq / no-svt / no-field / qp-adaptation-range=1.00 / scenecut-aware-qp=0conformance-window-offsets / right=0 / bottom=0 / NTMzNTQ= / decoder-max-rate=0 / no-vbv-live-multi-pass

  22. Default : Yes

  23. Forced : No

  24. Color range : Limited

  25. Color primaries : BT.2020

  26. Transfer characteristics : PQ

  27. Matrix coefficients : BT.2020 non-constant

  28. Mastering display color primaries : Display P3

  29. Mastering display luminance : min: 0.0001 cd/m2, max: 1000 cd/m2


  30. Audio #1

  31. ID : 2

  32. Format : MLP FBA

  33. Format/Info : Meridian Lossless Packing FBA

  34. Commercial name : Dolby TrueHD

  35. Codec ID : A_TRUEHD

  36. Duration : 2 h 3 min

  37. Bit rate mode : Variable

  38. Bit rate : 2 448 kb/s

  39. Maximum bit rate : 3 801 kb/s

  40. Channel(s) : 6 channels

  41. Channel layout : L R C LFE Ls Rs

  42. Sampling rate : 48.0 kHz

  43. Frame rate : 1 200.000 FPS (40 SPF)

  44. Compression mode : Lossless

  45. Stream size : 2.11 GiB (8%)

  46. Language : English

  47. Default : Yes

  48. Forced : No


  49. Audio #2

  50. ID : 3

  51. Format : AC-3

  52. Format/Info : Audio Coding 3

  53. Commercial name : Dolby Digital

  54. Codec ID : A_AC3

  55. Duration : 2 h 3 min

  56. Bit rate mode : Constant

  57. Bit rate : 384 kb/s

  58. Channel(s) : 6 channels

  59. Channel layout : L R C LFE Ls Rs

  60. Sampling rate : 48.0 kHz

  61. Frame rate : 31.250 FPS (1536 SPF)

  62. Compression mode : Lossy

  63. Stream size : 339 MiB (1%)

  64. Language : English

  65. Service kind : Complete Main

  66. Default : Yes

  67. Forced : No


  68. Text #1

  69. ID : 4

  70. Format : PGS

  71. Muxing mode : zlib

  72. Codec ID : S_HDMV/PGS

  73. Codec ID/Info : Picture based subtitle format used on BDs/HD-DVDs

  74. Duration : 2 h 0 min

  75. Bit rate : 35.7 kb/s

  76. Count of elements : 2802

  77. Stream size : 30.8 MiB (0%)

  78. Title : English

  79. Language : English

  80. Default : No

  81. Forced : No


  82. Text #2

  83. ID : 5

  84. Format : PGS

  85. Muxing mode : zlib

  86. Codec ID : S_HDMV/PGS

  87. Codec ID/Info : Picture based subtitle format used on BDs/HD-DVDs

  88. Duration : 2 h 1 min

  89. Bit rate : 38.8 kb/s

  90. Count of elements : 3350

  91. Stream size : 33.7 MiB (0%)

  92. Title : English SDH

  93. Language : English

  94. Default : No

  95. Forced : No


  96. Text #3

  97. ID : 6

  98. Format : PGS

  99. Muxing mode : zlib

  100. Codec ID : S_HDMV/PGS

  101. Codec ID/Info : Picture based subtitle format used on BDs/HD-DVDs

  102. Duration : 2 h 0 min

  103. Bit rate : 28.7 kb/s

  104. Count of elements : 2146

  105. Stream size : 24.8 MiB (0%)

  106. Title : Danish

  107. Language : Danish

  108. Default : No

  109. Forced : No


  110. Text #4

  111. ID : 7

  112. Format : PGS

  113. Muxing mode : zlib

  114. Codec ID : S_HDMV/PGS

  115. Codec ID/Info : Picture based subtitle format used on BDs/HD-DVDs

  116. Duration : 2 h 2 min

  117. Bit rate : 33.7 kb/s

  118. Count of elements : 2250

  119. Stream size : 29.6 MiB (0%)

  120. Title : German

  121. Language : German

  122. Default : No

  123. Forced : No


  124. Text #5

  125. ID : 8

  126. Format : PGS

  127. Muxing mode : zlib

  128. Codec ID : S_HDMV/PGS

  129. Codec ID/Info : Picture based subtitle format used on BDs/HD-DVDs

  130. Duration : 2 h 2 min

  131. Bit rate : 30.9 kb/s

  132. Count of elements : 2230

  133. Stream size : 27.2 MiB (0%)

  134. Title : Spanish

  135. Language : Spanish

  136. Default : No

  137. Forced : No


  138. Text #6

  139. ID : 9

  140. Format : PGS

  141. Muxing mode : zlib

  142. Codec ID : S_HDMV/PGS

  143. Codec ID/Info : Picture based subtitle format used on BDs/HD-DVDs

  144. Duration : 2 h 2 min

  145. Bit rate : 33.4 kb/s

  146. Count of elements : 2426

  147. Stream size : 29.3 MiB (0%)

  148. Title : Spanish

  149. Language : Spanish

  150. Default : No

  151. Forced : No


  152. Text #7

  153. ID : 10

  154. Format : PGS

  155. Muxing mode : zlib

  156. Codec ID : S_HDMV/PGS

  157. Codec ID/Info : Picture based subtitle format used on BDs/HD-DVDs

  158. Duration : 2 h 2 min

  159. Bit rate : 28.6 kb/s

  160. Count of elements : 2370

  161. Stream size : 25.1 MiB (0%)

  162. Title : French

  163. Language : French

  164. Default : No

  165. Forced : No


  166. Text #8

  167. ID : 11

  168. Format : PGS

  169. Muxing mode : zlib

  170. Codec ID : S_HDMV/PGS

  171. Codec ID/Info : Picture based subtitle format used on BDs/HD-DVDs

  172. Duration : 2 h 2 min

  173. Bit rate : 31.1 kb/s

  174. Count of elements : 2148

  175. Stream size : 27.4 MiB (0%)

  176. Title : Italian

  177. Language : Italian

  178. Default : No

  179. Forced : No


  180. Text #9

  181. ID : 12

  182. Format : PGS

  183. Muxing mode : zlib

  184. Codec ID : S_HDMV/PGS

  185. Codec ID/Info : Picture based subtitle format used on BDs/HD-DVDs

  186. Duration : 2 h 1 min

  187. Bit rate : 21.8 kb/s

  188. Count of elements : 2464

  189. Stream size : 18.9 MiB (0%)

  190. Title : Japanese

  191. Language : Japanese

  192. Default : No

  193. Forced : No


  194. Text #10

  195. ID : 13

  196. Format : PGS

  197. Muxing mode : zlib

  198. Codec ID : S_HDMV/PGS

  199. Codec ID/Info : Picture based subtitle format used on BDs/HD-DVDs

  200. Duration : 2 h 2 min

  201. Bit rate : 23.4 kb/s

  202. Count of elements : 2240

  203. Stream size : 20.5 MiB (0%)

  204. Title : Korean

  205. Language : Korean

  206. Default : No

  207. Forced : No


  208. Text #11

  209. ID : 14

  210. Format : PGS

  211. Muxing mode : zlib

  212. Codec ID : S_HDMV/PGS

  213. Codec ID/Info : Picture based subtitle format used on BDs/HD-DVDs

  214. Duration : 2 h 0 min

  215. Bit rate : 28.0 kb/s

  216. Count of elements : 2146

  217. Stream size : 24.2 MiB (0%)

  218. Title : Dutch

  219. Language : Dutch

  220. Default : No

  221. Forced : No


  222. Text #12

  223. ID : 15

  224. Format : PGS

  225. Muxing mode : zlib

  226. Codec ID : S_HDMV/PGS

  227. Codec ID/Info : Picture based subtitle format used on BDs/HD-DVDs

  228. Duration : 2 h 0 min

  229. Bit rate : 30.6 kb/s

  230. Count of elements : 2132

  231. Stream size : 26.4 MiB (0%)

  232. Title : Norwegian

  233. Language : Norwegian

  234. Default : No

  235. Forced : No


  236. Text #13

  237. ID : 16

  238. Format : PGS

  239. Muxing mode : zlib

  240. Codec ID : S_HDMV/PGS

  241. Codec ID/Info : Picture based subtitle format used on BDs/HD-DVDs

  242. Duration : 2 h 0 min

  243. Bit rate : 30.6 kb/s

  244. Count of elements : 2142

  245. Stream size : 26.4 MiB (0%)

  246. Title : Polish

  247. Language : Polish

  248. Default : No

  249. Forced : No


  250. Text #14

  251. ID : 17

  252. Format : PGS

  253. Muxing mode : zlib

  254. Codec ID : S_HDMV/PGS

  255. Codec ID/Info : Picture based subtitle format used on BDs/HD-DVDs

  256. Duration : 2 h 1 min

  257. Bit rate : 26.7 kb/s

  258. Count of elements : 2842

  259. Stream size : 23.2 MiB (0%)

  260. Title : Chinese

  261. Language : Chinese

  262. Default : No

  263. Forced : No


  264. Text #15

  265. ID : 18

  266. Format : PGS

  267. Muxing mode : zlib

  268. Codec ID : S_HDMV/PGS

  269. Codec ID/Info : Picture based subtitle format used on BDs/HD-DVDs

  270. Duration : 2 h 0 min

  271. Bit rate : 30.4 kb/s

  272. Count of elements : 2146

  273. Stream size : 26.3 MiB (0%)

  274. Title : Finnish

  275. Language : Finnish

  276. Default : No

  277. Forced : No


  278. Text #16

  279. ID : 19

  280. Format : PGS

  281. Muxing mode : zlib

  282. Codec ID : S_HDMV/PGS

  283. Codec ID/Info : Picture based subtitle format used on BDs/HD-DVDs

  284. Duration : 2 h 0 min

  285. Bit rate : 28.7 kb/s

  286. Count of elements : 2146

  287. Stream size : 24.8 MiB (0%)

  288. Title : Swedish

  289. Language : Swedish

  290. Default : No

  291. Forced : No


  292. Text #17

  293. ID : 20

  294. Format : PGS

  295. Muxing mode : zlib

  296. Codec ID : S_HDMV/PGS

  297. Codec ID/Info : Picture based subtitle format used on BDs/HD-DVDs

  298. Duration : 1 h 43 min

  299. Bit rate : 330 b/s

  300. Count of elements : 16

  301. Stream size : 250 KiB (0%)

  302. Title : German

  303. Language : German

  304. Default : No

  305. Forced : No


  306. Text #18

  307. ID : 21

  308. Format : PGS

  309. Muxing mode : zlib

  310. Codec ID : S_HDMV/PGS

  311. Codec ID/Info : Picture based subtitle format used on BDs/HD-DVDs

  312. Duration : 1 h 54 min

  313. Bit rate : 304 b/s

  314. Count of elements : 20

  315. Stream size : 254 KiB (0%)

  316. Title : Spanish

  317. Language : Spanish

  318. Default : No

  319. Forced : No


  320. Text #19

  321. ID : 22

  322. Format : PGS

  323. Muxing mode : zlib

  324. Codec ID : S_HDMV/PGS

  325. Codec ID/Info : Picture based subtitle format used on BDs/HD-DVDs

  326. Duration : 1 h 43 min

  327. Bit rate : 223 b/s

  328. Count of elements : 14

  329. Stream size : 169 KiB (0%)

  330. Title : French

  331. Language : French

  332. Default : No

  333. Forced : No


  334. Text #20

  335. ID : 23

  336. Format : PGS

  337. Muxing mode : zlib

  338. Codec ID : S_HDMV/PGS

  339. Codec ID/Info : Picture based subtitle format used on BDs/HD-DVDs

  340. Duration : 2 h 2 min

  341. Bit rate : 238 b/s

  342. Count of elements : 16

  343. Stream size : 215 KiB (0%)

  344. Title : Italian

  345. Language : Italian

  346. Default : No

  347. Forced : No


  348. Text #21

  349. ID : 24

  350. Format : PGS

  351. Muxing mode : zlib

  352. Codec ID : S_HDMV/PGS

  353. Codec ID/Info : Picture based subtitle format used on BDs/HD-DVDs

  354. Duration : 22 min 46 s

  355. Bit rate : 513 b/s

  356. Count of elements : 8

  357. Stream size : 85.6 KiB (0%)

  358. Title : Japanese

  359. Language : Japanese

  360. Default : No

  361. Forced : No


  362. Menu

  363. 00:00:00.000 : en:Chapter 01

  364. 00:13:11.708 : en:Chapter 02

  365. 00:18:19.181 : en:Chapter 03

  366. 00:28:52.648 : en:Chapter 04

  367. 00:37:12.730 : en:Chapter 05

  368. 00:41:40.081 : en:Chapter 06

  369. 00:49:57.578 : en:Chapter 07

  370. 01:01:09.165 : en:Chapter 08

  371. 01:06:56.930 : en:Chapter 09

  372. 01:18:27.620 : en:Chapter 10

  373. 01:27:42.883 : en:Chapter 11

  374. 01:36:18.439 : en:Chapter 12

  375. 01:43:43.467 : en:Chapter 13

  376. 01:55:39.015 : en:Chapter 14

  377. 01:59:00.175 : en:Chapter 15

  378. 02:03:19.392 : en:Chapter 16

复制代码

双虎屠龙[中文字幕].The.Man.Who.Shot.Liberty.Valance.1962.2160p.UHD.BluRay.x265.10bit.HDR.TrueHD.5.1 B0MBARDi  欧美电影  第3张 双虎屠龙[中文字幕].The.Man.Who.Shot.Liberty.Valance.1962.2160p.UHD.BluRay.x265.10bit.HDR.TrueHD.5.1 B0MBARDi  欧美电影  第4张 双虎屠龙[中文字幕].The.Man.Who.Shot.Liberty.Valance.1962.2160p.UHD.BluRay.x265.10bit.HDR.TrueHD.5.1 B0MBARDi  欧美电影  第5张


文件下载


除非特别注明,本文『双虎屠龙[中文字幕].The.Man.Who.Shot.Liberty.Valance.1962.2160p.UHD.BluRay.x265.10bit.HDR.TrueHD.5.1-B0MBARDi』来源于互联网机器人自动抓取,非本站原创。 浮游电影网不对本文拥有版权,如有侵犯,请联系邮箱:fuyouu#yandex.com[#换成@]投诉。我们会在15个工作日内删除。 但烦请转载时请标明出处:“本文转载于『浮游电影网』,原文地址:https://www.fuyouu.com/22250.html

评论吧骚年!

发表你的见解   

昵称*

E-mail*(建议输入,以便收到博主回复的提示邮件)

验证码*

您可以使用eMule或eMule Mod(Windows)、aMule(Win、Linux、Mac)等软件下载eD2k链接。。
eMule收藏集(.emulecollection)文件是您选中的所有链接的列表文件。eMule可以直接下载它们。
按住SHIFT键选择可以选中多个选择框。
可用文件名和大小选择器来选择文件。
文件名选择器帮您根据文件名称或后缀来选择文件。不分大小写。
符号使用:
和:空格( )、+
不包含:-
或:|
转义:一对英文引号("");
匹配开头:^
匹配结尾:$
例如:
选中所有名称中包含有“eMule”或“0.49c”字眼,但不包含有“exe”字眼的:emule|0.49c -exe
选中所有名称的开头是“eMule”,结尾是“0.49c”的:^emule 0.49c$
选中所有名称中带有“eMule 0.49c”的(必须是“eMule 0.49c”,中间没有别的字符,不能是“eMule fake 0.49c”),需要转义:"emule 0.49c"
大小选择器帮您根据文件大小选择文件。