当前位置: 首页 >> 国产电影 >> 陪安东尼度过漫长岁月[国语配音/中文字幕].Les.Aventures.d'Anthony.2015.2160p.WEB-DL.H265.AAC-CTRLWEB 2.95GB >> 正文

陪安东尼度过漫长岁月[国语配音/中文字幕].Les.Aventures.d'Anthony.2015.2160p.WEB-DL.H265.AAC-CTRLWEB 2.95GB

2022年05月19日 21:47:17     电影发布:来源于网络     电影分类:国产电影     评论(0)    

◎译 名 陪安东尼度过漫长岁月 / Les Aventures d'Anthony

◎年 代 2015

◎产 地 中国大陆

◎类 别 剧情 / 爱情

◎语 言 汉语普通话

◎上映日期 2015-11-13(中国大陆)

◎IMDb链接 https://www.imdb.com/title/tt4892682/

◎豆瓣评分 6.2/10 (92078人评价)

◎豆瓣链接 https://movie.douban.com/subject/26269510/

◎片 长 121分钟

◎导 演 秦小珍 Janet Chun (id:1274236)

◎编 剧 钱小蕙 Amy Chin (id:1280660)

冯靖晴 Jingqing Feng (id:1352850)

马亮 Liang Ma (id:1375639)

◎演 员 刘畅 Chang Liu (id:1344500)

白百何 Baihe Bai (id:1275542)

唐艺昕 Yixin Tang (id:1317578)

白举纲 Jugang Bai (id:1340456)

金世佳 Shijia Jin (id:1313839)

江一燕 Yiyan Jiang (id:1274286)

高圣远 Archie Kao (id:1036695)

禾浩辰 Bruce Hung (id:1341902)

宋芸桦 Vivian Sung (id:1341903)

潘虹 Hong Pan (id:1043330)

于荣光 Ringo Yu (id:1274556)

卢燕 Lisa Lu (id:1014332)

许龄月 Amelie Xu (id:1354409)

崔文璐 Wenlu Cui (id:1334226)

李川 Chuan Li (id:1353238)

周迅 Xun Zhou (id:1027798)

陈明憙 Jocelyn Chan (id:1381624)

蒋春亮 Chunliang Jiang (id:1462605)

陈迪凯 Water Chan Tik-Hoi (id:1345570)

◎简 介

影片是关于一个男生从20岁到23岁、从大学到工作、从国内到国外的生活片段及内心感悟。安东尼(刘畅 饰)是一个不特别、不会说很酷话的普通男生,在20岁的时候从大连留学墨尔本,并遇到了小萱(唐艺昕 饰)、家明(白举纲 饰)、小黑(宋芸桦 饰)、Pierre(布鲁斯 饰)等一众好友。在这漫长岁月里,发生了一系列或浪漫、或甜蜜、或可笑、或感人的故事。而他同时也记挂着远在日本的小樱(白百何 饰),时隔两年后在东京相见的他们,会发生怎样的故事……

影片根据安东尼的同名畅销作品改编。

◎获奖情况 (共1项)

第6届豆瓣电影鑫像奖 (2016)

鑫豆单元 最佳歌曲(提名)

  1. ##### MediaInfo ######

  2. General

  3. Complete name : Les.Aventures.d'Anthony.2015.2160p.WEB-DL.H265.AAC-CTRLWEB.mp4

  4. Format : MPEG-4

  5. Format profile : Base Media

  6. Codec ID : isom (isom/iso2/mp41)

  7. File size : 2.95 GiB

  8. Duration : 2 h 1 min

  9. Overall bit rate : 3 474 kb/s

  10. Recorded date : 2022-05-14T17:40:40.8294488+08:00

  11. Writing application : Lavf59.16.100

  12. Video

  13. ID : 1

  14. Format : HEVC

  15. Format/Info : High Efficiency Video Coding

  16. Format profile : [email protected]@Main

  17. Codec ID : hev1

  18. Codec ID/Info : High Efficiency Video Coding

  19. Duration : 2 h 1 min

  20. Bit rate : 3 344 kb/s

  21. Width : 3 840 pixels

  22. Height : 1 608 pixels

  23. Display aspect ratio : 2.40:1

  24. Frame rate mode : Constant

  25. Frame rate : 24.000 FPS

  26. Color space : YUV

  27. Chroma subsampling : 4:2:0

  28. Bit depth : 8 bits

  29. Bits/(Pixel*Frame) : 0.023

  30. Stream size : 2.84 GiB (96%)

  31. Codec configuration box : hvcC

  32. Audio

  33. ID : 2

  34. Format : AAC LC

  35. Format/Info : Advanced Audio Codec Low Complexity

  36. Codec ID : mp4a-40-2

  37. Duration : 2 h 1 min

  38. Bit rate mode : Constant

  39. Bit rate : 124 kb/s

  40. Channel(s) : 2 channels

  41. Channel layout : L R

  42. Sampling rate : 44.1 kHz

  43. Frame rate : 43.066 FPS (1024 SPF)

  44. Compression mode : Lossy

  45. Stream size : 108 MiB (4%)

  46. Default : Yes

  47. Alternate group : 1


复制代码



文件下载


除非特别注明,本文『陪安东尼度过漫长岁月[国语配音/中文字幕].Les.Aventures.d'Anthony.2015.2160p.WEB-DL.H265.AAC-CTRLWEB 2.95GB』来源于互联网机器人自动抓取,非本站原创。 浮游电影网不对本文拥有版权,如有侵犯,请联系邮箱:fuyouu#yandex.com[#换成@]投诉。我们会在15个工作日内删除。 但烦请转载时请标明出处:“本文转载于『浮游电影网』,原文地址:https://www.fuyouu.com/22236.html

评论吧骚年!

发表你的见解   

昵称*

E-mail*(建议输入,以便收到博主回复的提示邮件)

验证码*

您可以使用eMule或eMule Mod(Windows)、aMule(Win、Linux、Mac)等软件下载eD2k链接。。
eMule收藏集(.emulecollection)文件是您选中的所有链接的列表文件。eMule可以直接下载它们。
按住SHIFT键选择可以选中多个选择框。
可用文件名和大小选择器来选择文件。
文件名选择器帮您根据文件名称或后缀来选择文件。不分大小写。
符号使用:
和:空格( )、+
不包含:-
或:|
转义:一对英文引号("");
匹配开头:^
匹配结尾:$
例如:
选中所有名称中包含有“eMule”或“0.49c”字眼,但不包含有“exe”字眼的:emule|0.49c -exe
选中所有名称的开头是“eMule”,结尾是“0.49c”的:^emule 0.49c$
选中所有名称中带有“eMule 0.49c”的(必须是“eMule 0.49c”,中间没有别的字符,不能是“eMule fake 0.49c”),需要转义:"emule 0.49c"
大小选择器帮您根据文件大小选择文件。