当前位置: 首页 >> 欧美电影 >> 窈窕奶爸[中文字幕].Mrs.Doubtfire.1993.2160p.WEB-DL.x265.10bit.SDR.DTS-HD.MA.5.1-WELP 25.01GB >> 正文

窈窕奶爸[中文字幕].Mrs.Doubtfire.1993.2160p.WEB-DL.x265.10bit.SDR.DTS-HD.MA.5.1-WELP 25.01GB

2022年05月18日 20:32:15     电影发布:来源于网络     电影分类:欧美电影     评论(0)    

窈窕奶爸[中文字幕].Mrs.Doubtfire.1993.2160p.WEB DL.x265.10bit.SDR.DTS HD.MA.5.1 WELP 25.01GB  欧美电影  第1张

◎标 题 窈窕奶爸

◎译 名 道菲尔太太 / 肥妈先生

◎片 名 Mrs. Doubtfire

◎年 代 1993

◎产 地 美国

◎类 别 剧情 / 喜剧 / 家庭

◎语 言 英语

◎上映日期 1993-11-24

◎IMDb评分 7/10 (264136人评价)

◎IMDb链接 https://www.imdb.com/title/tt0107614/

◎豆瓣评分 7.8/10 (14945人评价)

◎豆瓣链接 https://movie.douban.com/subject/1295006/

◎片 长 125 分钟

◎导 演 克里斯·哥伦布 Chris Columbus

◎编 剧 安妮·法恩 Anne Fine

兰迪·梅耶姆·辛格 Randi Mayem Singer

莱斯利·迪克逊 Leslie Dixon

◎演 员 罗宾·威廉姆斯 Robin Williams

莎莉·菲尔德 Sally Field

皮尔斯·布鲁斯南 Pierce Brosnan

马修·劳伦斯 Matthew Lawrence

哈维·费斯特恩 Harvey Fierstein

罗伯特·普罗斯基 Robert Prosky

特伦斯·麦克格文 Terence McGovern

莉萨·雅克布 Lisa Jakub

安妮·哈尼 Anne Haney

保罗·吉尔福伊尔 Paul Guilfoyle

玛拉·威尔逊 Mara Wilson

马丁·马尔 Martin Mull

霍华德·肖 Howard Shore

唐纳德·麦卡尔平 Donald McAlpine

珍妮特·希尔森 Janet Hirshenson

安杰洛·P·格雷厄姆 Angelo P. Graham

加雷特·刘易斯 Garrett Lewis

斯蒂凡·杜普里斯 Stephan Dupuis

史蒂夫·普劳蒂 Steve Prouty

约兰达·塔辛 Yolanda Toussieng

维·尼尔 Ve Neill

基斯·范德兰 Keith VanderLaan

格雷格·卡农 Greg Cannom

Cherylanne Martin Cherylanne Martin

杰弗·海隆 Geoff Heron

◎简 介

丹尼尔•希拉德(罗宾•威廉斯 饰)因与同事产生摩擦而辞掉了配音员的工作。家中可爱的孩子给了他十足的快乐,于是丹尼尔在儿子生日的时候,与孩子们疯狂的玩耍起来。当妻子米兰(莎莉•菲尔德 饰)达看到家中一片狼藉后十分生气。面对不争气的丈夫,米兰达决定与之离婚,因为没有工作,丹尼尔也失去了孩子的抚养权。

丹尼尔对孩子们无比思念,突发奇想乔装成一名老太太——道特菲尔太太应聘成为妻子家中的佣人。不懂家务的丹尼尔闹出了不少的笑话,却无形中为米兰达减轻了负担,孩子们也开始依赖这名“老太太”,“道特菲尔太太”成为了他们家中的重要一员,丹尼尔也因此改变了不少。

但面对米兰达的新男友的恋情,“道特菲尔太太”暗中捣乱。米兰达生日当天,丹尼尔需要以真实身份与“道特菲尔太太”的身份周旋与电视台主管与米兰达之间,使他狼狈不看。匆忙间会否被米兰达识破身份呢?

  1. Video

  2. ID : 1

  3. Format : HEVC

  4. Format/Info : High Efficiency Video Coding

  5. Format profile : Main [email protected]@Main

  6. Codec ID : V_MPEGH/ISO/HEVC

  7. Duration : 2 h 5 min

  8. Bit rate : 24.9 Mb/s

  9. Width : 3 840 pixels

  10. Height : 2 160 pixels

  11. Display aspect ratio : 16:9

  12. Frame rate mode : Constant

  13. Frame rate : 23.976 (24000/1001/53354) FPS

  14. Color space : YUV

  15. Chroma subsampling : 4:2:0 (Type 2)

  16. Bit depth : 10 bits

  17. Bits/(Pixel*Frame) : 0.125

  18. Stream size : 21.8 GiB (87%)

  19. Default : Yes

  20. Forced : No

  21. Color range : Limited

  22. Color primaries : BT.709

  23. Transfer characteristics : BT.709

  24. Matrix coefficients : BT.709


  25. Audio #1

  26. ID : 2

  27. Format : DTS XLL

  28. Format/Info : Digital Theater Systems

  29. Commercial name : DTS-HD Master Audio

  30. Codec ID : A_DTS

  31. Duration : 2 h 5 min

  32. Bit rate mode : Variable

  33. Bit rate : 3 419 kb/s

  34. Channel(s) : 6 channels

  35. Channel layout : C L R Ls Rs LFE

  36. Sampling rate : 48.0 kHz

  37. Frame rate : 93.750 FPS (512 SPF)

  38. Bit depth : 24 bits

  39. Compression mode : Lossless

  40. Stream size : 2.99 GiB (12%)

  41. Title : 5.1 Upmix

  42. Language : English

  43. Default : Yes

  44. Forced : No


  45. Audio #2

  46. ID : 3

  47. Format : AC-3

  48. Format/Info : Audio Coding 3

  49. Commercial name : Dolby Digital

  50. Format settings : Dolby Surround

  51. Codec ID : A_AC3

  52. Duration : 2 h 5 min

  53. Bit rate mode : Constant

  54. Bit rate : 192 kb/s

  55. Channel(s) : 2 channels

  56. Channel layout : L R

  57. Sampling rate : 48.0 kHz

  58. Frame rate : 31.250 FPS (1536 SPF)

  59. Compression mode : Lossy

  60. Stream size : 172 MiB (1%)

  61. Title : Original Dolby Surround

  62. Language : English

  63. Service kind : Complete Main

  64. Default : No

  65. Forced : No


  66. Audio #3

  67. ID : 4

  68. Format : AC-3

  69. Format/Info : Audio Coding 3

  70. Commercial name : Dolby Digital

  71. Codec ID : A_AC3

  72. Duration : 2 h 5 min

  73. Bit rate mode : Constant

  74. Bit rate : 96.0 kb/s

  75. Channel(s) : 2 channels

  76. Channel layout : L R

  77. Sampling rate : 48.0 kHz

  78. Frame rate : 31.250 FPS (1536 SPF)

  79. Compression mode : Lossy

  80. Stream size : 85.9 MiB (0%)

  81. Title : Commentary by director Chris Columbus

  82. Language : English

  83. Service kind : Complete Main

  84. Default : No

  85. Forced : No


  86. Text #1

  87. ID : 5

  88. Format : UTF-8

  89. Codec ID : S_TEXT/UTF8

  90. Codec ID/Info : UTF-8 Plain Text

  91. Duration : 2 h 0 min

  92. Bit rate : 82 b/s

  93. Count of elements : 2015

  94. Stream size : 72.8 KiB (0%)

  95. Language : English

  96. Default : No

  97. Forced : No


  98. Text #2

  99. ID : 6

  100. Format : UTF-8

  101. Codec ID : S_TEXT/UTF8

  102. Codec ID/Info : UTF-8 Plain Text

  103. Duration : 2 h 0 min

  104. Bit rate : 87 b/s

  105. Count of elements : 2084

  106. Stream size : 77.0 KiB (0%)

  107. Title : SDH

  108. Language : English

  109. Default : No

  110. Forced : No


  111. Text #3

  112. ID : 7

  113. Format : UTF-8

  114. Codec ID : S_TEXT/UTF8

  115. Codec ID/Info : UTF-8 Plain Text

  116. Duration : 2 h 3 min

  117. Bit rate : 69 b/s

  118. Count of elements : 1547

  119. Stream size : 63.0 KiB (0%)

  120. Language : Danish

  121. Default : No

  122. Forced : No


  123. Text #4

  124. ID : 8

  125. Format : UTF-8

  126. Codec ID : S_TEXT/UTF8

  127. Codec ID/Info : UTF-8 Plain Text

  128. Duration : 2 h 3 min

  129. Bit rate : 72 b/s

  130. Count of elements : 1750

  131. Stream size : 66.2 KiB (0%)

  132. Language : German

  133. Default : No

  134. Forced : No


  135. Text #5

  136. ID : 9

  137. Format : UTF-8

  138. Codec ID : S_TEXT/UTF8

  139. Codec ID/Info : UTF-8 Plain Text

  140. Duration : 1 h 59 min

  141. Bit rate : 59 b/s

  142. Count of elements : 1522

  143. Stream size : 51.9 KiB (0%)

  144. Title : Latin American Spanish

  145. Language : Spanish

  146. Default : No

  147. Forced : No


  148. Text #6

  149. ID : 10

  150. Format : UTF-8

  151. Codec ID : S_TEXT/UTF8

  152. Codec ID/Info : UTF-8 Plain Text

  153. Duration : 2 h 4 min

  154. Bit rate : 71 b/s

  155. Count of elements : 1579

  156. Stream size : 64.7 KiB (0%)

  157. Title : Iberian Spanish

  158. Language : Spanish

  159. Default : No

  160. Forced : No


  161. Text #7

  162. ID : 11

  163. Format : UTF-8

  164. Codec ID : S_TEXT/UTF8

  165. Codec ID/Info : UTF-8 Plain Text

  166. Duration : 2 h 3 min

  167. Bit rate : 66 b/s

  168. Count of elements : 1509

  169. Stream size : 60.1 KiB (0%)

  170. Language : Finnish

  171. Default : No

  172. Forced : No


  173. Text #8

  174. ID : 12

  175. Format : UTF-8

  176. Codec ID : S_TEXT/UTF8

  177. Codec ID/Info : UTF-8 Plain Text

  178. Duration : 2 h 3 min

  179. Bit rate : 67 b/s

  180. Count of elements : 1509

  181. Stream size : 61.1 KiB (0%)

  182. Language : French

  183. Default : No

  184. Forced : No


  185. Text #9

  186. ID : 13

  187. Format : UTF-8

  188. Codec ID : S_TEXT/UTF8

  189. Codec ID/Info : UTF-8 Plain Text

  190. Duration : 2 h 4 min

  191. Bit rate : 74 b/s

  192. Count of elements : 1602

  193. Stream size : 67.5 KiB (0%)

  194. Language : Icelandic

  195. Default : No

  196. Forced : No


  197. Text #10

  198. ID : 14

  199. Format : UTF-8

  200. Codec ID : S_TEXT/UTF8

  201. Codec ID/Info : UTF-8 Plain Text

  202. Duration : 1 h 59 min

  203. Bit rate : 66 b/s

  204. Count of elements : 1697

  205. Stream size : 58.5 KiB (0%)

  206. Language : Italian

  207. Default : No

  208. Forced : No


  209. Text #11

  210. ID : 15

  211. Format : UTF-8

  212. Codec ID : S_TEXT/UTF8

  213. Codec ID/Info : UTF-8 Plain Text

  214. Duration : 1 h 59 min

  215. Bit rate : 52 b/s

  216. Count of elements : 1562

  217. Stream size : 46.0 KiB (0%)

  218. Language : Japanese

  219. Default : No

  220. Forced : No


  221. Text #12

  222. ID : 16

  223. Format : UTF-8

  224. Codec ID : S_TEXT/UTF8

  225. Codec ID/Info : UTF-8 Plain Text

  226. Duration : 2 h 0 min

  227. Bit rate : 51 b/s

  228. Count of elements : 1514

  229. Stream size : 45.1 KiB (0%)

  230. Language : Korean

  231. Default : No

  232. Forced : No


  233. Text #13

  234. ID : 17

  235. Format : UTF-8

  236. Codec ID : S_TEXT/UTF8

  237. Codec ID/Info : UTF-8 Plain Text

  238. Duration : 2 h 3 min

  239. Bit rate : 48 b/s

  240. Count of elements : 1500

  241. Stream size : 44.0 KiB (0%)

  242. Language : Dutch

  243. Default : No

  244. Forced : No


  245. Text #14

  246. ID : 18

  247. Format : UTF-8

  248. Codec ID : S_TEXT/UTF8

  249. Codec ID/Info : UTF-8 Plain Text

  250. Duration : 1 h 59 min

  251. Bit rate : 70 b/s

  252. Count of elements : 1525

  253. Stream size : 61.5 KiB (0%)

  254. Language : Norwegian

  255. Default : No

  256. Forced : No


  257. Text #15

  258. ID : 19

  259. Format : UTF-8

  260. Codec ID : S_TEXT/UTF8

  261. Codec ID/Info : UTF-8 Plain Text

  262. Duration : 1 h 59 min

  263. Bit rate : 67 b/s

  264. Count of elements : 1882

  265. Stream size : 59.0 KiB (0%)

  266. Language : Polish

  267. Default : No

  268. Forced : No


  269. Text #16

  270. ID : 20

  271. Format : UTF-8

  272. Codec ID : S_TEXT/UTF8

  273. Codec ID/Info : UTF-8 Plain Text

  274. Duration : 1 h 59 min

  275. Bit rate : 68 b/s

  276. Count of elements : 1644

  277. Stream size : 59.9 KiB (0%)

  278. Title : Brazilian Portuguese

  279. Language : Portuguese

  280. Default : No

  281. Forced : No


  282. Text #17

  283. ID : 21

  284. Format : UTF-8

  285. Codec ID : S_TEXT/UTF8

  286. Codec ID/Info : UTF-8 Plain Text

  287. Duration : 2 h 3 min

  288. Bit rate : 71 b/s

  289. Count of elements : 1577

  290. Stream size : 65.1 KiB (0%)

  291. Title : European Portuguese

  292. Language : Portuguese

  293. Default : No

  294. Forced : No


  295. Text #18

  296. ID : 22

  297. Format : UTF-8

  298. Codec ID : S_TEXT/UTF8

  299. Codec ID/Info : UTF-8 Plain Text

  300. Duration : 2 h 4 min

  301. Bit rate : 65 b/s

  302. Count of elements : 1594

  303. Stream size : 59.7 KiB (0%)

  304. Language : Romanian

  305. Default : No

  306. Forced : No


  307. Text #19

  308. ID : 23

  309. Format : UTF-8

  310. Codec ID : S_TEXT/UTF8

  311. Codec ID/Info : UTF-8 Plain Text

  312. Duration : 1 h 59 min

  313. Bit rate : 61 b/s

  314. Count of elements : 1501

  315. Stream size : 54.0 KiB (0%)

  316. Language : Swedish

  317. Default : No

  318. Forced : No


  319. Text #20

  320. ID : 24

  321. Format : UTF-8

  322. Codec ID : S_TEXT/UTF8

  323. Codec ID/Info : UTF-8 Plain Text

  324. Duration : 2 h 3 min

  325. Bit rate : 71 b/s

  326. Count of elements : 1710

  327. Stream size : 64.5 KiB (0%)

  328. Language : Turkish

  329. Default : No

  330. Forced : No


  331. Text #21

  332. ID : 25

  333. Format : UTF-8

  334. Codec ID : S_TEXT/UTF8

  335. Codec ID/Info : UTF-8 Plain Text

  336. Duration : 1 h 59 min

  337. Bit rate : 44 b/s

  338. Count of elements : 1500

  339. Stream size : 38.7 KiB (0%)

  340. Title : Chinese (Hong Kong)

  341. Language : Chinese

  342. Default : No

  343. Forced : No


  344. Text #22

  345. ID : 26

  346. Format : UTF-8

  347. Codec ID : S_TEXT/UTF8

  348. Codec ID/Info : UTF-8 Plain Text

  349. Duration : 1 h 59 min

  350. Bit rate : 61 b/s

  351. Count of elements : 1637

  352. Stream size : 54.0 KiB (0%)

  353. Title : Chinese (Simplified)

  354. Language : Chinese

  355. Default : No

  356. Forced : No


  357. Text #23

  358. ID : 27

  359. Format : UTF-8

  360. Codec ID : S_TEXT/UTF8

  361. Codec ID/Info : UTF-8 Plain Text

  362. Duration : 2 h 4 min

  363. Bit rate : 62 b/s

  364. Count of elements : 1960

  365. Stream size : 57.5 KiB (0%)

  366. Title : Chinese (Traditional)

  367. Language : Chinese

  368. Default : No

  369. Forced : No


  370. Menu

  371. 00:00:00.000 : en:Main Titles

  372. 00:07:28.906 : en:The Birthday Party

  373. 00:09:44.708 : en:The Party\'s Over

  374. 00:12:13.857 : en:A Temporary Thing

  375. 00:14:16.680 : en:Custody Proceedings

  376. 00:18:30.767 : en:The Court Liaison

  377. 00:21:16.766 : en:Reacquainted with Stu

  378. 00:23:50.119 : en:Dad\'s New Place

  379. 00:29:23.452 : en:Classified Responses

  380. 00:32:49.959 : en:Transformation

  381. 00:36:22.871 : en:Meet Mrs. Doubtfire

  382. 00:50:43.031 : en:Running a Tight Ship

  383. 00:59:25.586 : en:Getting into the Role

  384. 01:03:04.772 : en:A Gentleman Caller...

  385. 01:09:40.033 : en:A Real Dinosaur

  386. 01:17:11.618 : en:Beyond Obsession

  387. 01:22:11.918 : en:A Surprise Break

  388. 01:24:34.393 : en:\"Too Good To Be True\"

  389. 01:29:26.051 : en:Dinner at Bridges

  390. 01:39:52.644 : en:\"Show\'s Over.\"

  391. 01:49:39.397 : en:Nobody Like Her

  392. 01:56:52.329 : en:The New Babysitter

  393. 02:00:58.942 : en:End Title

复制代码

窈窕奶爸[中文字幕].Mrs.Doubtfire.1993.2160p.WEB DL.x265.10bit.SDR.DTS HD.MA.5.1 WELP 25.01GB  欧美电影  第3张 窈窕奶爸[中文字幕].Mrs.Doubtfire.1993.2160p.WEB DL.x265.10bit.SDR.DTS HD.MA.5.1 WELP 25.01GB  欧美电影  第4张 窈窕奶爸[中文字幕].Mrs.Doubtfire.1993.2160p.WEB DL.x265.10bit.SDR.DTS HD.MA.5.1 WELP 25.01GB  欧美电影  第5张



文件下载


除非特别注明,本文『窈窕奶爸[中文字幕].Mrs.Doubtfire.1993.2160p.WEB-DL.x265.10bit.SDR.DTS-HD.MA.5.1-WELP 25.01GB』来源于互联网机器人自动抓取,非本站原创。 浮游电影网不对本文拥有版权,如有侵犯,请联系邮箱:fuyouu#yandex.com[#换成@]投诉。我们会在15个工作日内删除。 但烦请转载时请标明出处:“本文转载于『浮游电影网』,原文地址:https://www.fuyouu.com/22232.html

评论吧骚年!

发表你的见解   

昵称*

E-mail*(建议输入,以便收到博主回复的提示邮件)

验证码*

您可以使用eMule或eMule Mod(Windows)、aMule(Win、Linux、Mac)等软件下载eD2k链接。。
eMule收藏集(.emulecollection)文件是您选中的所有链接的列表文件。eMule可以直接下载它们。
按住SHIFT键选择可以选中多个选择框。
可用文件名和大小选择器来选择文件。
文件名选择器帮您根据文件名称或后缀来选择文件。不分大小写。
符号使用:
和:空格( )、+
不包含:-
或:|
转义:一对英文引号("");
匹配开头:^
匹配结尾:$
例如:
选中所有名称中包含有“eMule”或“0.49c”字眼,但不包含有“exe”字眼的:emule|0.49c -exe
选中所有名称的开头是“eMule”,结尾是“0.49c”的:^emule 0.49c$
选中所有名称中带有“eMule 0.49c”的(必须是“eMule 0.49c”,中间没有别的字符,不能是“eMule fake 0.49c”),需要转义:"emule 0.49c"
大小选择器帮您根据文件大小选择文件。