当前位置: 首页 >> 欧美电影 >> 暗夜博士:莫比亚斯[简繁英字幕].Morbius.2022.2160p.MA.WEB-DL.HDR.HEVC.Atmos.DDP5.1-OPT 18.19GB >> 正文

暗夜博士:莫比亚斯[简繁英字幕].Morbius.2022.2160p.MA.WEB-DL.HDR.HEVC.Atmos.DDP5.1-OPT 18.19GB

2022年05月18日 20:28:13     电影发布:来源于网络     电影分类:欧美电影     评论(0)    

◎译 名 暗夜博士:莫比亚斯 / 莫比亚斯 / 魔比煞(港) / 魔比斯(台) / 莫比亚斯:暗夜博士 / 吸血鬼莫比亚斯 / Morbius the Living Vampire

◎片 名 Morbius

◎年 代 2022

◎产 地 美国

◎类 别 动作 / 科幻 / 惊悚 / 恐怖 / 冒险

◎语 言 英语 / 西班牙语 / 俄语

◎上映日期 2022-04-01(美国)

◎IMDb链接 https://www.imdb.com/title/tt5108870/

◎豆瓣评分 5.9/10 (1678人评价)

◎豆瓣链接 https://movie.douban.com/subject/27199850/

◎片 长 104分钟

◎导 演 丹尼尔·伊斯皮诺萨 Daniel Espinosa (id:1000735)

◎编 剧 马特·萨兹马 Matt Sazama (id:1340742)

伯克·沙普利斯 Burk Sharpless (id:1340743)

罗伊·托马斯 Roy Thomas (id:1042277)

吉尔·凯恩 Gil Kane (id:1112670)

◎演 员 杰瑞德·莱托 Jared Leto (id:1013764)

马特·史密斯 Matt Smith (id:1197648)

阿德里娅·阿霍纳 Adria Arjona (id:1348880)

杰瑞德·哈里斯 Jared Harris (id:1049700)

泰瑞斯·吉布森 Tyrese Gibson (id:1010486)

艾尔·马德里加尔 Al Madrigal (id:1433413)

迈克尔·基顿 Michael Keaton (id:1049486)

查理·肖特韦尔 Charlie Shotwell (id:1363353)

汤姆·福布斯 Tom Forbes (id:1434668)

克拉拉·罗萨杰 Clara Rosager (id:1411126)

克里·约翰逊 Corey Johnson (id:1045054)

宾利·卡鲁 Bentley Kalu (id:1340239)

阿奇·雷诺 Archie Renaux (id:1426494)

乔乔·马卡里 Jojo Macari (id:1419156)

亚伯拉罕·波波拉 Abraham Popoola (id:1457672)

巴里·艾尔德 Barry Aird (id:1368194)

克里斯·雷曼 Chris Ryman (id:1192122)

马诺伊·阿南德 Manoj Anand (id:1395012)

卡德罗莎·奥娜·卡罗尔 (id:1459808)

露丝·霍洛克斯 Ruth Horrocks (id:1397361)

贝恩·科拉科 Bern Colla?o (id:1394212)

丹尼尔·厄根 Daniel Eghan (id:1367202)

菲利普·加斯科因 Philip Gascoyne (id:1443992)

通恰伊·古奈什 Tuncay Gunes (id:1391308)

豪尔赫·莱昂·马丁内斯 Jorge Leon Martinez (id:1340070)

尼克·欧文福特 Nick Owenford (id:1362807)

贾格·帕特尔 Jag Patel (id:1392994)

黛博拉·洛克 Deborah Rock (id:1395006)

阿图尔·夏尔马 Atul Sharma (id:1397360)

戴维娜·西塔拉姆 Davina Sitaram (id:1407303)

吉米·斯达 Jimmy Star (id:1273873)

斯图尔特·惠兰 Stuart Whelan (id:1447200)

亚当·柯林斯 Adam Collins (id:1413373)

迪索·拉莫斯 Diezel Ramos (id:1341036)

J·K·西蒙斯 J.K. Simmons (id:1147911)

伊斯雷尔·鲁兹 Israel Ruiz (id:1199375)

辛迪·埃文斯 Cindy Evans (id:1427039)

◎简 介

《暗夜博士:莫比亚斯》将首次把漫威宇宙中最另类的暗黑超级英雄莫比亚斯呈现于大银幕。由奥斯卡最佳男配得主杰瑞德·莱托饰演的莫比亚斯博士身患一种罕见的血液疾病,命不久矣的他决心找到治疗方法拯救其他同病患者。为此,他孤注一掷试图根除疾病。一开始一切似乎都成功了,但他的内心深处有一股黑暗却无端释放。善念能否压制住邪恶,还是莫比亚斯会屈服于这神秘的欲望?

  1. ##### MediaInfo ######

  2. General

  3. Unique ID : 180085430337491939381263913477477009790 (0x877B31397D8A2CFFEEBC770B3C28897E)

  4. Complete name : Morbius.2022.2160p.MA.WEB-DL.HDR.HEVC.Atmos.DDP5.1-OPT.mkv

  5. Format : Matroska

  6. Format version : Version 4

  7. File size : 18.2 GiB

  8. Duration : 1 h 44 min

  9. Overall bit rate : 25.0 Mb/s

  10. Movie name : Morbius

  11. Encoded date : UTC 2022-05-17 10:11:31

  12. Writing application : mkvmerge v61.0.0 ('So') 64-bit

  13. Writing library : libebml v1.4.2 + libmatroska v1.6.4

  14. Cover : Yes

  15. Attachments : Cover.jpg

  16. Video

  17. ID : 1

  18. Format : HEVC

  19. Format/Info : High Efficiency Video Coding

  20. Format profile : Main [email protected]@High

  21. HDR format : SMPTE ST 2086, HDR10 compatible

  22. Codec ID : V_MPEGH/ISO/HEVC

  23. Duration : 1 h 44 min

  24. Bit rate : 24.2 Mb/s

  25. Width : 3 840 pixels

  26. Height : 2 160 pixels

  27. Display aspect ratio : 16:9

  28. Frame rate mode : Constant

  29. Frame rate : 23.976 (24000/1001/53354) FPS

  30. Color space : YUV

  31. Chroma subsampling : 4:2:0 (Type 2)

  32. Bit depth : 10 bits

  33. Bits/(Pixel*Frame) : 0.122

  34. Stream size : 17.6 GiB (97%)

  35. Language : English

  36. Default : Yes

  37. Forced : No

  38. Color range : Limited

  39. Color primaries : BT.2020

  40. Transfer characteristics : PQ

  41. Matrix coefficients : BT.2020 non-constant

  42. Mastering display color primaries : Display P3

  43. Mastering display luminance : min: 0.0050 cd/m2, max: 4000 cd/m2

  44. Maximum Content Light Level : 999 cd/m2

  45. Maximum Frame-Average Light Level : 299 cd/m2

  46. Audio

  47. ID : 2

  48. Format : E-AC-3 JOC

  49. Format/Info : Enhanced AC-3 with Joint Object Coding

  50. Commercial name : Dolby Digital Plus with Dolby Atmos

  51. Codec ID : A_EAC3

  52. Duration : 1 h 44 min

  53. Bit rate mode : Constant

  54. Bit rate : 768 kb/s

  55. Channel(s) : 6 channels

  56. Channel layout : L R C LFE Ls Rs

  57. Sampling rate : 48.0 kHz

  58. Frame rate : 31.250 FPS (1536 SPF)

  59. Compression mode : Lossy

  60. Stream size : 572 MiB (3%)

  61. Language : English

  62. Service kind : Complete Main

  63. Default : Yes

  64. Forced : No

  65. Complexity index : 16

  66. Number of dynamic objects : 15

  67. Bed channel count : 1 channel

  68. Bed channel configuration : LFE

  69. Text #1

  70. ID : 3

  71. Format : UTF-8

  72. Codec ID : S_TEXT/UTF8

  73. Codec ID/Info : UTF-8 Plain Text

  74. Duration : 1 h 34 min

  75. Bit rate : 40 b/s

  76. Count of elements : 958

  77. Stream size : 28.1 KiB (0%)

  78. Language : English

  79. Default : No

  80. Forced : No

  81. Text #2

  82. ID : 4

  83. Format : UTF-8

  84. Codec ID : S_TEXT/UTF8

  85. Codec ID/Info : UTF-8 Plain Text

  86. Duration : 1 h 38 min

  87. Bit rate : 45 b/s

  88. Count of elements : 1161

  89. Stream size : 33.0 KiB (0%)

  90. Title : SDH

  91. Language : English

  92. Default : No

  93. Forced : No

  94. Text #3

  95. ID : 5

  96. Format : UTF-8

  97. Codec ID : S_TEXT/UTF8

  98. Codec ID/Info : UTF-8 Plain Text

  99. Duration : 8 s 717 ms

  100. Bit rate : 75 b/s

  101. Count of elements : 2

  102. Stream size : 82.0 Bytes (0%)

  103. Title : Forced

  104. Language : English

  105. Default : Yes

  106. Forced : Yes

  107. Text #4

  108. ID : 6

  109. Format : UTF-8

  110. Codec ID : S_TEXT/UTF8

  111. Codec ID/Info : UTF-8 Plain Text

  112. Duration : 1 h 42 min

  113. Bit rate : 33 b/s

  114. Count of elements : 941

  115. Stream size : 25.4 KiB (0%)

  116. Title : 简体中字

  117. Language : Chinese

  118. Default : No

  119. Forced : No

  120. Text #5

  121. ID : 7

  122. Format : UTF-8

  123. Codec ID : S_TEXT/UTF8

  124. Codec ID/Info : UTF-8 Plain Text

  125. Duration : 1 h 42 min

  126. Bit rate : 31 b/s

  127. Count of elements : 953

  128. Stream size : 23.5 KiB (0%)

  129. Title : 繁体中字

  130. Language : Chinese

  131. Default : No

  132. Forced : No

  133. Text #6

  134. ID : 8

  135. Format : UTF-8

  136. Codec ID : S_TEXT/UTF8

  137. Codec ID/Info : UTF-8 Plain Text

  138. Duration : 1 h 41 min

  139. Bit rate : 36 b/s

  140. Count of elements : 933

  141. Stream size : 27.1 KiB (0%)

  142. Title : Europa

  143. Language : Spanish

  144. Default : No

  145. Forced : No

  146. Text #7

  147. ID : 9

  148. Format : UTF-8

  149. Codec ID : S_TEXT/UTF8

  150. Codec ID/Info : UTF-8 Plain Text

  151. Duration : 1 h 42 min

  152. Bit rate : 35 b/s

  153. Count of elements : 915

  154. Stream size : 26.3 KiB (0%)

  155. Language : French

  156. Default : No

  157. Forced : No

  158. Text #8

  159. ID : 10

  160. Format : PGS

  161. Muxing mode : zlib

  162. Codec ID : S_HDMV/PGS

  163. Codec ID/Info : Picture based subtitle format used on BDs/HD-DVDs

  164. Duration : 1 h 36 min

  165. Bit rate : 21.3 kb/s

  166. Count of elements : 1807

  167. Stream size : 14.6 MiB (0%)

  168. Title : 简体中字

  169. Language : Chinese

  170. Default : Yes

  171. Forced : No

  172. Text #9

  173. ID : 11

  174. Format : PGS

  175. Muxing mode : zlib

  176. Codec ID : S_HDMV/PGS

  177. Codec ID/Info : Picture based subtitle format used on BDs/HD-DVDs

  178. Duration : 1 h 36 min

  179. Bit rate : 21.7 kb/s

  180. Count of elements : 1807

  181. Stream size : 14.9 MiB (0%)

  182. Title : 繁体中字

  183. Language : Chinese

  184. Default : Yes

  185. Forced : No

  186. Text #10

  187. ID : 12

  188. Format : PGS

  189. Muxing mode : zlib

  190. Codec ID : S_HDMV/PGS

  191. Codec ID/Info : Picture based subtitle format used on BDs/HD-DVDs

  192. Duration : 1 h 36 min

  193. Bit rate : 38.1 kb/s

  194. Count of elements : 1807

  195. Stream size : 26.2 MiB (0%)

  196. Title : 简英双语

  197. Language : Chinese

  198. Default : Yes

  199. Forced : No

  200. Text #11

  201. ID : 13

  202. Format : PGS

  203. Muxing mode : zlib

  204. Codec ID : S_HDMV/PGS

  205. Codec ID/Info : Picture based subtitle format used on BDs/HD-DVDs

  206. Duration : 1 h 36 min

  207. Bit rate : 38.6 kb/s

  208. Count of elements : 1807

  209. Stream size : 26.5 MiB (0%)

  210. Title : 繁英双语

  211. Language : Chinese

  212. Default : Yes

  213. Forced : No

  214. Menu

  215. 00:00:00.000 : 1

  216. 00:05:05.000 : 2

  217. 00:11:14.000 : 3

  218. 00:18:02.000 : 4

  219. 00:23:35.000 : 5

  220. 00:30:22.000 : 6

  221. 00:37:55.000 : 7

  222. 00:44:53.000 : 8

  223. 00:48:24.000 : 9

  224. 00:55:06.000 : 10

  225. 01:01:03.000 : 11

  226. 01:08:09.000 : 12

  227. 01:15:50.000 : 13

  228. 01:21:20.000 : 14

  229. 01:25:21.000 : 15

  230. 01:32:01.000 : 16



文件下载


除非特别注明,本文『暗夜博士:莫比亚斯[简繁英字幕].Morbius.2022.2160p.MA.WEB-DL.HDR.HEVC.Atmos.DDP5.1-OPT 18.19GB』来源于互联网机器人自动抓取,非本站原创。 浮游电影网不对本文拥有版权,如有侵犯,请联系邮箱:fuyouu#yandex.com[#换成@]投诉。我们会在15个工作日内删除。 但烦请转载时请标明出处:“本文转载于『浮游电影网』,原文地址:https://www.fuyouu.com/22228.html

评论吧骚年!

发表你的见解   

昵称*

E-mail*(建议输入,以便收到博主回复的提示邮件)

验证码*

您可以使用eMule或eMule Mod(Windows)、aMule(Win、Linux、Mac)等软件下载eD2k链接。。
eMule收藏集(.emulecollection)文件是您选中的所有链接的列表文件。eMule可以直接下载它们。
按住SHIFT键选择可以选中多个选择框。
可用文件名和大小选择器来选择文件。
文件名选择器帮您根据文件名称或后缀来选择文件。不分大小写。
符号使用:
和:空格( )、+
不包含:-
或:|
转义:一对英文引号("");
匹配开头:^
匹配结尾:$
例如:
选中所有名称中包含有“eMule”或“0.49c”字眼,但不包含有“exe”字眼的:emule|0.49c -exe
选中所有名称的开头是“eMule”,结尾是“0.49c”的:^emule 0.49c$
选中所有名称中带有“eMule 0.49c”的(必须是“eMule 0.49c”,中间没有别的字符,不能是“eMule fake 0.49c”),需要转义:"emule 0.49c"
大小选择器帮您根据文件大小选择文件。