当前位置: 首页 >> 欧美电影 >> 新蝙蝠侠[中文字幕].The.Batman.2022.2160p.UHD.BluRay.x265.10bit.HDR.DTS-HD.MA.TrueHD.7.1.Atmos-SWTYBLZ 47.84G >> 正文

新蝙蝠侠[中文字幕].The.Batman.2022.2160p.UHD.BluRay.x265.10bit.HDR.DTS-HD.MA.TrueHD.7.1.Atmos-SWTYBLZ 47.84G

2022年05月18日 19:57:29     电影发布:来源于网络     电影分类:欧美电影     评论(0)    

◎标 题 新蝙蝠侠

◎译 名 蝙蝠侠(港 / 台) / 重启版蝙蝠侠

◎片 名 The Batman

◎年 代 2022

◎产 地 美国

◎类 别 剧情 / 动作 / 悬疑 / 犯罪

◎语 言 英语

◎上映日期 2022-03-18(中国大陆) / 2022-03-01(韩国) / 2022-03-04(美国) / 2022-04-19(美国网络)

◎IMDb链接 https://www.imdb.com/title/tt1877830/

◎豆瓣评分 7.3/10 (230173人评价)

◎豆瓣链接 https://movie.douban.com/subject/6424756/

◎片 长 176分钟

◎导 演 马特·里夫斯 Matt Reeves

◎编 剧 马特·里夫斯 Matt Reeves

彼得·克莱格 Peter Craig

比尔·芬格 Bill Finger

鲍勃·凯恩 Bob Kane

马特森·汤姆林 Mattson Tomlin

◎演 员 罗伯特·帕丁森 Robert Pattinson

佐伊·克罗维兹 Zoë Kravitz

保罗·达诺 Paul Dano

科林·法瑞尔 Colin Farrell

杰弗里·怀特 Jeffrey Wright

安迪·瑟金斯 Andy Serkis

约翰·特托罗 John Turturro

彼得·萨斯加德 Peter Sarsgaard

巴里·基奥恩 Barry Keoghan

杰米·劳森 Jayme Lawson

吉尔·佩雷斯-亚伯拉罕 Gil Perez-Abraham

彼得·麦克唐纳德 Peter McDonald

康·奥尼尔 Con O'Neill

亚历克斯·费恩斯 Alex Ferns

鲁伯特·彭利-琼斯 Rupert Penry-Jones

科莎·恩格勒 Kosha Engler

杰宁·哈瑞妮 Janine Harouni

卢克·罗伯茨 Luke Roberts

斯特拉·斯托克尔 Stella Stocker

桑德拉·迪金森 Sandra Dickinson

杰克·班尼特 Jack Bennett

约瑟夫·巴德拉玛 Joseph Balderrama

詹姆斯·伊莱斯 James Eeles

小利莫尔·马雷特 Leemore Marrett Jr.

斯图尔特·亚历山大 Stewart Alexander

马库斯·奥尼卢德 Marcus Onilude

埃琳娜·沙雷 Elena Saurel

托德·博伊斯 Todd Boyce

道格拉斯·罗素 Douglas Russell

查尔斯·卡维尔 Charles Carver

马克斯·卡维尔 Max Carver

马克·基林 Mark Killeen

洛娜·布朗 Lorna Brown

埃利奥特·沃伦 Elliot Warren

小田部阿基 Akie Kotabe

布隆森·韦伯 Bronson Webb

阿瑟·李 Arthur Lee

派瑞 格拉斯普 Parry Glasspool

娜塔丽·阿明 Nathalie Armin

何塞‧帕尔马 Jose Palma

玛吉·巴基尔 Maggie Bakir

露丝·霍洛克斯 Ruth Horrocks

贝恩·科拉科 Bern Collaço

丹尼尔·厄根 Daniel Eghan

雷切尔·汉德肖 Rachel Handshaw

爵克·哈迪 Juke Hardy

奥斯卡·诺瓦克 Oscar Novak

吉米·斯达 Jimmy Star

妮可拉·吉恩·马祖尔 Nichola Jean Mazur

杰伊·利库戈 Jay Lycurgo

马特·里夫斯 Matt Reeves

迪伦·克拉克 Dylan Clark

马切尔·E·尤斯兰 Michael E. Uslan

迈克·吉亚奇诺 Michael Giacchino

格雷格·弗莱瑟 Greig Fraser

泰勒·纳尔逊 Tyler Nelson

辛迪·托兰 Cindy Tolan

詹姆斯·钦伦德 James Chinlund

大卫·克罗斯曼 David Crossman

杰奎琳·杜兰 Jacqueline Durran

格林·狄龙 Glyn Dillon

丹·赖蒙 Dan Lemmon

◎简 介

布鲁斯·韦恩(罗伯特·帕丁森 饰)化身蝙蝠侠于哥谭市行侠仗义两年后,罪犯皆闻风丧胆,他也因此深入接触到哥谭市的阴暗面。他潜行于哥谭市腐败的政要名流关系网中,身边仅有的几个值得信赖的盟友——管家阿尔弗雷德·潘尼沃斯(安迪·瑟金斯 饰)与詹姆斯·戈登警长(杰弗里·怀特 饰)。这位独行的“义警侠探”在哥谭市民心中已成为“复仇”二字最当仁不让的代名词。

  1. Video

  2. ID : 1

  3. Format : HEVC

  4. Format/Info : High Efficiency Video Coding

  5. Format profile : Main [email protected]@High

  6. HDR format : SMPTE ST 2086, HDR10 compatible

  7. Codec ID : V_MPEGH/ISO/HEVC

  8. Duration : 2 h 56 min

  9. Bit rate : 31.3 Mb/s

  10. Width : 3 840 pixels

  11. Height : 1 608 pixels

  12. Display aspect ratio : 2.40:1

  13. Frame rate mode : Constant

  14. Frame rate : 23.976 (24000/1001/53354) FPS

  15. Color space : YUV

  16. Chroma subsampling : 4:2:0 (Type 2)

  17. Bit depth : 10 bits

  18. Bits/(Pixel*Frame) : 0.212

  19. Stream size : 38.6 GiB (81%)

  20. Writing library : x265 3.0_Au+10-74a8672ea4f7:[Windows][GCC 8.2.1][64 bit] 10bit

  21. Encoding settings : cpuid=533541111039 / frame-threads=6 / numa-pools=40 / wpp / no-pmode / no-pme / no-psnr / no-ssim / log-level=2 / input-csp=1 / input-res=3840x1608 / interlace=0 / total-frames=0 / level-idc=51 / high-tier=1 / uhd-bd=0 / ref=3 / no-allow-non-conformance / repeat-headers / annexb / aud / hrd / info / hash=0 / no-temporal-layers / no-open-gop / min-keyint=1 / keyint=24 / gop-lookahead=0 / bframes=4 / b-adapt=2 / b-pyramid / bframe-bias=0 / rc-lookahead=25 / lookahead-slices=4 / NTMzNTQ=uuDQuD2mJt9fsCf / scenecut=40 / radl=0 / no-splice / no-intra-refresh / ctu=64 / min-cu-size=8 / no-rect / no-amp / max-tu-size=32 / tu-inter-depth=1 / tu-intra-depth=1 / limit-tu=0 / rdoq-level=0 / dynamic-rd=0.00 / no-ssim-rd / signhide / no-tskip / nr-intra=0 / nr-inter=0 / no-constrained-intra / strong-intra-smoothing / max-merge=2 / limit-refs=3 / no-limit-modes / me=1 / subme=2 / merange=57 / temporal-mvp / weightp / no-weightb / no-analyze-src-pics / deblock=0:0 / no-sao / no-sao-non-deblock / rd=3 / no-early-skip / rskip / no-fast-intra / no-tskip-fast / no-cu-lossless / no-b-intra / no-splitrd-skip / rdpenalty=0 / psy-rd=2.00 / psy-rdoq=0.00 / no-rd-refine / no-lossless / cbqpoffs=0 / crqpoffs=0 / rc=crf / crf=12.0 / qcomp=0.60 / qpstep=4 / stats-write=0 / stats-read=0 / vbv-maxrate=160000 / vbv-bufsize=160000 / vbv-init=0.9 / crf-max=0.0 / crf-min=0.0 / ipratio=1.40 / pbratio=1.30 / aq-mode=1 / aq-strength=1.00 / cutree / zone-count=0 / no-strict-cbr / qg-size=32 / no-rc-grain / qpmax=69 / qpmin=0 / no-const-vbv / sar=1 / overscan=0 / videoformat=5 / range=0 / colorprim=9 / transfer=16 / colormatrix=9 / chromaloc=1 / chromaloc-top=2 / chromaloc-bottom=2 / display-window=0 / master-display=G(13250,34500)B(7500,3000)R(34000,16000)WP(15635,16450)L(10000000,01) / max-cll=413,65 / min-luma=0 / max-luma=1023 / log2-max-poc-lsb=8 / vui-timing-info / vui-hrd-info / slices=1 / opt-qp-pps / opt-ref-list-length-pps / no-multi-pass-opt-rps / scenecut-bias=0.05 / no-opt-cu-delta-qp / no-aq-motion / hdr / hdr-opt / no-dhdr10-opt / no-idr-recovery-sei / analysis-reuse-level=5 / scale-factor=0 / refine-intra=0 / refine-inter=0 / refine-mv=0 / refine-ctu-distortion=0 / no-limit-sao / ctu-info=0 / no-lowpass-dct / refine-analysis-type=0 / copy-pic=1 / max-ausize-factor=1.0 / no-dynamic-refine / no-single-sei / no-hevc-aq / no-svt / qp-adaptation-range=1.00

  22. Default : Yes

  23. Forced : No

  24. Color range : Limited

  25. Color primaries : BT.2020

  26. Transfer characteristics : PQ

  27. Matrix coefficients : BT.2020 non-constant

  28. Mastering display color primaries : Display P3

  29. Mastering display luminance : min: 0.0001 cd/m2, max: 1000 cd/m2

  30. Maximum Content Light Level : 413 cd/m2

  31. Maximum Frame-Average Light Level : 65 cd/m2


  32. Audio #1

  33. ID : 2

  34. Format : MLP FBA 16-ch

  35. Format/Info : Meridian Lossless Packing FBA with 16-channel presentation

  36. Commercial name : Dolby TrueHD with Dolby Atmos

  37. Codec ID : A_TRUEHD

  38. Duration : 2 h 56 min

  39. Bit rate mode : Variable

  40. Bit rate : 3 028 kb/s

  41. Maximum bit rate : 5 271 kb/s

  42. Channel(s) : 8 channels

  43. Channel layout : L R C LFE Ls Rs Lb Rb

  44. Sampling rate : 48.0 kHz

  45. Frame rate : 1 200.000 FPS (40 SPF)

  46. Compression mode : Lossless

  47. Stream size : 3.73 GiB (8%)

  48. Title : TrueHD Atmos 7.1

  49. Language : English

  50. Default : Yes

  51. Forced : No

  52. Number of dynamic objects : 11

  53. Bed channel count : 1 channel

  54. Bed channel configuration : LFE


  55. Audio #2

  56. ID : 3

  57. Format : DTS XLL

  58. Format/Info : Digital Theater Systems

  59. Commercial name : DTS-HD Master Audio

  60. Codec ID : A_DTS

  61. Duration : 2 h 56 min

  62. Bit rate mode : Variable

  63. Bit rate : 3 730 kb/s

  64. Channel(s) : 8 channels

  65. Channel layout : C L R LFE Lb Rb Lss Rss

  66. Sampling rate : 48.0 kHz

  67. Frame rate : 93.750 FPS (512 SPF)

  68. Bit depth : 24 bits

  69. Compression mode : Lossless

  70. Stream size : 4.59 GiB (10%)

  71. Title : DTS-HD MA 7.1

  72. Language : English

  73. Default : No

  74. Forced : No


  75. Audio #3

  76. ID : 4

  77. Format : AC-3

  78. Format/Info : Audio Coding 3

  79. Commercial name : Dolby Digital

  80. Format settings : Dolby Surround EX

  81. Codec ID : A_AC3

  82. Duration : 2 h 56 min

  83. Bit rate mode : Constant

  84. Bit rate : 448 kb/s

  85. Channel(s) : 6 channels

  86. Channel layout : L R C LFE Ls Rs

  87. Sampling rate : 48.0 kHz

  88. Frame rate : 31.250 FPS (1536 SPF)

  89. Compression mode : Lossy

  90. Stream size : 565 MiB (1%)

  91. Title : DD 5.1

  92. Language : English

  93. Service kind : Complete Main

  94. Default : No

  95. Forced : No


  96. Text #1

  97. ID : 5

  98. Format : UTF-8

  99. Codec ID : S_TEXT/UTF8

  100. Codec ID/Info : UTF-8 Plain Text

  101. Duration : 2 h 43 min

  102. Bit rate : 45 b/s

  103. Count of elements : 1865

  104. Stream size : 54.2 KiB (0%)

  105. Language : English

  106. Default : Yes

  107. Forced : No


  108. Text #2

  109. ID : 6

  110. Format : UTF-8

  111. Codec ID : S_TEXT/UTF8

  112. Codec ID/Info : UTF-8 Plain Text

  113. Duration : 2 h 55 min

  114. Bit rate : 53 b/s

  115. Count of elements : 2401

  116. Stream size : 68.8 KiB (0%)

  117. Title : SDH

  118. Language : English

  119. Default : No

  120. Forced : No


  121. Text #3

  122. ID : 7

  123. Format : PGS

  124. Muxing mode : zlib

  125. Codec ID : S_HDMV/PGS

  126. Codec ID/Info : Picture based subtitle format used on BDs/HD-DVDs

  127. Duration : 2 h 55 min

  128. Bit rate : 34.3 kb/s

  129. Count of elements : 4834

  130. Stream size : 43.1 MiB (0%)

  131. Title : English (SDH)

  132. Language : English

  133. Default : No

  134. Forced : No


  135. Text #4

  136. ID : 8

  137. Format : PGS

  138. Muxing mode : zlib

  139. Codec ID : S_HDMV/PGS

  140. Codec ID/Info : Picture based subtitle format used on BDs/HD-DVDs

  141. Duration : 2 h 55 min

  142. Bit rate : 24.1 kb/s

  143. Count of elements : 3836

  144. Stream size : 30.3 MiB (0%)

  145. Title : Bulgarian

  146. Language : Bulgarian

  147. Default : No

  148. Forced : No


  149. Text #5

  150. ID : 9

  151. Format : PGS

  152. Muxing mode : zlib

  153. Codec ID : S_HDMV/PGS

  154. Codec ID/Info : Picture based subtitle format used on BDs/HD-DVDs

  155. Duration : 2 h 55 min

  156. Bit rate : 24.2 kb/s

  157. Count of elements : 3866

  158. Stream size : 30.4 MiB (0%)

  159. Title : Chinese (Cantonese)

  160. Language : Chinese

  161. Default : No

  162. Forced : No


  163. Text #6

  164. ID : 10

  165. Format : PGS

  166. Muxing mode : zlib

  167. Codec ID : S_HDMV/PGS

  168. Codec ID/Info : Picture based subtitle format used on BDs/HD-DVDs

  169. Duration : 2 h 54 min

  170. Bit rate : 23.9 kb/s

  171. Count of elements : 3624

  172. Stream size : 29.9 MiB (0%)

  173. Title : Chinese (Traditional)

  174. Language : Chinese

  175. Default : No

  176. Forced : No


  177. Text #7

  178. ID : 11

  179. Format : PGS

  180. Muxing mode : zlib

  181. Codec ID : S_HDMV/PGS

  182. Codec ID/Info : Picture based subtitle format used on BDs/HD-DVDs

  183. Duration : 2 h 53 min

  184. Bit rate : 22.2 kb/s

  185. Count of elements : 2518

  186. Stream size : 27.6 MiB (0%)

  187. Title : Danish

  188. Language : Danish

  189. Default : No

  190. Forced : No


  191. Text #8

  192. ID : 12

  193. Format : PGS

  194. Muxing mode : zlib

  195. Codec ID : S_HDMV/PGS

  196. Codec ID/Info : Picture based subtitle format used on BDs/HD-DVDs

  197. Duration : 2 h 54 min

  198. Bit rate : 28.2 kb/s

  199. Count of elements : 3880

  200. Stream size : 35.2 MiB (0%)

  201. Title : Finnish

  202. Language : Finnish

  203. Default : No

  204. Forced : No


  205. Text #9

  206. ID : 13

  207. Format : PGS

  208. Muxing mode : zlib

  209. Codec ID : S_HDMV/PGS

  210. Codec ID/Info : Picture based subtitle format used on BDs/HD-DVDs

  211. Duration : 2 h 54 min

  212. Bit rate : 21.7 kb/s

  213. Count of elements : 3548

  214. Stream size : 27.1 MiB (0%)

  215. Title : French

  216. Language : French

  217. Default : No

  218. Forced : No


  219. Text #10

  220. ID : 14

  221. Format : PGS

  222. Muxing mode : zlib

  223. Codec ID : S_HDMV/PGS

  224. Codec ID/Info : Picture based subtitle format used on BDs/HD-DVDs

  225. Duration : 2 h 55 min

  226. Bit rate : 35.2 kb/s

  227. Count of elements : 3728

  228. Stream size : 44.3 MiB (0%)

  229. Title : German

  230. Language : German

  231. Default : No

  232. Forced : No


  233. Text #11

  234. ID : 15

  235. Format : PGS

  236. Muxing mode : zlib

  237. Codec ID : S_HDMV/PGS

  238. Codec ID/Info : Picture based subtitle format used on BDs/HD-DVDs

  239. Duration : 2 h 54 min

  240. Bit rate : 22.2 kb/s

  241. Count of elements : 2902

  242. Stream size : 27.6 MiB (0%)

  243. Title : Hungarian

  244. Language : Hungarian

  245. Default : No

  246. Forced : No


  247. Text #12

  248. ID : 16

  249. Format : PGS

  250. Muxing mode : zlib

  251. Codec ID : S_HDMV/PGS

  252. Codec ID/Info : Picture based subtitle format used on BDs/HD-DVDs

  253. Duration : 2 h 55 min

  254. Bit rate : 34.2 kb/s

  255. Count of elements : 5026

  256. Stream size : 43.0 MiB (0%)

  257. Title : Italian (SDH)

  258. Language : Italian

  259. Default : No

  260. Forced : No


  261. Text #13

  262. ID : 17

  263. Format : PGS

  264. Muxing mode : zlib

  265. Codec ID : S_HDMV/PGS

  266. Codec ID/Info : Picture based subtitle format used on BDs/HD-DVDs

  267. Duration : 2 h 55 min

  268. Bit rate : 14.4 kb/s

  269. Count of elements : 3784

  270. Stream size : 18.1 MiB (0%)

  271. Title : Korean

  272. Language : Korean

  273. Default : No

  274. Forced : No


  275. Text #14

  276. ID : 18

  277. Format : PGS

  278. Muxing mode : zlib

  279. Codec ID : S_HDMV/PGS

  280. Codec ID/Info : Picture based subtitle format used on BDs/HD-DVDs

  281. Duration : 2 h 54 min

  282. Bit rate : 24.0 kb/s

  283. Count of elements : 3108

  284. Stream size : 30.0 MiB (0%)

  285. Title : Norwegian

  286. Language : Norwegian

  287. Default : No

  288. Forced : No


  289. Text #15

  290. ID : 19

  291. Format : PGS

  292. Muxing mode : zlib

  293. Codec ID : S_HDMV/PGS

  294. Codec ID/Info : Picture based subtitle format used on BDs/HD-DVDs

  295. Duration : 2 h 54 min

  296. Bit rate : 24.5 kb/s

  297. Count of elements : 3554

  298. Stream size : 30.5 MiB (0%)

  299. Title : Romanian

  300. Language : Romanian

  301. Default : No

  302. Forced : No


  303. Text #16

  304. ID : 20

  305. Format : PGS

  306. Muxing mode : zlib

  307. Codec ID : S_HDMV/PGS

  308. Codec ID/Info : Picture based subtitle format used on BDs/HD-DVDs

  309. Duration : 2 h 54 min

  310. Bit rate : 24.5 kb/s

  311. Count of elements : 3804

  312. Stream size : 30.6 MiB (0%)

  313. Title : Spanish (Castilian)

  314. Language : Spanish

  315. Default : No

  316. Forced : No


  317. Text #17

  318. ID : 21

  319. Format : PGS

  320. Muxing mode : zlib

  321. Codec ID : S_HDMV/PGS

  322. Codec ID/Info : Picture based subtitle format used on BDs/HD-DVDs

  323. Duration : 2 h 54 min

  324. Bit rate : 27.4 kb/s

  325. Count of elements : 3854

  326. Stream size : 34.2 MiB (0%)

  327. Title : Spanish (Latin American)

  328. Language : Spanish

  329. Default : No

  330. Forced : No


  331. Text #18

  332. ID : 22

  333. Format : PGS

  334. Muxing mode : zlib

  335. Codec ID : S_HDMV/PGS

  336. Codec ID/Info : Picture based subtitle format used on BDs/HD-DVDs

  337. Duration : 2 h 54 min

  338. Bit rate : 23.3 kb/s

  339. Count of elements : 2800

  340. Stream size : 29.0 MiB (0%)

  341. Title : Swedish

  342. Language : Swedish

  343. Default : No

  344. Forced : No


  345. Menu

  346. 00:00:00.000 : en:Chapter 1

  347. 00:12:01.429 : en:Chapter 2

  348. 00:23:21.692 : en:Chapter 3

  349. 00:31:53.870 : en:Chapter 4

  350. 00:41:44.544 : en:Chapter 5

  351. 00:51:36.719 : en:Chapter 6

  352. 01:00:12.943 : en:Chapter 7

  353. 01:10:32.437 : en:Chapter 8

  354. 01:18:35.169 : en:Chapter 9

  355. 01:29:14.766 : en:Chapter 10

  356. 01:42:33.189 : en:Chapter 11

  357. 01:52:16.939 : en:Chapter 12

  358. 01:58:21.261 : en:Chapter 13

  359. 02:09:40.022 : en:Chapter 14

  360. 02:21:14.508 : en:Chapter 15

  361. 02:27:31.384 : en:Chapter 16

  362. 02:38:36.173 : en:Chapter 17

  363. 02:46:58.133 : en:Chapter 18

复制代码

新蝙蝠侠[中文字幕].The.Batman.2022.2160p.UHD.BluRay.x265.10bit.HDR.DTS HD.MA.TrueHD.7.1.Atmos SWTYBLZ 47.84G  欧美电影  第2张 新蝙蝠侠[中文字幕].The.Batman.2022.2160p.UHD.BluRay.x265.10bit.HDR.DTS HD.MA.TrueHD.7.1.Atmos SWTYBLZ 47.84G  欧美电影  第3张 新蝙蝠侠[中文字幕].The.Batman.2022.2160p.UHD.BluRay.x265.10bit.HDR.DTS HD.MA.TrueHD.7.1.Atmos SWTYBLZ 47.84G  欧美电影  第4张 新蝙蝠侠[中文字幕].The.Batman.2022.2160p.UHD.BluRay.x265.10bit.HDR.DTS HD.MA.TrueHD.7.1.Atmos SWTYBLZ 47.84G  欧美电影  第5张 新蝙蝠侠[中文字幕].The.Batman.2022.2160p.UHD.BluRay.x265.10bit.HDR.DTS HD.MA.TrueHD.7.1.Atmos SWTYBLZ 47.84G  欧美电影  第6张 新蝙蝠侠[中文字幕].The.Batman.2022.2160p.UHD.BluRay.x265.10bit.HDR.DTS HD.MA.TrueHD.7.1.Atmos SWTYBLZ 47.84G  欧美电影  第7张 新蝙蝠侠[中文字幕].The.Batman.2022.2160p.UHD.BluRay.x265.10bit.HDR.DTS HD.MA.TrueHD.7.1.Atmos SWTYBLZ 47.84G  欧美电影  第8张 新蝙蝠侠[中文字幕].The.Batman.2022.2160p.UHD.BluRay.x265.10bit.HDR.DTS HD.MA.TrueHD.7.1.Atmos SWTYBLZ 47.84G  欧美电影  第9张 新蝙蝠侠[中文字幕].The.Batman.2022.2160p.UHD.BluRay.x265.10bit.HDR.DTS HD.MA.TrueHD.7.1.Atmos SWTYBLZ 47.84G  欧美电影  第10张




文件下载


除非特别注明,本文『新蝙蝠侠[中文字幕].The.Batman.2022.2160p.UHD.BluRay.x265.10bit.HDR.DTS-HD.MA.TrueHD.7.1.Atmos-SWTYBLZ 47.84G』来源于互联网机器人自动抓取,非本站原创。 浮游电影网不对本文拥有版权,如有侵犯,请联系邮箱:fuyouu#yandex.com[#换成@]投诉。我们会在15个工作日内删除。 但烦请转载时请标明出处:“本文转载于『浮游电影网』,原文地址:https://www.fuyouu.com/22225.html

评论吧骚年!

发表你的见解   

昵称*

E-mail*(建议输入,以便收到博主回复的提示邮件)

验证码*

您可以使用eMule或eMule Mod(Windows)、aMule(Win、Linux、Mac)等软件下载eD2k链接。。
eMule收藏集(.emulecollection)文件是您选中的所有链接的列表文件。eMule可以直接下载它们。
按住SHIFT键选择可以选中多个选择框。
可用文件名和大小选择器来选择文件。
文件名选择器帮您根据文件名称或后缀来选择文件。不分大小写。
符号使用:
和:空格( )、+
不包含:-
或:|
转义:一对英文引号("");
匹配开头:^
匹配结尾:$
例如:
选中所有名称中包含有“eMule”或“0.49c”字眼,但不包含有“exe”字眼的:emule|0.49c -exe
选中所有名称的开头是“eMule”,结尾是“0.49c”的:^emule 0.49c$
选中所有名称中带有“eMule 0.49c”的(必须是“eMule 0.49c”,中间没有别的字符,不能是“eMule fake 0.49c”),需要转义:"emule 0.49c"
大小选择器帮您根据文件大小选择文件。