当前位置: 首页 >> 港台电影 >> 黄飞鸿[共6部合集][国粤英多音轨/简繁英字幕].Once.Upon.a.Time.in.China.1991-1997.CC.BluRay.1080p.2Audio.DTS-HD.MA.2.0.x2 >> 正文

黄飞鸿[共6部合集][国粤英多音轨/简繁英字幕].Once.Upon.a.Time.in.China.1991-1997.CC.BluRay.1080p.2Audio.DTS-HD.MA.2.0.x2

2022年05月18日 15:48:58     电影发布:来源于网络     电影分类:港台电影     评论(0)    

◎译 名 黄飞鸿 / 黄飞鸿之壮志凌云 / 武状元黄飞鸿 / Once Upon a Time in China / Wong Fei-Hung

◎片 名 黃飛鴻

◎年 代 1991

◎产 地 中国香港

◎类 别 剧情 / 动作 / 武侠 / 古装

◎语 言 粤语 / 英语 / 汉语普通话

◎上映日期 1991-08-15

◎IMDb链接 https://www.imdb.com/title/tt0103285/

◎豆瓣评分 8.3/10 (157981人评价)

◎豆瓣链接 https://movie.douban.com/subject/1298443/

◎片 长 134分钟

◎导 演 徐克 Hark Tsui (id:1007152)

◎编 剧 徐克 Hark Tsui (id:1007152)

阮继志 Kai-Chi Yun (id:1322097)

邓碧燕 Elsa Tang (id:1321260)

梁耀明 Yiu-ming Leung (id:1377232)

◎演 员 李连杰 Jet Li (id:1025146)

元彪 Biao Yuen (id:1163752)

关之琳 Rosamund Kwan (id:1028064)

张学友 Jacky Cheung (id:1012563)

郑则仕 Kent Cheng (id:1019278)

邱建国 Jianguo Qiu (id:1324739)

任世官 Shi-Kwan Yen (id:1165667)

熊欣欣 Xinxin Xiong (id:1033090)

余袁稳 Yu Yuen Yin (id:1364266)

秦贵宝 Kwai Po Chun (id:1417957)

江全 Chuen Chiang (id:1422721)

布鲁斯·方丹 Bruce Fontaine (id:1458121)

岑潜波 Chien-Po Tsen (id:1373123)

林富伟 Fu-wai Lam (id:1433957)

许思敏 Si Man Hui (id:1414674)

任达华 Simon Yam (id:1031194)

黄子扬 Chi Yeung Wong (id:1025832)

午马 Wu Ma (id:1054282)

刘洵 Shun Lau (id:1274304)

石坚 Kien Shih (id:1140701)

袁信义 Shun-Yee Yuen (id:1301576)

袁祥仁 Cheung-Yan Yuen (id:1301574)

麦克·里德 Mike Leeder (id:1382791)

冯雪瑞 Xuerui Feng (id:1329826)

徐克 Hark Tsui (id:1007152)

朱嘉懿 Julia Chu (id:1415701)

黄霑 James Wong (id:1008091)

戴乐民 Romeo Díaz (id:1282921)

黄岳泰 Arthur Wong (id:1301185)

黄仲标 Bill Wong (id:1301175)

林国华 Ardy Lam (id:1289296)

钟志文 David Chung (id:1280776)

周伟权 Wai-kuen Chow (id:1439948)

陈东村 Tung-Chuen Chan (id:1280450)

陈沛佳 Wilson Chan (id:1280449)

麦子善 Marco Mak (id:1280638)

奚仲文 Chung-Man Hai (id:1275027)

余家安 Bruce Yu (id:1301555)

黄巧蓉 Hau-yung Wong (id:1439947)

黎继强 Kai Keung Lai (id:1289263)

霍永富 Marcus Fox (id:1445546)

罗礼贤 Bruce Law (id:1289542)

周少龙 Shao Lung Chou (id:1344862)

邹文怀 Raymond Chow (id:1016883)

鄒林 Lam Chow (id:1330610)

◎简 介

清朝末年,曾任黑旗水军教头兼民团总教练的广东佛山武师黄飞鸿(李连杰)常在宝芝林教人练武,期望借此自强救国,可是眼见政府苟且偷生洋人横行霸道,他渐渐领悟到单凭武术不足以使民众从苦海中脱离,开始努力找寻其它救国出路。梅县梁宽(元彪)在戏院结识黄飞鸿的恋人十三姨(关之琳)后与黄飞鸿出生种种误会,终投武夫严振东门下与黄飞鸿成为敌手。

严振东与洋人连手鼓吹美国是金山世界,将包括十三姨在内的大批中国妇女骗掳上洋船,梁宽此时幡然醒悟,明白黄飞鸿是友非敌,在他的帮助下,黄飞鸿开始与洋人及其爪牙展开浴血奋战。

◎获奖情况 (共9项)

第28届台北金马影展 (1991)

金马奖 最佳原创配乐

第11届香港电影金像奖 (1992)

最佳电影(提名)

最佳导演

└──徐克 (id:1007152)

最佳男配角(提名)

└──张学友 (id:1012563)

最佳摄影(提名)

最佳剪接

└──麦子善 (id:1280638)

最佳美术指导(提名)

└──奚仲文 (id:1275027)

最佳动作设计

最佳原创电影音乐

└──黄霑 (id:1008091)

  1. 合集文件列表:

  2. 1.Once.Upon.a.Time.in.China.1991.CC.BluRay.1080p.2Audio.DTS-HD.MA.2.0.x265.10bit-ALT.mkv 13.88GB

  3. 2.Once.Upon.a.Time.in.China.and.America.1997.CC.BluRay.1080p.2Audio.DTS-HD.MA.5.1.x265.10bit-ALT.mkv 10.64GB

  4. 3.Once.Upon.a.Time.in.China.II.1992.CC.BluRay.1080p.2Audio.DTS-HD.MA.2.0.x265.10bit-ALT.mkv 13.84GB

  5. 4.Once.Upon.a.Time.in.China.III.1992.CC.BluRay.1080p.2Audio.DTS-HD.MA.2.0.x265.10bit-ALT.mkv 11.88GB

  6. 5.Once.Upon.a.Time.in.China.IV.1993.CC.BluRay.1080p.2Audio.DTS-HD.MA.1.0.x265.10bit-ALT.mkv 9.59GB

  7. 6.Once.Upon.a.Time.in.China.V.1994.CC.BluRay.1080p.DTS-HD.MA.1.0.x265.10bit-ALT.mkv 9.00GB


复制代码

  1. ##### MediaInfo ######

  2. General

  3. Unique ID : 49881339433441506801529351763593554474 (0x2586CBE943FFA3D8EAB87CE41F5C6A2A)

  4. Complete name : Once.Upon.a.Time.in.China.1991.CC.BluRay.1080p.2Audio.DTS-HD.MA.2.0.x265.10bit-BeiTai.mkv

  5. Format : Matroska

  6. Format version : Version 4

  7. File size : 13.9 GiB

  8. Duration : 2 h 14 min

  9. Overall bit rate mode : Variable

  10. Overall bit rate : 14.7 Mb/s

  11. Encoded date : UTC 2021-12-21 06:29:35

  12. Writing application : mkvmerge v49.0.0 ('Sick Of Losing Soulmates') 64-bit

  13. Writing library : libebml v1.4.0 + libmatroska v1.6.1

  14. Video

  15. ID : 1

  16. Format : HEVC

  17. Format/Info : High Efficiency Video Coding

  18. Format profile : Main [email protected]@High

  19. Codec ID : V_MPEGH/ISO/HEVC

  20. Duration : 2 h 14 min

  21. Bit rate : 12.7 Mb/s

  22. Width : 1 920 pixels

  23. Height : 804 pixels

  24. Display aspect ratio : 2.40:1

  25. Frame rate mode : Constant

  26. Frame rate : 23.976 (24000/1001/53354) FPS

  27. Color space : YUV

  28. Chroma subsampling : 4:2:0

  29. Bit depth : 10 bits

  30. Bits/(Pixel*Frame) : 0.343

  31. Stream size : 12.0 GiB (86%)

  32. Title : HEVC, [email protected]@High, 24/1.001 fps @ 12691 kbps

  33. Writing library : x265 3.4+14-gd419c7152:[Windows][GCC 10.2.0][64 bit] 10bit

  34. Encoding settings : cpuid=533541111039 / frame-threads=4 / numa-pools=16 / wpp / pmode / pme / no-psnr / no-ssim / log-level=2 / input-csp=1 / input-res=1920x804 / interlace=0 / total-frames=194000 / level-idc=51 / high-tier=1 / uhd-bd=0 / ref=5 / no-allow-non-conformance / no-repeat-headers / annexb / no-aud / no-hrd / info / hash=0 / no-temporal-layers / open-gop / min-keyint=24 / keyint=240 / gop-lookahead=0 / bframes=6 / b-adapt=2 / b-pyramid / bframe-bias=0 / rc-lookahead=40 / lookahead-slices=0 / NTMzNTQ=uuDQuD2mJt9fsCf / scenecut=40 / hist-scenecut=0 / radl=0 / no-splice / no-intra-refresh / ctu=32 / min-cu-size=8 / no-rect / no-amp / max-tu-size=32 / tu-inter-depth=3 / tu-intra-depth=3 / limit-tu=4 / rdoq-level=2 / dynamic-rd=0.00 / no-ssim-rd / signhide / no-tskip / nr-intra=0 / nr-inter=0 / no-constrained-intra / no-strong-intra-smoothing / max-merge=4 / limit-refs=1 / limit-modes / me=3 / subme=4 / merange=25 / temporal-mvp / no-frame-dup / no-hme / weightp / weightb / no-analyze-src-pics / deblock=-3:-3 / no-sao / no-sao-non-deblock / rd=6 / selective-sao=0 / no-early-skip / rskip / no-fast-intra / no-tskip-fast / no-cu-lossless / b-intra / no-splitrd-skip / rdpenalty=0 / psy-rd=2.00 / psy-rdoq=1.00 / no-rd-refine / no-lossless / cbqpoffs=0 / crqpoffs=0 / rc=crf / crf=20.5 / qcomp=0.65 / qpstep=4 / stats-write=0 / stats-read=0 / vbv-maxrate=80000 / vbv-bufsize=80000 / vbv-init=0.9 / crf-max=0.0 / crf-min=0.0 / ipratio=1.40 / pbratio=1.30 / aq-mode=2 / aq-strength=0.85 / cutree / zone-count=0 / no-strict-cbr / qg-size=32 / no-rc-grain / qpmax=69 / qpmin=0 / no-const-vbv / sar=1 / overscan=0 / videoformat=5 / range=0 / colorprim=1 / transfer=1 / colormatrix=1 / chromaloc=0 / display-window=0 / cll=0,0 / min-luma=0 / max-luma=1023 / log2-max-poc-lsb=8 / vui-timing-info / vui-hrd-info / slices=1 / no-opt-qp-pps / no-opt-ref-list-length-pps / no-multi-pass-opt-rps / scenecut-bias=0.05 / hist-threshold=0.03 / no-opt-cu-delta-qp / no-aq-motion / no-hdr10 / no-hdr10-opt / no-dhdr10-opt / no-idr-recovery-sei / analysis-reuse-level=0 / analysis-save-reuse-level=0 / analysis-load-reuse-level=0 / scale-factor=0 / refine-intra=0 / refine-inter=0 / refine-mv=1 / refine-ctu-distortion=0 / no-limit-sao / ctu-info=0 / no-lowpass-dct / refine-analysis-type=0 / copy-pic=1 / max-ausize-factor=1.0 / no-dynamic-refine / no-single-sei / no-hevc-aq / no-svt / no-field / qp-adaptation-range=1.00 / no-scenecut-aware-qpconformance-window-offsets / right=0 / bottom=0 / NTMzNTQ= / decoder-max-rate=0

  35. Language : English

  36. Default : Yes

  37. Forced : No

  38. Color range : Limited

  39. Color primaries : BT.709

  40. Transfer characteristics : BT.709

  41. Matrix coefficients : BT.709

  42. Audio #1

  43. ID : 2

  44. Format : DTS XLL

  45. Format/Info : Digital Theater Systems

  46. Commercial name : DTS-HD Master Audio

  47. Codec ID : A_DTS

  48. Duration : 2 h 14 min

  49. Bit rate mode : Variable

  50. Bit rate : 1 500 kb/s

  51. Channel(s) : 2 channels

  52. Channel layout : L R

  53. Sampling rate : 48.0 kHz

  54. Frame rate : 93.750 FPS (512 SPF)

  55. Bit depth : 24 bits

  56. Compression mode : Lossless

  57. Stream size : 1.41 GiB (10%)

  58. Title : Cantonese DTS-HD Master Audio 2.0 @ 1501 kbps

  59. Language : Chinese

  60. Default : Yes

  61. Forced : No

  62. Audio #2

  63. ID : 3

  64. Format : AC-3

  65. Format/Info : Audio Coding 3

  66. Commercial name : Dolby Digital

  67. Codec ID : A_AC3

  68. Duration : 2 h 14 min

  69. Bit rate mode : Constant

  70. Bit rate : 448 kb/s

  71. Channel(s) : 2 channels

  72. Channel layout : L R

  73. Sampling rate : 48.0 kHz

  74. Frame rate : 31.250 FPS (1536 SPF)

  75. Compression mode : Lossy

  76. Stream size : 432 MiB (3%)

  77. Title : Mandarin Dolby Digital Audio 2.0 @ 448 kbps

  78. Language : Chinese

  79. Service kind : Complete Main

  80. Default : No

  81. Forced : No

  82. Text #1

  83. ID : 4

  84. Format : PGS

  85. Codec ID : S_HDMV/PGS

  86. Codec ID/Info : Picture based subtitle format used on BDs/HD-DVDs

  87. Duration : 2 h 10 min

  88. Bit rate : 38.3 kb/s

  89. Count of elements : 2550

  90. Stream size : 35.8 MiB (0%)

  91. Title : Eng/SUP

  92. Language : English

  93. Default : No

  94. Forced : No

  95. Text #2

  96. ID : 5

  97. Format : PGS

  98. Codec ID : S_HDMV/PGS

  99. Codec ID/Info : Picture based subtitle format used on BDs/HD-DVDs

  100. Duration : 2 h 12 min

  101. Bit rate : 28.6 kb/s

  102. Count of elements : 2803

  103. Stream size : 27.0 MiB (0%)

  104. Title : Chs/SUP 简体

  105. Language : Chinese

  106. Default : Yes

  107. Forced : No

  108. Text #3

  109. ID : 6

  110. Format : PGS

  111. Codec ID : S_HDMV/PGS

  112. Codec ID/Info : Picture based subtitle format used on BDs/HD-DVDs

  113. Duration : 2 h 12 min

  114. Bit rate : 29.2 kb/s

  115. Count of elements : 2803

  116. Stream size : 27.6 MiB (0%)

  117. Title : Cht/SUP 繁体

  118. Language : Chinese

  119. Default : No

  120. Forced : No

  121. Menu

  122. 00:00:00.000 : en:第 01 章

  123. 00:06:42.402 : en:第 02 章

  124. 00:09:11.885 : en:第 03 章

  125. 00:13:24.053 : en:第 04 章

  126. 00:16:08.092 : en:第 05 章

  127. 00:19:47.103 : en:第 06 章

  128. 00:21:33.125 : en:第 07 章

  129. 00:24:37.643 : en:第 08 章

  130. 00:31:52.828 : en:第 09 章

  131. 00:37:47.474 : en:第 10 章

  132. 00:42:35.511 : en:第 11 章

  133. 00:47:16.625 : en:第 12 章

  134. 00:51:46.854 : en:第 13 章

  135. 00:57:37.663 : en:第 14 章

  136. 01:07:55.863 : en:第 15 章

  137. 01:10:38.276 : en:第 16 章

  138. 01:14:58.369 : en:第 17 章

  139. 01:22:26.275 : en:第 18 章

  140. 01:32:00.598 : en:第 19 章

  141. 01:35:09.078 : en:第 20 章

  142. 01:41:18.114 : en:第 21 章

  143. 01:49:03.162 : en:第 22 章

  144. 01:52:19.066 : en:第 23 章

  145. 02:01:02.589 : en:第 24 章

  146. 02:07:57.044 : en:第 25 章

  147. 02:12:16.554 : en:第 26 章


复制代码



文件下载


除非特别注明,本文『黄飞鸿[共6部合集][国粤英多音轨/简繁英字幕].Once.Upon.a.Time.in.China.1991-1997.CC.BluRay.1080p.2Audio.DTS-HD.MA.2.0.x2』来源于互联网机器人自动抓取,非本站原创。 浮游电影网不对本文拥有版权,如有侵犯,请联系邮箱:fuyouu#yandex.com[#换成@]投诉。我们会在15个工作日内删除。 但烦请转载时请标明出处:“本文转载于『浮游电影网』,原文地址:https://www.fuyouu.com/22223.html

评论吧骚年!

发表你的见解   

昵称*

E-mail*(建议输入,以便收到博主回复的提示邮件)

验证码*

您可以使用eMule或eMule Mod(Windows)、aMule(Win、Linux、Mac)等软件下载eD2k链接。。
eMule收藏集(.emulecollection)文件是您选中的所有链接的列表文件。eMule可以直接下载它们。
按住SHIFT键选择可以选中多个选择框。
可用文件名和大小选择器来选择文件。
文件名选择器帮您根据文件名称或后缀来选择文件。不分大小写。
符号使用:
和:空格( )、+
不包含:-
或:|
转义:一对英文引号("");
匹配开头:^
匹配结尾:$
例如:
选中所有名称中包含有“eMule”或“0.49c”字眼,但不包含有“exe”字眼的:emule|0.49c -exe
选中所有名称的开头是“eMule”,结尾是“0.49c”的:^emule 0.49c$
选中所有名称中带有“eMule 0.49c”的(必须是“eMule 0.49c”,中间没有别的字符,不能是“eMule fake 0.49c”),需要转义:"emule 0.49c"
大小选择器帮您根据文件大小选择文件。