当前位置: 首页 >> 欧美电影 >> 暗夜博士:莫比亚斯[中文字幕].Morbius.2022.2160p.MA.WEB-DL.x265.10bit.HDR.DDP5.1.Atmos-CM 18.15GB >> 正文

暗夜博士:莫比亚斯[中文字幕].Morbius.2022.2160p.MA.WEB-DL.x265.10bit.HDR.DDP5.1.Atmos-CM 18.15GB

2022年05月17日 22:40:04     电影发布:来源于网络     电影分类:欧美电影     评论(0)    

暗夜博士:莫比亚斯[中文字幕].Morbius.2022.2160p.MA.WEB DL.x265.10bit.HDR.DDP5.1.Atmos CM 18.15GB  欧美电影  第1张

暗夜博士:莫比亚斯[中文字幕].Morbius.2022.2160p.MA.WEB DL.x265.10bit.HDR.DDP5.1.Atmos CM 18.15GB  欧美电影  第2张

◎标 题 暗夜博士:莫比亚斯

◎译 名 莫比亚斯 / 魔比煞(港) / 魔比斯(台) / 莫比亚斯:暗夜博士 / 吸血鬼莫比亚斯 / Morbius the Living Vampire

◎片 名 Morbius

◎年 代 2022

◎产 地 美国

◎类 别 动作 / 科幻 / 惊悚 / 恐怖 / 冒险

◎语 言 英语 / 西班牙语 / 俄语

◎上映日期 2022-04-01(美国)

◎IMDb评分 5.1/10 (46124人评价)

◎IMDb链接 https://www.imdb.com/title/tt5108870/

◎豆瓣评分 5.9/10 (1678人评价)

◎豆瓣链接 https://movie.douban.com/subject/27199850/

◎片 长 104分钟

◎导 演 丹尼尔·伊斯皮诺萨 Daniel Espinosa

◎编 剧 马特·萨兹马 Matt Sazama

伯克·沙普利斯 Burk Sharpless

罗伊·托马斯 Roy Thomas

吉尔·凯恩 Gil Kane

◎演 员 杰瑞德·莱托 Jared Leto

马特·史密斯 Matt Smith

阿德里娅·阿霍纳 Adria Arjona

杰瑞德·哈里斯 Jared Harris

泰瑞斯·吉布森 Tyrese Gibson

艾尔·马德里加尔 Al Madrigal

迈克尔·基顿 Michael Keaton

查理·肖特韦尔 Charlie Shotwell

汤姆·福布斯 Tom Forbes

克拉拉·罗萨杰 Clara Rosager

克里·约翰逊 Corey Johnson

宾利·卡鲁 Bentley Kalu

阿奇·雷诺 Archie Renaux

乔乔·马卡里 Jojo Macari

亚伯拉罕·波波拉 Abraham Popoola

巴里·艾尔德 Barry Aird

克里斯·雷曼 Chris Ryman

马诺伊·阿南德 Manoj Anand

卡德罗莎·奥娜·卡罗尔

露丝·霍洛克斯 Ruth Horrocks

贝恩·科拉科 Bern Collaço

丹尼尔·厄根 Daniel Eghan

菲利普·加斯科因 Philip Gascoyne

通恰伊·古奈什 Tuncay Gunes

豪尔赫·莱昂·马丁内斯 Jorge Leon Martinez

尼克·欧文福特 Nick Owenford

贾格·帕特尔 Jag Patel

黛博拉·洛克 Deborah Rock

阿图尔·夏尔马 Atul Sharma

戴维娜·西塔拉姆 Davina Sitaram

吉米·斯达 Jimmy Star

斯图尔特·惠兰 Stuart Whelan

亚当·柯林斯 Adam Collins

迪索·拉莫斯 Diezel Ramos

J·K·西蒙斯 J.K. Simmons

伊斯雷尔·鲁兹 Israel Ruiz

辛迪·埃文斯 Cindy Evans

◎简 介

《暗夜博士:莫比亚斯》将首次把漫威宇宙中最另类的暗黑超级英雄莫比亚斯呈现于大银幕。由奥斯卡最佳男配得主杰瑞德·莱托饰演的莫比亚斯博士身患一种罕见的血液疾病,命不久矣的他决心找到治疗方法拯救其他同病患者。为此,他孤注一掷试图根除疾病。一开始一切似乎都成功了,但他的内心深处有一股黑暗却无端释放。善念能否压制住邪恶,还是莫比亚斯会屈服于这神秘的欲望?

  1. Video

  2. ID : 1

  3. Format : HEVC

  4. Format/Info : High Efficiency Video Coding

  5. Format profile : Main [email protected]@High

  6. HDR format : SMPTE ST 2086, HDR10 compatible

  7. Codec ID : V_MPEGH/ISO/HEVC

  8. Duration : 1 h 44 min

  9. Bit rate : 24.2 Mb/s

  10. Width : 3 840 pixels

  11. Height : 2 160 pixels

  12. Display aspect ratio : 16:9

  13. Frame rate mode : Constant

  14. Frame rate : 23.976 (24000/1001/53354) FPS

  15. Color space : YUV

  16. Chroma subsampling : 4:2:0 (Type 2)

  17. Bit depth : 10 bits

  18. Bits/(Pixel*Frame) : 0.122

  19. Stream size : 17.6 GiB (97%)

  20. Language : English

  21. Default : Yes

  22. Forced : No

  23. Color range : Limited

  24. Color primaries : BT.2020

  25. Transfer characteristics : PQ

  26. Matrix coefficients : BT.2020 non-constant

  27. Mastering display color primaries : Display P3

  28. Mastering display luminance : min: 0.0050 cd/m2, max: 4000 cd/m2

  29. Maximum Content Light Level : 999 cd/m2

  30. Maximum Frame-Average Light Level : 299 cd/m2


  31. Audio

  32. ID : 2

  33. Format : E-AC-3 JOC

  34. Format/Info : Enhanced AC-3 with Joint Object Coding

  35. Commercial name : Dolby Digital Plus with Dolby Atmos

  36. Codec ID : A_EAC3

  37. Duration : 1 h 44 min

  38. Bit rate mode : Constant

  39. Bit rate : 768 kb/s

  40. Channel(s) : 6 channels

  41. Channel layout : L R C LFE Ls Rs

  42. Sampling rate : 48.0 kHz

  43. Frame rate : 31.250 FPS (1536 SPF)

  44. Compression mode : Lossy

  45. Stream size : 572 MiB (3%)

  46. Language : English

  47. Service kind : Complete Main

  48. Default : Yes

  49. Forced : No

  50. Complexity index : 16

  51. Number of dynamic objects : 15

  52. Bed channel count : 1 channel

  53. Bed channel configuration : LFE


  54. Text #1

  55. ID : 3

  56. Format : UTF-8

  57. Codec ID : S_TEXT/UTF8

  58. Codec ID/Info : UTF-8 Plain Text

  59. Duration : 1 h 34 min

  60. Bit rate : 40 b/s

  61. Count of elements : 958

  62. Stream size : 28.1 KiB (0%)

  63. Language : English

  64. Default : No

  65. Forced : No


  66. Text #2

  67. ID : 4

  68. Format : UTF-8

  69. Codec ID : S_TEXT/UTF8

  70. Codec ID/Info : UTF-8 Plain Text

  71. Duration : 1 h 38 min

  72. Bit rate : 45 b/s

  73. Count of elements : 1161

  74. Stream size : 33.0 KiB (0%)

  75. Title : SDH

  76. Language : English

  77. Default : No

  78. Forced : No


  79. Text #3

  80. ID : 5

  81. Format : UTF-8

  82. Codec ID : S_TEXT/UTF8

  83. Codec ID/Info : UTF-8 Plain Text

  84. Duration : 8 s 717 ms

  85. Bit rate : 75 b/s

  86. Count of elements : 2

  87. Stream size : 82.0 Bytes (0%)

  88. Title : Forced

  89. Language : English

  90. Default : Yes

  91. Forced : Yes


  92. Text #4

  93. ID : 6

  94. Format : UTF-8

  95. Codec ID : S_TEXT/UTF8

  96. Codec ID/Info : UTF-8 Plain Text

  97. Duration : 1 h 42 min

  98. Bit rate : 33 b/s

  99. Count of elements : 941

  100. Stream size : 25.4 KiB (0%)

  101. Title : Simplified

  102. Language : Chinese

  103. Default : No

  104. Forced : No


  105. Text #5

  106. ID : 7

  107. Format : UTF-8

  108. Codec ID : S_TEXT/UTF8

  109. Codec ID/Info : UTF-8 Plain Text

  110. Duration : 1 h 42 min

  111. Bit rate : 31 b/s

  112. Count of elements : 953

  113. Stream size : 23.5 KiB (0%)

  114. Title : Traditional

  115. Language : Chinese

  116. Default : No

  117. Forced : No


  118. Text #6

  119. ID : 8

  120. Format : UTF-8

  121. Codec ID : S_TEXT/UTF8

  122. Codec ID/Info : UTF-8 Plain Text

  123. Duration : 1 h 42 min

  124. Bit rate : 36 b/s

  125. Count of elements : 942

  126. Stream size : 27.2 KiB (0%)

  127. Language : Czech

  128. Default : No

  129. Forced : No


  130. Text #7

  131. ID : 9

  132. Format : UTF-8

  133. Codec ID : S_TEXT/UTF8

  134. Codec ID/Info : UTF-8 Plain Text

  135. Duration : 1 h 41 min

  136. Bit rate : 35 b/s

  137. Count of elements : 968

  138. Stream size : 26.5 KiB (0%)

  139. Language : German

  140. Default : No

  141. Forced : No


  142. Text #8

  143. ID : 10

  144. Format : UTF-8

  145. Codec ID : S_TEXT/UTF8

  146. Codec ID/Info : UTF-8 Plain Text

  147. Duration : 1 h 41 min

  148. Bit rate : 36 b/s

  149. Count of elements : 933

  150. Stream size : 27.1 KiB (0%)

  151. Title : Europa

  152. Language : Spanish

  153. Default : No

  154. Forced : No


  155. Text #9

  156. ID : 11

  157. Format : UTF-8

  158. Codec ID : S_TEXT/UTF8

  159. Codec ID/Info : UTF-8 Plain Text

  160. Duration : 1 h 42 min

  161. Bit rate : 35 b/s

  162. Count of elements : 915

  163. Stream size : 26.3 KiB (0%)

  164. Language : French

  165. Default : No

  166. Forced : No


  167. Text #10

  168. ID : 12

  169. Format : UTF-8

  170. Codec ID : S_TEXT/UTF8

  171. Codec ID/Info : UTF-8 Plain Text

  172. Duration : 1 h 41 min

  173. Bit rate : 35 b/s

  174. Count of elements : 938

  175. Stream size : 26.1 KiB (0%)

  176. Language : Indonesian

  177. Default : No

  178. Forced : No


  179. Text #11

  180. ID : 13

  181. Format : UTF-8

  182. Codec ID : S_TEXT/UTF8

  183. Codec ID/Info : UTF-8 Plain Text

  184. Duration : 1 h 41 min

  185. Bit rate : 38 b/s

  186. Count of elements : 971

  187. Stream size : 28.6 KiB (0%)

  188. Language : Italian

  189. Default : No

  190. Forced : No


  191. Text #12

  192. ID : 14

  193. Format : UTF-8

  194. Codec ID : S_TEXT/UTF8

  195. Codec ID/Info : UTF-8 Plain Text

  196. Duration : 1 h 42 min

  197. Bit rate : 32 b/s

  198. Count of elements : 908

  199. Stream size : 24.3 KiB (0%)

  200. Language : Japanese

  201. Default : No

  202. Forced : No


  203. Text #13

  204. ID : 15

  205. Format : UTF-8

  206. Codec ID : S_TEXT/UTF8

  207. Codec ID/Info : UTF-8 Plain Text

  208. Duration : 1 h 42 min

  209. Bit rate : 35 b/s

  210. Count of elements : 949

  211. Stream size : 27.0 KiB (0%)

  212. Language : Korean

  213. Default : No

  214. Forced : No


  215. Text #14

  216. ID : 16

  217. Format : UTF-8

  218. Codec ID : S_TEXT/UTF8

  219. Codec ID/Info : UTF-8 Plain Text

  220. Duration : 1 h 41 min

  221. Bit rate : 38 b/s

  222. Count of elements : 938

  223. Stream size : 28.3 KiB (0%)

  224. Language : Malay

  225. Default : No

  226. Forced : No


  227. Text #15

  228. ID : 17

  229. Format : UTF-8

  230. Codec ID : S_TEXT/UTF8

  231. Codec ID/Info : UTF-8 Plain Text

  232. Duration : 1 h 42 min

  233. Bit rate : 36 b/s

  234. Count of elements : 915

  235. Stream size : 27.6 KiB (0%)

  236. Language : Polish

  237. Default : No

  238. Forced : No


  239. Text #16

  240. ID : 18

  241. Format : UTF-8

  242. Codec ID : S_TEXT/UTF8

  243. Codec ID/Info : UTF-8 Plain Text

  244. Duration : 1 h 41 min

  245. Bit rate : 36 b/s

  246. Count of elements : 917

  247. Stream size : 26.8 KiB (0%)

  248. Title : Brazilian

  249. Language : Portuguese

  250. Default : No

  251. Forced : No


  252. Text #17

  253. ID : 19

  254. Format : UTF-8

  255. Codec ID : S_TEXT/UTF8

  256. Codec ID/Info : UTF-8 Plain Text

  257. Duration : 1 h 42 min

  258. Bit rate : 32 b/s

  259. Count of elements : 936

  260. Stream size : 24.3 KiB (0%)

  261. Language : Slovak

  262. Default : No

  263. Forced : No


  264. Text #18

  265. ID : 20

  266. Format : UTF-8

  267. Codec ID : S_TEXT/UTF8

  268. Codec ID/Info : UTF-8 Plain Text

  269. Duration : 1 h 41 min

  270. Bit rate : 35 b/s

  271. Count of elements : 937

  272. Stream size : 26.1 KiB (0%)

  273. Language : Spanish

  274. Default : No

  275. Forced : No


  276. Text #19

  277. ID : 21

  278. Format : UTF-8

  279. Codec ID : S_TEXT/UTF8

  280. Codec ID/Info : UTF-8 Plain Text

  281. Duration : 1 h 42 min

  282. Bit rate : 82 b/s

  283. Count of elements : 937

  284. Stream size : 62.4 KiB (0%)

  285. Language : Thai

  286. Default : No

  287. Forced : No


  288. Text #20

  289. ID : 22

  290. Format : UTF-8

  291. Codec ID : S_TEXT/UTF8

  292. Codec ID/Info : UTF-8 Plain Text

  293. Duration : 1 h 42 min

  294. Bit rate : 37 b/s

  295. Count of elements : 937

  296. Stream size : 28.1 KiB (0%)

  297. Language : Turkish

  298. Default : No

  299. Forced : No


  300. Text #21

  301. ID : 23

  302. Format : UTF-8

  303. Codec ID : S_TEXT/UTF8

  304. Codec ID/Info : UTF-8 Plain Text

  305. Duration : 1 h 41 min

  306. Bit rate : 49 b/s

  307. Count of elements : 946

  308. Stream size : 36.9 KiB (0%)

  309. Language : Vietnamese

  310. Default : No

  311. Forced : No


  312. Menu

  313. 00:00:00.000 : en:1

  314. 00:05:05.000 : en:2

  315. 00:11:14.000 : en:3

  316. 00:18:02.000 : en:4

  317. 00:23:35.000 : en:5

  318. 00:30:22.000 : en:6

  319. 00:37:55.000 : en:7

  320. 00:44:53.000 : en:8

  321. 00:48:24.000 : en:9

  322. 00:55:06.000 : en:10

  323. 01:01:03.000 : en:11

  324. 01:08:09.000 : en:12

  325. 01:15:50.000 : en:13

  326. 01:21:20.000 : en:14

  327. 01:25:21.000 : en:15

  328. 01:32:01.000 : en:16

复制代码

暗夜博士:莫比亚斯[中文字幕].Morbius.2022.2160p.MA.WEB DL.x265.10bit.HDR.DDP5.1.Atmos CM 18.15GB  欧美电影  第3张 暗夜博士:莫比亚斯[中文字幕].Morbius.2022.2160p.MA.WEB DL.x265.10bit.HDR.DDP5.1.Atmos CM 18.15GB  欧美电影  第4张 暗夜博士:莫比亚斯[中文字幕].Morbius.2022.2160p.MA.WEB DL.x265.10bit.HDR.DDP5.1.Atmos CM 18.15GB  欧美电影  第5张




文件下载


除非特别注明,本文『暗夜博士:莫比亚斯[中文字幕].Morbius.2022.2160p.MA.WEB-DL.x265.10bit.HDR.DDP5.1.Atmos-CM 18.15GB』来源于互联网机器人自动抓取,非本站原创。 浮游电影网不对本文拥有版权,如有侵犯,请联系邮箱:fuyouu#yandex.com[#换成@]投诉。我们会在15个工作日内删除。 但烦请转载时请标明出处:“本文转载于『浮游电影网』,原文地址:https://www.fuyouu.com/22219.html

评论吧骚年!

发表你的见解   

昵称*

E-mail*(建议输入,以便收到博主回复的提示邮件)

验证码*

您可以使用eMule或eMule Mod(Windows)、aMule(Win、Linux、Mac)等软件下载eD2k链接。。
eMule收藏集(.emulecollection)文件是您选中的所有链接的列表文件。eMule可以直接下载它们。
按住SHIFT键选择可以选中多个选择框。
可用文件名和大小选择器来选择文件。
文件名选择器帮您根据文件名称或后缀来选择文件。不分大小写。
符号使用:
和:空格( )、+
不包含:-
或:|
转义:一对英文引号("");
匹配开头:^
匹配结尾:$
例如:
选中所有名称中包含有“eMule”或“0.49c”字眼,但不包含有“exe”字眼的:emule|0.49c -exe
选中所有名称的开头是“eMule”,结尾是“0.49c”的:^emule 0.49c$
选中所有名称中带有“eMule 0.49c”的(必须是“eMule 0.49c”,中间没有别的字符,不能是“eMule fake 0.49c”),需要转义:"emule 0.49c"
大小选择器帮您根据文件大小选择文件。