当前位置: 首页 >> 欧美电影 >> 临终千言[中文字幕].A.Thousand.Words.2012.1080p.BluRay.DTS.x265-10bit-ENTHD 5.27GB >> 正文

临终千言[中文字幕].A.Thousand.Words.2012.1080p.BluRay.DTS.x265-10bit-ENTHD 5.27GB

2022年05月17日 22:24:05     电影发布:来源于网络     电影分类:欧美电影     评论(0)    

◎译 名 临终千言 / 最后的一千个单词

◎片 名 A Thousand Words

◎年 代 2012

◎产 地 美国

◎类 别 剧情 / 喜剧

◎语 言 英语

◎上映日期 2012-03-09(美国)

◎IMDb链接 https://www.imdb.com/title/tt0763831/

◎豆瓣评分 6.8/10 (10600人评价)

◎豆瓣链接 https://movie.douban.com/subject/3008659/

◎片 长 91分钟

◎导 演 布莱恩·罗宾斯 Brian Robbins (id:1041258)

◎编 剧 史蒂夫·科伦 Steve Koren (id:1320600)

◎演 员 艾迪·墨菲 Eddie Murphy (id:1002672)

凯丽·华盛顿 Kerry Washington (id:1004616)

克利夫·柯蒂斯 Cliff Curtis (id:1022578)

阿芮尔·温特 Ariel Winter (id:1004620)

克拉克·杜克 Clark Duke (id:1048119)

乔丹-克莱尔·格林 Jordan-Claire Green (id:1223238)

Sara Holden (id:1243231)

Eshaya Draper (id:1241364)

汉斯·雷斯 Hans Raith (id:1212947)

Robert LeQuang (id:1237314)

Rob Evors (id:1219427)

Jillian Johnston (id:1231955)

莎万·柯克西 Shavon Kirksey (id:1234638)

罗布森·维埃拉 Robson Vieira (id:1233169)

拉奎尔贝尔 Raquel Bell (id:1246041)

Rossie Cottrell (id:1249126)

吉尔·巴塞 Jill Basey (id:1390141)

杰克·麦克布瑞尔 Jack McBrayer (id:1018002)

大卫·布克 David Burke (id:1076377)

Matthew Thane (id:1269928)

K·哈里森·斯威尼 K. Harrison Sweeney (id:1264591)

Adalia Braydon (id:1258744)

约翰·罗伯特 John Robert (id:1432998)

约翰尼·克雷·里弗斯 Johnny Cley Rivers (id:1258455)

约尼·塔巴克 Yoni Tabac (id:1258006)

本·托普林 Ben Tolpin (id:1210177)

黛西·罗斯·布莱内斯 Darcy Rose Byrnes (id:1209168)

Andy B. Dardaine Andy B. Dardaine (id:1201662)

谢里·德赛 Shelly Desai (id:1081567)

凯拉布莱克 Kayla Blake (id:1055435)

艾莉森·珍妮 Allison Janney (id:1041139)

乔爱尔·滕丹 Joelle ten Damme (id:1010458)

约翰·威瑟斯朋 John Witherspoon (id:1004731)

泰伦斯·伯尼·海恩斯 Terence Bernie Hines (id:1091448)

Marcus Lindsey Marcus Lindsey (id:1116309)

艾米丽·伯顿 Emily A. Burton (id:1198138)

米切尔·芬克 Mitchell Fink (id:1187161)

马洛里·露 Mallory Low (id:1183237)

卡马拉·琼斯 Kamala Jones (id:1180059)

Lauren Shaw Lauren Shaw (id:1176547)

杰姬·基瑞 Jackie Geary (id:1169410)

马特·温斯顿 Matt Winston (id:1165317)

Philip Pavel Philip Pavel (id:1132692)

贾斯蒂娜·马查多 Justina Machado (id:1122666)

拉斯·P·温特 Lars P. Winther (id:1051237)

尼古拉斯·凯奇 Nicolas Cage (id:1054455)

布莱恩·罗宾斯 Brian Robbins (id:1041258)

阿兰·夏巴 Alain Chabat (id:1036749)

诺曼·格莱特利 Norman Golightly (id:1010189)

约翰·戴布尼 John Debney (id:1025369)

拉斯·P·温特 Lars P. Winther (id:1051237)

David Ridlen David Ridlen (id:1048719)

◎简 介

杰克(艾迪·墨菲 Eddie Murphy 饰)有一张刀子嘴,为了达到目的,他什么样的话都能说得出口。因为这张嘴,他失去了许多的朋友却并不以为意。一日,杰克的诳语得罪了辛加博士(克利夫·柯蒂斯 Cliff Curtis 饰)——一位神秘的宗教领袖,为了让杰克明白自己的缺点,他召唤来了一颗菩提树。

辛加告诉杰克,菩提树上有一千片叶子,杰克每说一个单词,就会有一片树叶凋落,当树叶掉光之时,就是杰克的临终之日。突然被剥夺了自由说话的权利的杰克痛苦不已,失去语言的庇护反而让杰克懂得了“谨言慎行”的真正含义,随着时间的流逝,杰克也开始明白,有些话不能乱说,可是有些话却不能不说。

◎获奖情况 (共3项)

第33届金酸莓奖 (2013)

最差影片(提名)

最差男主角(提名)

└──艾迪·墨菲 (id:1002672)

最差剧本(提名)

└──史蒂夫·科伦 (id:1320600)

  1. ##### MediaInfo ######

  2. General

  3. Unique ID : 220008884381444025925143619010641217161 (0xA5842B7B09771CD2A26BB9EEC6374689)

  4. Complete name : A.Thousand.Words.2012.1080p.BluRay.DTS.x265-10bit-ENTHD.mkv

  5. Format : Matroska

  6. Format version : Version 4

  7. File size : 5.27 GiB

  8. Duration : 1 h 31 min

  9. Overall bit rate : 8 241 kb/s

  10. Movie name : A Thousand Words 2012 1080p BluRay DTS x265-10bit-HDS

  11. Encoded date : UTC 2022-05-16 10:31:44

  12. Writing application : mkvmerge v38.0.0 ('The Silent Type') 64-bit

  13. Writing library : libebml v1.3.9 + libmatroska v1.5.2

  14. Video

  15. ID : 1

  16. Format : HEVC

  17. Format/Info : High Efficiency Video Coding

  18. Format profile : Main [email protected]@High

  19. Codec ID : V_MPEGH/ISO/HEVC

  20. Duration : 1 h 31 min

  21. Bit rate : 6 637 kb/s

  22. Width : 1 920 pixels

  23. Height : 800 pixels

  24. Display aspect ratio : 2.40:1

  25. Frame rate mode : Constant

  26. Frame rate : 23.976 (24000/1001/53354) FPS

  27. Color space : YUV

  28. Chroma subsampling : 4:2:0

  29. Bit depth : 10 bits

  30. Bits/(Pixel*Frame) : 0.180

  31. Stream size : 4.24 GiB (81%)

  32. Title : @HDSky

  33. Writing library : x265 - H.265/HEVC codec

  34. Default : Yes

  35. Forced : No

  36. Audio

  37. ID : 2

  38. Format : DTS

  39. Format/Info : Digital Theater Systems

  40. Codec ID : A_DTS

  41. Duration : 1 h 31 min

  42. Bit rate mode : Constant

  43. Bit rate : 1 509 kb/s

  44. Channel(s) : 6 channels

  45. Channel layout : C L R Ls Rs LFE

  46. Sampling rate : 48.0 kHz

  47. Frame rate : 93.750 FPS (512 SPF)

  48. Bit depth : 24 bits

  49. Compression mode : Lossy

  50. Stream size : 987 MiB (18%)

  51. Title : English

  52. Language : English

  53. Default : Yes

  54. Forced : No

  55. Text #1

  56. ID : 3

  57. Format : PGS

  58. Muxing mode : zlib

  59. Codec ID : S_HDMV/PGS

  60. Codec ID/Info : Picture based subtitle format used on BDs/HD-DVDs

  61. Duration : 1 h 26 min

  62. Bit rate : 28.9 kb/s

  63. Count of elements : 2692

  64. Stream size : 17.9 MiB (0%)

  65. Title : CHS

  66. Language : Chinese

  67. Default : Yes

  68. Forced : No

  69. Text #2

  70. ID : 4

  71. Format : PGS

  72. Muxing mode : zlib

  73. Codec ID : S_HDMV/PGS

  74. Codec ID/Info : Picture based subtitle format used on BDs/HD-DVDs

  75. Duration : 1 h 26 min

  76. Bit rate : 29.8 kb/s

  77. Count of elements : 2692

  78. Stream size : 18.4 MiB (0%)

  79. Title : CHT

  80. Language : Chinese

  81. Default : No

  82. Forced : No

  83. Text #3

  84. ID : 5

  85. Format : PGS

  86. Muxing mode : zlib

  87. Codec ID : S_HDMV/PGS

  88. Codec ID/Info : Picture based subtitle format used on BDs/HD-DVDs

  89. Duration : 1 h 26 min

  90. Bit rate : 57.2 kb/s

  91. Count of elements : 2692

  92. Stream size : 35.3 MiB (1%)

  93. Title : CHS&ENG

  94. Language : Chinese

  95. Default : No

  96. Forced : No

  97. Text #4

  98. ID : 6

  99. Format : PGS

  100. Muxing mode : zlib

  101. Codec ID : S_HDMV/PGS

  102. Codec ID/Info : Picture based subtitle format used on BDs/HD-DVDs

  103. Duration : 1 h 26 min

  104. Bit rate : 58.0 kb/s

  105. Count of elements : 2692

  106. Stream size : 35.8 MiB (1%)

  107. Title : CHT&ENG

  108. Language : Chinese

  109. Default : No

  110. Forced : No

  111. Menu

  112. 00:00:00.000 : en:Chapter 01

  113. 00:07:33.870 : en:Chapter 02

  114. 00:13:04.283 : en:Chapter 03

  115. 00:21:34.627 : en:Chapter 04

  116. 00:28:14.067 : en:Chapter 05

  117. 00:34:47.585 : en:Chapter 06

  118. 00:41:34.784 : en:Chapter 07

  119. 00:46:32.123 : en:Chapter 08

  120. 00:53:28.705 : en:Chapter 09

  121. 01:00:09.231 : en:Chapter 10

  122. 01:09:17.445 : en:Chapter 11

  123. 01:14:51.862 : en:Chapter 12

  124. 01:21:50.906 : en:Chapter 13

  125. 01:26:46.034 : en:Chapter 14


复制代码



文件下载


除非特别注明,本文『临终千言[中文字幕].A.Thousand.Words.2012.1080p.BluRay.DTS.x265-10bit-ENTHD 5.27GB』来源于互联网机器人自动抓取,非本站原创。 浮游电影网不对本文拥有版权,如有侵犯,请联系邮箱:fuyouu#yandex.com[#换成@]投诉。我们会在15个工作日内删除。 但烦请转载时请标明出处:“本文转载于『浮游电影网』,原文地址:https://www.fuyouu.com/22215.html

评论吧骚年!

发表你的见解   

昵称*

E-mail*(建议输入,以便收到博主回复的提示邮件)

验证码*

您可以使用eMule或eMule Mod(Windows)、aMule(Win、Linux、Mac)等软件下载eD2k链接。。
eMule收藏集(.emulecollection)文件是您选中的所有链接的列表文件。eMule可以直接下载它们。
按住SHIFT键选择可以选中多个选择框。
可用文件名和大小选择器来选择文件。
文件名选择器帮您根据文件名称或后缀来选择文件。不分大小写。
符号使用:
和:空格( )、+
不包含:-
或:|
转义:一对英文引号("");
匹配开头:^
匹配结尾:$
例如:
选中所有名称中包含有“eMule”或“0.49c”字眼,但不包含有“exe”字眼的:emule|0.49c -exe
选中所有名称的开头是“eMule”,结尾是“0.49c”的:^emule 0.49c$
选中所有名称中带有“eMule 0.49c”的(必须是“eMule 0.49c”,中间没有别的字符,不能是“eMule fake 0.49c”),需要转义:"emule 0.49c"
大小选择器帮您根据文件大小选择文件。