当前位置: 首页 >> 海外电影 >> 人民公仆2[中文字幕].Servant.of.the.People.2.2016.UKRAINIAN.1080p.NF.WEBRip.AAC2.0.x264-playWEB 2.79GB >> 正文

人民公仆2[中文字幕].Servant.of.the.People.2.2016.UKRAINIAN.1080p.NF.WEBRip.AAC2.0.x264-playWEB 2.79GB

2022年05月17日 22:22:44     电影发布:来源于网络     电影分类:海外电影     评论(0)    

人民公仆2[中文字幕].Servant.of.the.People.2.2016.UKRAINIAN.1080p.NF.WEBRip.AAC2.0.x264 playWEB 2.79GB  海外电影  第1张

人民公仆2[中文字幕].Servant.of.the.People.2.2016.UKRAINIAN.1080p.NF.WEBRip.AAC2.0.x264 playWEB 2.79GB  海外电影  第2张

◎译 名 人民公仆2 / Sluga naroda 2 / Servant of the People 2 / 人民公仆 大电影

◎片 名 Слуга народа 2

◎年 代 2016

◎产 地 乌克兰

◎类 别 喜剧 / 家庭

◎语 言 俄语 / 乌克兰语

◎上映日期 2016-12-29(乌克兰)

◎IMDb链接 https://www.imdb.com/title/tt6818880/

◎豆瓣评分 8.2/10 (1253人评价)

◎豆瓣链接 https://movie.douban.com/subject/27031575/

◎片 长 96分钟

◎演 员 弗拉基米尔·泽连斯基 Vladimir Zelenskiy (id:1414251)

斯坦尼斯拉夫·波克琅 Stanislav Boklan (id:1392174)

Andrey Danilko Andrey Danilko (id:1029439)

尤里·霍尔布诺夫 Yuriy Horbunov (id:1406728)

Anastasia Chepeliuk Anastasia Chepeliuk (id:1413767)

弗拉基米尔·泽连斯基 Vladimir Zelenskiy (id:1414251)

斯坦尼斯拉夫·波克琅 Stanislav Boklan (id:1392174)

◎简 介

《人民公仆》大电影。瓦夏总统和前总理携手大战众寡头;光头外交部长和秘书智斗IMF代表团……

  1. Video

  2. ID : 1

  3. Format : AVC

  4. Format/Info : Advanced Video Codec

  5. Format profile : [email protected]

  6. Format settings : CABAC / 3 Ref Frames

  7. Format settings, CABAC : Yes

  8. Format settings, Reference frames : 3 frames

  9. Codec ID : V_MPEG4/ISO/AVC

  10. Duration : 1 h 36 min

  11. Bit rate mode : Variable

  12. Bit rate : 3 999 kb/s

  13. Nominal bit rate : 4 974 kb/s

  14. Maximum bit rate : 7 665 kb/s

  15. Width : 1 920 pixels

  16. Height : 1 080 pixels

  17. Display aspect ratio : 16:9

  18. Frame rate mode : Constant

  19. Frame rate : 25.000 FPS

  20. Color space : YUV

  21. Chroma subsampling : 4:2:0

  22. Bit depth : 8 bits

  23. Scan type : Progressive

  24. Bits/(Pixel*Frame) : 0.077

  25. Stream size : 2.70 GiB (97%)

  26. Writing library : x264 core 148 r2727 7d026e8

  27. Encoding settings : cabac=1 / ref=3 / deblock=1:0:0 / analyse=0x1:0x111 / me=umh / subme=10 / psy=1 / psy_rd=1.00:0.00 / mixed_ref=1 / me_range=24 / chroma_me=1 / trellis=2 / 8x8dct=0 / cqm=0 / deadzone=21,11 / fast_pskip=1 / chroma_qp_offset=-2 / threads=8 / lookahead_threads=1 / sliced_threads=0 / nr=0 / decimate=1 / interlaced=0 / NTMzNTQ= / bluray_compat=0 / stitchable=1 / constrained_intra=0 / bframes=2 / b_pyramid=0 / b_adapt=2 / b_bias=0 / direct=3 / weightb=1 / open_gop=0 / weightp=2 / keyint=250 / keyint_min=25 / scenecut=0 / intra_refresh=0 / rc_lookahead=50 / rc=2pass / mbtree=1 / bitrate=4974 / ratetol=1.0 / qcomp=0.50 / qpmin=6 / qpmax=51 / qpstep=4 / cplxblur=20.0 / qblur=0.5 / vbv_maxrate=7665 / vbv_bufsize=10220 / nal_hrd=vbr / filler=0 / NTMzNTQ=LmsMAP37EqsCpk / ip_ratio=1.40 / aq=1:1.00

  28. Default : Yes

  29. Forced : No


  30. Audio

  31. ID : 2

  32. Format : AAC LC SBR

  33. Format/Info : Advanced Audio Codec Low Complexity with Spectral Band Replication

  34. Commercial name : HE-AAC

  35. Format settings : Explicit

  36. Codec ID : A_AAC-2

  37. Duration : 1 h 36 min

  38. Bit rate : 128 kb/s

  39. Channel(s) : 2 channels

  40. Channel layout : L R

  41. Sampling rate : 48.0 kHz

  42. Frame rate : 23.438 FPS (2048 SPF)

  43. Compression mode : Lossy

  44. Stream size : 88.6 MiB (3%)

  45. Title : Russian

  46. Language : Russian

  47. Default : Yes

  48. Forced : No


  49. Text #1

  50. ID : 3

  51. Format : UTF-8

  52. Codec ID : S_TEXT/UTF8

  53. Codec ID/Info : UTF-8 Plain Text

  54. Duration : 1 h 33 min

  55. Bit rate : 84 b/s

  56. Count of elements : 1501

  57. Stream size : 58.2 KiB (0%)

  58. Title : English

  59. Language : English

  60. Default : Yes

  61. Forced : No


  62. Text #2

  63. ID : 4

  64. Format : UTF-8

  65. Codec ID : S_TEXT/UTF8

  66. Codec ID/Info : UTF-8 Plain Text

  67. Duration : 1 h 33 min

  68. Bit rate : 126 b/s

  69. Count of elements : 1489

  70. Stream size : 87.0 KiB (0%)

  71. Title : Arabic

  72. Language : Arabic

  73. Default : No

  74. Forced : No


  75. Text #3

  76. ID : 5

  77. Format : UTF-8

  78. Codec ID : S_TEXT/UTF8

  79. Codec ID/Info : UTF-8 Plain Text

  80. Duration : 1 h 33 min

  81. Bit rate : 75 b/s

  82. Count of elements : 1501

  83. Stream size : 51.9 KiB (0%)

  84. Title : Chinese Simplified

  85. Language : Chinese

  86. Default : No

  87. Forced : No


  88. Text #4

  89. ID : 6

  90. Format : UTF-8

  91. Codec ID : S_TEXT/UTF8

  92. Codec ID/Info : UTF-8 Plain Text

  93. Duration : 1 h 33 min

  94. Bit rate : 77 b/s

  95. Count of elements : 1501

  96. Stream size : 53.0 KiB (0%)

  97. Title : Chinese Traditional

  98. Language : Chinese

  99. Default : No

  100. Forced : No


  101. Text #5

  102. ID : 7

  103. Format : UTF-8

  104. Codec ID : S_TEXT/UTF8

  105. Codec ID/Info : UTF-8 Plain Text

  106. Duration : 1 h 33 min

  107. Bit rate : 67 b/s

  108. Count of elements : 1477

  109. Stream size : 46.1 KiB (0%)

  110. Title : Croatian

  111. Language : Croatian

  112. Default : No

  113. Forced : No


  114. Text #6

  115. ID : 8

  116. Format : UTF-8

  117. Codec ID : S_TEXT/UTF8

  118. Codec ID/Info : UTF-8 Plain Text

  119. Duration : 1 h 33 min

  120. Bit rate : 79 b/s

  121. Count of elements : 1477

  122. Stream size : 54.5 KiB (0%)

  123. Title : Czech

  124. Language : Czech

  125. Default : No

  126. Forced : No


  127. Text #7

  128. ID : 9

  129. Format : UTF-8

  130. Codec ID : S_TEXT/UTF8

  131. Codec ID/Info : UTF-8 Plain Text

  132. Duration : 1 h 33 min

  133. Bit rate : 84 b/s

  134. Count of elements : 1494

  135. Stream size : 58.2 KiB (0%)

  136. Title : Danish

  137. Language : Danish

  138. Default : No

  139. Forced : No


  140. Text #8

  141. ID : 10

  142. Format : UTF-8

  143. Codec ID : S_TEXT/UTF8

  144. Codec ID/Info : UTF-8 Plain Text

  145. Duration : 1 h 36 min

  146. Bit rate : 70 b/s

  147. Count of elements : 1274

  148. Stream size : 49.5 KiB (0%)

  149. Title : Dutch

  150. Language : Dutch

  151. Default : No

  152. Forced : No


  153. Text #9

  154. ID : 11

  155. Format : UTF-8

  156. Codec ID : S_TEXT/UTF8

  157. Codec ID/Info : UTF-8 Plain Text

  158. Duration : 1 h 33 min

  159. Bit rate : 78 b/s

  160. Count of elements : 1486

  161. Stream size : 54.2 KiB (0%)

  162. Title : Finnish

  163. Language : Finnish

  164. Default : No

  165. Forced : No


  166. Text #10

  167. ID : 12

  168. Format : UTF-8

  169. Codec ID : S_TEXT/UTF8

  170. Codec ID/Info : UTF-8 Plain Text

  171. Duration : 1 h 33 min

  172. Bit rate : 67 b/s

  173. Count of elements : 1476

  174. Stream size : 46.5 KiB (0%)

  175. Title : French

  176. Language : French

  177. Default : No

  178. Forced : No


  179. Text #11

  180. ID : 13

  181. Format : UTF-8

  182. Codec ID : S_TEXT/UTF8

  183. Codec ID/Info : UTF-8 Plain Text

  184. Duration : 1 h 33 min

  185. Bit rate : 74 b/s

  186. Count of elements : 1488

  187. Stream size : 50.9 KiB (0%)

  188. Title : German

  189. Language : German

  190. Default : No

  191. Forced : No


  192. Text #12

  193. ID : 14

  194. Format : UTF-8

  195. Codec ID : S_TEXT/UTF8

  196. Codec ID/Info : UTF-8 Plain Text

  197. Duration : 1 h 33 min

  198. Bit rate : 143 b/s

  199. Count of elements : 1487

  200. Stream size : 98.4 KiB (0%)

  201. Title : Greek

  202. Language : Greek

  203. Default : No

  204. Forced : No


  205. Text #13

  206. ID : 15

  207. Format : UTF-8

  208. Codec ID : S_TEXT/UTF8

  209. Codec ID/Info : UTF-8 Plain Text

  210. Duration : 1 h 33 min

  211. Bit rate : 114 b/s

  212. Count of elements : 1498

  213. Stream size : 78.7 KiB (0%)

  214. Title : Hebrew

  215. Language : Hebrew

  216. Default : No

  217. Forced : No


  218. Text #14

  219. ID : 16

  220. Format : UTF-8

  221. Codec ID : S_TEXT/UTF8

  222. Codec ID/Info : UTF-8 Plain Text

  223. Duration : 1 h 33 min

  224. Bit rate : 79 b/s

  225. Count of elements : 1477

  226. Stream size : 54.8 KiB (0%)

  227. Title : Hungarian

  228. Language : Hungarian

  229. Default : No

  230. Forced : No


  231. Text #15

  232. ID : 17

  233. Format : UTF-8

  234. Codec ID : S_TEXT/UTF8

  235. Codec ID/Info : UTF-8 Plain Text

  236. Duration : 1 h 33 min

  237. Bit rate : 83 b/s

  238. Count of elements : 1484

  239. Stream size : 56.9 KiB (0%)

  240. Title : Indonesian

  241. Language : Indonesian

  242. Default : No

  243. Forced : No


  244. Text #16

  245. ID : 18

  246. Format : UTF-8

  247. Codec ID : S_TEXT/UTF8

  248. Codec ID/Info : UTF-8 Plain Text

  249. Duration : 1 h 33 min

  250. Bit rate : 76 b/s

  251. Count of elements : 1471

  252. Stream size : 52.8 KiB (0%)

  253. Title : Italian

  254. Language : Italian

  255. Default : No

  256. Forced : No


  257. Text #17

  258. ID : 19

  259. Format : UTF-8

  260. Codec ID : S_TEXT/UTF8

  261. Codec ID/Info : UTF-8 Plain Text

  262. Duration : 1 h 33 min

  263. Bit rate : 58 b/s

  264. Count of elements : 1579

  265. Stream size : 40.3 KiB (0%)

  266. Title : Japanese

  267. Language : Japanese

  268. Default : No

  269. Forced : No


  270. Text #18

  271. ID : 20

  272. Format : UTF-8

  273. Codec ID : S_TEXT/UTF8

  274. Codec ID/Info : UTF-8 Plain Text

  275. Duration : 1 h 33 min

  276. Bit rate : 88 b/s

  277. Count of elements : 1501

  278. Stream size : 60.6 KiB (0%)

  279. Title : Korean

  280. Language : Korean

  281. Default : No

  282. Forced : No


  283. Text #19

  284. ID : 21

  285. Format : UTF-8

  286. Codec ID : S_TEXT/UTF8

  287. Codec ID/Info : UTF-8 Plain Text

  288. Duration : 1 h 33 min

  289. Bit rate : 79 b/s

  290. Count of elements : 1485

  291. Stream size : 54.8 KiB (0%)

  292. Title : Malay

  293. Language : Malay

  294. Default : No

  295. Forced : No


  296. Text #20

  297. ID : 22

  298. Format : UTF-8

  299. Codec ID : S_TEXT/UTF8

  300. Codec ID/Info : UTF-8 Plain Text

  301. Duration : 1 h 33 min

  302. Bit rate : 75 b/s

  303. Count of elements : 1471

  304. Stream size : 51.6 KiB (0%)

  305. Title : Norwegian Bokmal

  306. Language : Norwegian Bokmal

  307. Default : No

  308. Forced : No


  309. Text #21

  310. ID : 23

  311. Format : UTF-8

  312. Codec ID : S_TEXT/UTF8

  313. Codec ID/Info : UTF-8 Plain Text

  314. Duration : 1 h 33 min

  315. Bit rate : 77 b/s

  316. Count of elements : 1489

  317. Stream size : 53.0 KiB (0%)

  318. Title : Portuguese

  319. Language : Portuguese

  320. Default : No

  321. Forced : No


  322. Text #22

  323. ID : 24

  324. Format : UTF-8

  325. Codec ID : S_TEXT/UTF8

  326. Codec ID/Info : UTF-8 Plain Text

  327. Duration : 1 h 33 min

  328. Bit rate : 77 b/s

  329. Count of elements : 1488

  330. Stream size : 53.0 KiB (0%)

  331. Title : Brazilian Portuguese

  332. Language : Portuguese

  333. Default : No

  334. Forced : No


  335. Text #23

  336. ID : 25

  337. Format : UTF-8

  338. Codec ID : S_TEXT/UTF8

  339. Codec ID/Info : UTF-8 Plain Text

  340. Duration : 1 h 33 min

  341. Bit rate : 72 b/s

  342. Count of elements : 1474

  343. Stream size : 49.4 KiB (0%)

  344. Title : Romanian

  345. Language : Romanian

  346. Default : No

  347. Forced : No


  348. Text #24

  349. ID : 26

  350. Format : UTF-8

  351. Codec ID : S_TEXT/UTF8

  352. Codec ID/Info : UTF-8 Plain Text

  353. Duration : 1 h 34 min

  354. Bit rate : 142 b/s

  355. Count of elements : 1611

  356. Stream size : 98.4 KiB (0%)

  357. Title : Russian

  358. Language : Russian

  359. Default : No

  360. Forced : No


  361. Text #25

  362. ID : 27

  363. Format : UTF-8

  364. Codec ID : S_TEXT/UTF8

  365. Codec ID/Info : UTF-8 Plain Text

  366. Duration : 1 h 33 min

  367. Bit rate : 72 b/s

  368. Count of elements : 1450

  369. Stream size : 49.6 KiB (0%)

  370. Title : Spanish

  371. Language : Spanish

  372. Default : No

  373. Forced : No


  374. Text #26

  375. ID : 28

  376. Format : UTF-8

  377. Codec ID : S_TEXT/UTF8

  378. Codec ID/Info : UTF-8 Plain Text

  379. Duration : 1 h 33 min

  380. Bit rate : 72 b/s

  381. Count of elements : 1469

  382. Stream size : 49.5 KiB (0%)

  383. Title : European Spanish

  384. Language : Spanish

  385. Default : No

  386. Forced : No


  387. Text #27

  388. ID : 29

  389. Format : UTF-8

  390. Codec ID : S_TEXT/UTF8

  391. Codec ID/Info : UTF-8 Plain Text

  392. Duration : 1 h 33 min

  393. Bit rate : 79 b/s

  394. Count of elements : 1485

  395. Stream size : 54.6 KiB (0%)

  396. Title : Swedish

  397. Language : Swedish

  398. Default : No

  399. Forced : No


  400. Text #28

  401. ID : 30

  402. Format : UTF-8

  403. Codec ID : S_TEXT/UTF8

  404. Codec ID/Info : UTF-8 Plain Text

  405. Duration : 1 h 33 min

  406. Bit rate : 186 b/s

  407. Count of elements : 1486

  408. Stream size : 128 KiB (0%)

  409. Title : Thai

  410. Language : Thai

  411. Default : No

  412. Forced : No


  413. Text #29

  414. ID : 31

  415. Format : UTF-8

  416. Codec ID : S_TEXT/UTF8

  417. Codec ID/Info : UTF-8 Plain Text

  418. Duration : 1 h 33 min

  419. Bit rate : 71 b/s

  420. Count of elements : 1474

  421. Stream size : 49.1 KiB (0%)

  422. Title : Turkish

  423. Language : Turkish

  424. Default : No

  425. Forced : No


  426. Text #30

  427. ID : 32

  428. Format : UTF-8

  429. Codec ID : S_TEXT/UTF8

  430. Codec ID/Info : UTF-8 Plain Text

  431. Duration : 1 h 33 min

  432. Bit rate : 100 b/s

  433. Count of elements : 1223

  434. Stream size : 68.9 KiB (0%)

  435. Title : Ukrainian

  436. Language : Ukrainian

  437. Default : No

  438. Forced : No


  439. Text #31

  440. ID : 33

  441. Format : UTF-8

  442. Codec ID : S_TEXT/UTF8

  443. Codec ID/Info : UTF-8 Plain Text

  444. Duration : 1 h 33 min

  445. Bit rate : 88 b/s

  446. Count of elements : 1475

  447. Stream size : 60.7 KiB (0%)

  448. Title : Vietnamese

  449. Language : Vietnamese

  450. Default : No

  451. Forced : No

复制代码

人民公仆2[中文字幕].Servant.of.the.People.2.2016.UKRAINIAN.1080p.NF.WEBRip.AAC2.0.x264 playWEB 2.79GB  海外电影  第3张 人民公仆2[中文字幕].Servant.of.the.People.2.2016.UKRAINIAN.1080p.NF.WEBRip.AAC2.0.x264 playWEB 2.79GB  海外电影  第4张 人民公仆2[中文字幕].Servant.of.the.People.2.2016.UKRAINIAN.1080p.NF.WEBRip.AAC2.0.x264 playWEB 2.79GB  海外电影  第5张



文件下载


除非特别注明,本文『人民公仆2[中文字幕].Servant.of.the.People.2.2016.UKRAINIAN.1080p.NF.WEBRip.AAC2.0.x264-playWEB 2.79GB』来源于互联网机器人自动抓取,非本站原创。 浮游电影网不对本文拥有版权,如有侵犯,请联系邮箱:fuyouu#yandex.com[#换成@]投诉。我们会在15个工作日内删除。 但烦请转载时请标明出处:“本文转载于『浮游电影网』,原文地址:https://www.fuyouu.com/22214.html

评论吧骚年!

发表你的见解   

昵称*

E-mail*(建议输入,以便收到博主回复的提示邮件)

验证码*

您可以使用eMule或eMule Mod(Windows)、aMule(Win、Linux、Mac)等软件下载eD2k链接。。
eMule收藏集(.emulecollection)文件是您选中的所有链接的列表文件。eMule可以直接下载它们。
按住SHIFT键选择可以选中多个选择框。
可用文件名和大小选择器来选择文件。
文件名选择器帮您根据文件名称或后缀来选择文件。不分大小写。
符号使用:
和:空格( )、+
不包含:-
或:|
转义:一对英文引号("");
匹配开头:^
匹配结尾:$
例如:
选中所有名称中包含有“eMule”或“0.49c”字眼,但不包含有“exe”字眼的:emule|0.49c -exe
选中所有名称的开头是“eMule”,结尾是“0.49c”的:^emule 0.49c$
选中所有名称中带有“eMule 0.49c”的(必须是“eMule 0.49c”,中间没有别的字符,不能是“eMule fake 0.49c”),需要转义:"emule 0.49c"
大小选择器帮您根据文件大小选择文件。