当前位置: 首页 >> 欧美电影 >> 狂怒[国英多音轨/中英字幕].Fury.2014.WEB-DL.2160p.x265.10bit.2Audio-MiniHD 21.61GB >> 正文

狂怒[国英多音轨/中英字幕].Fury.2014.WEB-DL.2160p.x265.10bit.2Audio-MiniHD 21.61GB

2022年05月16日 20:54:11     电影发布:来源于网络     电影分类:欧美电影     评论(0)    

◎译 名 狂怒 / 战逆豪情(港) / 怒火特攻队(台) / 暴怒

◎片 名 Fury

◎年 代 2014

◎产 地 美国 / 中国大陆 / 英国

◎类 别 剧情 / 动作 / 战争

◎语 言 英语 / 德语

◎上映日期 2014-11-21(中国大陆) / 2014-10-17(美国)

◎IMDb链接 https://www.imdb.com/title/tt2713180/

◎豆瓣评分 8.0/10 (182864人评价)

◎豆瓣链接 https://movie.douban.com/subject/23331914/

◎片 长 132分钟(中国大陆)

◎导 演 大卫·阿耶 David Ayer (id:1319045)

◎编 剧 大卫·阿耶 David Ayer (id:1319045)

◎演 员 布拉德·皮特 Brad Pitt (id:1054452)

希亚·拉博夫 Shia LaBeouf (id:1022000)

罗根·勒曼 Logan Lerman (id:1053583)

迈克尔·佩纳 Michael Pe?a (id:1131634)

乔·博恩瑟 Jon Bernthal (id:1049679)

吉姆·帕拉克 Jim Parrack (id:1315255)

布拉德·威廉姆·亨克 Brad William Henke (id:1002801)

凯文·万斯 Kevin Vance (id:1343165)

泽维尔·塞缪尔 Xavier Samuel (id:1035613)

詹森·艾萨克 Jason Isaacs (id:1017916)

安娜玛丽亚·玛琳卡 Anamaria Marinca (id:1000379)

艾丽西娅·冯·里特贝格 Alicia von Rittberg (id:1233826)

斯科特·伊斯特伍德 Scott Eastwood (id:1000188)

丹尼尔·贝茨 Daniel Betts (id:1344522)

劳伦斯·斯佩尔曼 Laurence Spellman (id:1344523)

斯特拉·斯托克尔 Stella Stocker (id:1347692)

克里斯蒂安·孔特雷拉斯 Christian Contreras (id:1347727)

约翰·麦克米兰 John MacMillan (id:1319678)

劳拉·赫兰德 Laura Holland (id:1366448)

克里斯蒂娜·沃尔夫 Christina Wolfe (id:1343167)

尤金娜·库日敏娜 Eugenia Kuzmina (id:1343166)

马利克·奥拉维克 Marek Oravec (id:1256216)

布兰科·托莫维奇 Branko Tomovic (id:1208904)

杰克·巴农 Jack Bannon (id:1341066)

艾丁·盖利 Edin Gali (id:1338500)

安库塔·布雷班 Ancuta Breaban (id:1337214)

约翰·莱舍尔 John Lesher (id:1388210)

布拉德·皮特 Brad Pitt (id:1054452)

史蒂文·普莱斯 Steven Price (id:1210788)

罗曼·瓦西亚诺夫 Roman Vasyanov (id:1336446)

杰伊·卡西迪 Jay Cassidy (id:1280253)

多迪·道恩 Dody Dorn (id:1002946)

玛哈·梅舍德 Maja Meschede (id:1408714)

◎简 介

1945年4月,德国纳粹已成强弩之末,第二次世界大战即将落下帷幕,战火正转向德国本土。绰号“战争老爹”的坦克小队队长唐·柯利尔(布拉德·皮特 Brad Pitt 饰)刚刚与战友经历了一场殊死之战,疲惫和愤怒早已胜过了对战争的恐惧。休整期间,从没有过战场经验的打字员诺曼(罗根·勒曼 Logan Lerman 饰)被分到唐的坦克“狂怒”上。诺曼对自己的遭遇愤愤不平,也无法坦然接受新战友粗鲁暴虐的一面。接到新的任务后,唐带领坦克小队前往下一个城镇作志愿,然而一路上却遭到德军顽强的抵抗。

最残酷的腥风血雨,让诺曼在悲伤、暴怒、惊恐和绝望中迅速成长起来,而他也即将和战友们经历一场最难忘的殊死决战……

◎获奖情况 (共8项)

第38届日本电影学院奖 (2015)

最佳外语片(提名)

第21届美国演员工会奖 (2015)

电影最佳特技群戏(提名)

第86届美国国家评论协会奖 (2014)

最佳群戏

年度佳片

第18届好莱坞电影奖 (2014)

年度剪辑

第17届美国青少年选择奖 (2015)

最佳剧情片(提名)

最佳剧情片男演员(提名)

└──罗根·勒曼 (id:1053583)

第1届豆瓣电影年度榜单 (2014)

11月最受关注电影(提名)

  1. ##### MediaInfo ######

  2. General

  3. Unique ID : 215570896027718074103678675475276167564 (0xA22D71C2E02CE07C906928B47716F98C)

  4. Complete name : Fury.2014.WEB-DL.2160p.x265.10bit.2Audio-MiniHD.mkv

  5. Format : Matroska

  6. Format version : Version 4

  7. File size : 21.6 GiB

  8. Duration : 2 h 14 min

  9. Overall bit rate : 23.0 Mb/s

  10. Encoded date : UTC 2015-11-23 10:17:30

  11. Writing application : mkvmerge v7.5.0 ('Glass Culture') 64bit built on Jan 4 2015 16:48:44

  12. Writing library : libebml v1.3.1 + libmatroska v1.4.2

  13. Video

  14. ID : 1

  15. Format : HEVC

  16. Format/Info : High Efficiency Video Coding

  17. Codec ID : V_MPEGH/ISO/HEVC

  18. Duration : 2 h 14 min

  19. Bit rate : 21.0 Mb/s

  20. Width : 3 840 pixels

  21. Height : 1 608 pixels

  22. Display aspect ratio : 2.40:1

  23. Frame rate mode : Constant

  24. Frame rate : 23.976 (24000/1001/53354) FPS

  25. Bits/(Pixel*Frame) : 0.142

  26. Stream size : 19.7 GiB (91%)

  27. Default : Yes

  28. Forced : No

  29. Audio #1

  30. ID : 2

  31. Format : DTS

  32. Format/Info : Digital Theater Systems

  33. Codec ID : A_DTS

  34. Duration : 2 h 14 min

  35. Bit rate mode : Constant

  36. Bit rate : 1 509 kb/s

  37. Channel(s) : 6 channels

  38. Channel layout : C L R Ls Rs LFE

  39. Sampling rate : 48.0 kHz

  40. Frame rate : 93.750 FPS (512 SPF)

  41. Bit depth : 16 bits

  42. Compression mode : Lossy

  43. Stream size : 1.42 GiB (7%)

  44. Language : English

  45. Default : Yes

  46. Forced : No

  47. Audio #2

  48. ID : 3

  49. Format : AC-3

  50. Format/Info : Audio Coding 3

  51. Commercial name : Dolby Digital

  52. Codec ID : A_AC3

  53. Duration : 2 h 14 min

  54. Bit rate mode : Constant

  55. Bit rate : 448 kb/s

  56. Channel(s) : 6 channels

  57. Channel layout : L R C LFE Ls Rs

  58. Sampling rate : 48.0 kHz

  59. Frame rate : 31.250 FPS (1536 SPF)

  60. Compression mode : Lossy

  61. Delay relative to video : 12 ms

  62. Stream size : 431 MiB (2%)

  63. Language : Chinese

  64. Service kind : Complete Main

  65. Default : No

  66. Forced : No

  67. Text #1

  68. ID : 4

  69. Format : PGS

  70. Muxing mode : zlib

  71. Codec ID : S_HDMV/PGS

  72. Codec ID/Info : Picture based subtitle format used on BDs/HD-DVDs

  73. Duration : 2 h 3 min

  74. Bit rate : 9 076 b/s

  75. Count of elements : 2938

  76. Stream size : 8.04 MiB (0%)

  77. Language : English

  78. Default : Yes

  79. Forced : No

  80. Text #2

  81. ID : 5

  82. Format : PGS

  83. Muxing mode : zlib

  84. Codec ID : S_HDMV/PGS

  85. Codec ID/Info : Picture based subtitle format used on BDs/HD-DVDs

  86. Duration : 2 h 8 min

  87. Bit rate : 40.6 kb/s

  88. Count of elements : 4097

  89. Stream size : 37.3 MiB (0%)

  90. Language : Chinese

  91. Default : No

  92. Forced : No

  93. Text #3

  94. ID : 6

  95. Format : UTF-8

  96. Codec ID : S_TEXT/UTF8

  97. Codec ID/Info : UTF-8 Plain Text

  98. Duration : 1 h 36 min

  99. Bit rate : 1 b/s

  100. Count of elements : 77

  101. Stream size : 1.28 KiB (0%)

  102. Title : Forced

  103. Language : English

  104. Default : No

  105. Forced : No

  106. Text #4

  107. ID : 7

  108. Format : UTF-8

  109. Codec ID : S_TEXT/UTF8

  110. Codec ID/Info : UTF-8 Plain Text

  111. Duration : 2 h 3 min

  112. Bit rate : 45 b/s

  113. Count of elements : 1469

  114. Stream size : 41.7 KiB (0%)

  115. Language : English

  116. Default : No

  117. Forced : No

  118. Text #5

  119. ID : 8

  120. Format : ASS

  121. Codec ID : S_TEXT/ASS

  122. Codec ID/Info : Advanced Sub Station Alpha

  123. Duration : 2 h 3 min

  124. Bit rate : 94 b/s

  125. Count of elements : 1701

  126. Compression mode : Lossless

  127. Stream size : 86.2 KiB (0%)

  128. Language : Chinese

  129. Default : No

  130. Forced : No

  131. Menu #1

  132. 00:00:00.000 : en:00:00:00.000

  133. 00:07:58.226 : en:00:07:58.226

  134. 00:20:24.681 : en:00:20:24.681

  135. 00:26:38.930 : en:00:26:38.930

  136. 00:37:26.034 : en:00:37:26.034

  137. 00:43:24.059 : en:00:43:24.059

  138. 00:51:59.407 : en:00:51:59.407

  139. 01:01:20.300 : en:01:01:20.300

  140. 01:13:46.546 : en:01:13:46.546

  141. 01:18:29.703 : en:01:18:29.703

  142. 01:26:21.801 : en:01:26:21.801

  143. 01:29:50.426 : en:01:29:50.426

  144. 01:35:39.190 : en:01:35:39.190

  145. 01:48:12.109 : en:01:48:12.109

  146. 01:57:49.979 : en:01:57:49.979

  147. 02:00:41.609 : en:02:00:41.609

  148. Menu #2

  149. 00:00:00.000 : en:1.

  150. 00:07:58.228 : en:2.

  151. 00:20:24.682 : en:3.

  152. 00:26:38.931 : en:4.

  153. 00:37:26.035 : en:5.

  154. 00:43:24.060 : en:6.

  155. 00:51:59.408 : en:7.

  156. 01:01:20.302 : en:8.

  157. 01:13:46.547 : en:9.

  158. 01:18:29.705 : en:10.

  159. 01:26:21.802 : en:11.

  160. 01:29:50.427 : en:12.

  161. 01:35:39.192 : en:13.

  162. 01:48:12.111 : en:14.

  163. 01:57:49.980 : en:15.

  164. 02:00:41.609 : en:16.


复制代码



文件下载


除非特别注明,本文『狂怒[国英多音轨/中英字幕].Fury.2014.WEB-DL.2160p.x265.10bit.2Audio-MiniHD 21.61GB』来源于互联网机器人自动抓取,非本站原创。 浮游电影网不对本文拥有版权,如有侵犯,请联系邮箱:fuyouu#yandex.com[#换成@]投诉。我们会在15个工作日内删除。 但烦请转载时请标明出处:“本文转载于『浮游电影网』,原文地址:https://www.fuyouu.com/22211.html

评论吧骚年!

发表你的见解   

昵称*

E-mail*(建议输入,以便收到博主回复的提示邮件)

验证码*

您可以使用eMule或eMule Mod(Windows)、aMule(Win、Linux、Mac)等软件下载eD2k链接。。
eMule收藏集(.emulecollection)文件是您选中的所有链接的列表文件。eMule可以直接下载它们。
按住SHIFT键选择可以选中多个选择框。
可用文件名和大小选择器来选择文件。
文件名选择器帮您根据文件名称或后缀来选择文件。不分大小写。
符号使用:
和:空格( )、+
不包含:-
或:|
转义:一对英文引号("");
匹配开头:^
匹配结尾:$
例如:
选中所有名称中包含有“eMule”或“0.49c”字眼,但不包含有“exe”字眼的:emule|0.49c -exe
选中所有名称的开头是“eMule”,结尾是“0.49c”的:^emule 0.49c$
选中所有名称中带有“eMule 0.49c”的(必须是“eMule 0.49c”,中间没有别的字符,不能是“eMule fake 0.49c”),需要转义:"emule 0.49c"
大小选择器帮您根据文件大小选择文件。