当前位置: 首页 >> 欧美电影 >> 洛杉矶之战[国英多音轨/中英字幕].Battle.Los.Angeles.2011.WEB-DL.2160p.x265.10bit.2Audio-MiniHD 24.64GB >> 正文

洛杉矶之战[国英多音轨/中英字幕].Battle.Los.Angeles.2011.WEB-DL.2160p.x265.10bit.2Audio-MiniHD 24.64GB

2022年05月16日 20:48:50     电影发布:来源于网络     电影分类:欧美电影     评论(0)    

◎译 名 洛杉矶之战 / 异形侵略战(港) / 世界异战(台) / 全球入侵:洛杉矶之战 / 洛城杀场 / World Invasion: Battle LA

◎片 名 Battle: Los Angeles

◎年 代 2011

◎产 地 美国

◎类 别 动作 / 科幻

◎语 言 英语

◎上映日期 2011-03-18(中国大陆) / 2011-03-11(美国)

◎IMDb链接 https://www.imdb.com/title/tt1217613/

◎豆瓣评分 6.1/10 (102998人评价)

◎豆瓣链接 https://movie.douban.com/subject/3041264/

◎片 长 116分钟

◎导 演 乔纳森·里贝斯曼 Jonathan Liebesman (id:1049991)

◎演 员 艾伦·艾克哈特 Aaron Eckhart (id:1053577)

拉蒙·罗德里格兹 Ramon Rodriguez (id:1036497)

威尔·罗斯海尔 Will Rothhaar (id:1140481)

科里·哈德里克 Cory Hardrict (id:1040665)

吉姆·帕拉克 Jim Parrack (id:1315255)

基诺·安东尼·佩西 Gino Anthony Pesi (id:1203096)

尼欧 Ne-Yo (id:1182326)

詹姆斯·廖 James Hiroyuki Liao (id:1316028)

布丽姬·穆娜 Bridget Moynahan (id:1044868)

诺尔·费舍 Noel Fisher (id:1084181)

阿德托库姆布斯·麦克马克 Adetokumboh M'Cormack (id:1324856)

布赖斯·卡斯 Bryce Cass (id:1246554)

迈克尔·佩纳 Michael Pe?a (id:1131634)

米歇尔·罗德里格兹 Michelle Rodriguez (id:1025174)

小尼尔·布朗 Neil Brown Jr. (id:1074435)

泰勒·汉德雷 Taylor Handley (id:1018033)

乔伊·金 Joey King (id:1022713)

卢卡斯·提尔 Lucas Till (id:1022645)

Kenneth Brown Jr. (id:1256742)

雅丹·古尔德 Jadin Gould (id:1253074)

乔·克里斯特 Joe Chrest (id:1338883)

E·罗杰·米切尔 E. Roger Mitchell (id:1119945)

罗斯·布莱克维尔 Rus Blackwell (id:1064258)

苏西·阿布罗梅特 Susie Abromeit (id:1247903)

布兰迪·科尔曼 Brandi Coleman (id:1205832)

大卫·詹森 David Jensen (id:1055924)

汤姆·希尔曼 Tom Hillmann (id:1350984)

莉娜·克拉克 Lena Clark (id:1336791)

塔琳·萨瑟恩 Taryn Southern (id:1314626)

詹姆斯·D·德弗 James D. Dever (id:1365757)

Dane Brown (id:1265869)

Grant Case (id:1269934)

尼克·琼斯 Nick Jones (id:1264496)

基思·米德尔布鲁克 Keith Middlebrook (id:1434941)

考特尼·芒奇 Courtney Munch (id:1310589)

古斯塔沃·奥尔蒂斯 Gustavo I. Ortiz (id:1342710)

吉姆·帕尔默 Jim Palmer (id:1293854)

米歇尔·皮尔斯 Michelle Pierce (id:1421801)

瓦内萨·罗斯 Vanessa Ross (id:1330973)

大卫·斯皮德 David Speed (id:1370758)

马龙·杨 Marlon Young (id:1364961)

布莱恩·泰勒 Brian Tyler (id:1276412)

罗恩·布朗 Ronn Brown (id:1276400)

扎克·贾德森 Zack Judson (id:1411059)

拉斐尔·皮门特尔 Raphael A. Pimentel (id:1419122)

◎简 介

2011年夏天,无数枚陨石坠落地球,竟导致12个国家的沿海城市系数毁灭。原来陨石实则有一群神秘的外星人操纵。外星人凭借陨石着陆地球,展开残酷无情的屠杀和破坏。作为世界上的头号超级大国,美国自然也无法避免这场灾难,随着入侵者的则多,美国只有西太平洋的洛杉矶暂未沦陷。海军陆战队中士麦克·纳兹(艾伦·艾克哈特 Aaron Eckhart 饰)受命编入威廉姆·马丁内斯中尉(拉蒙·罗德里格兹 Ramon Rodriguez 饰)的小分队,准备与外星人展开殊死搏杀。

适值此时,外星入侵者成功登陆,并杀入人口稠密的圣莫尼卡区。军方决定诱敌深入,再对敌人施以空中打击。为了营救无辜,纳兹和马丁内斯的小分队义无反顾冲了进去……

◎获奖情况 (共1项)

第2届豆瓣电影鑫像奖 (2012)

豆渣单元 最渣导演(外语)(提名)

└──乔纳森·里贝斯曼 (id:1049991)

  1. ##### MediaInfo ######

  2. General

  3. Unique ID : 205954063191706142006559889407592463199 (0x9AF14F4B92DC74E188AAD0EB68257B5F)

  4. Complete name : Battle.Los.Angeles.2011.WEB-DL.2160p.x265.10bit.2Audio-MiniHD.mkv

  5. Format : Matroska

  6. Format version : Version 4

  7. File size : 24.6 GiB

  8. Duration : 1 h 56 min

  9. Overall bit rate : 30.3 Mb/s

  10. Encoded date : UTC 2016-01-07 11:15:25

  11. Writing application : mkvmerge v7.5.0 ('Glass Culture') 64bit built on Jan 4 2015 16:48:44

  12. Writing library : libebml v1.3.1 + libmatroska v1.4.2

  13. Video

  14. ID : 1

  15. Format : HEVC

  16. Format/Info : High Efficiency Video Coding

  17. Codec ID : V_MPEGH/ISO/HEVC

  18. Duration : 1 h 56 min

  19. Bit rate : 28.0 Mb/s

  20. Width : 3 832 pixels

  21. Height : 1 608 pixels

  22. Display aspect ratio : 2.40:1

  23. Frame rate mode : Constant

  24. Frame rate : 23.976 (24000/1001/53354) FPS

  25. Bits/(Pixel*Frame) : 0.189

  26. Stream size : 22.7 GiB (92%)

  27. Default : Yes

  28. Forced : No

  29. Audio #1

  30. ID : 2

  31. Format : DTS

  32. Format/Info : Digital Theater Systems

  33. Codec ID : A_DTS

  34. Duration : 1 h 56 min

  35. Bit rate mode : Constant

  36. Bit rate : 1 509 kb/s

  37. Channel(s) : 6 channels

  38. Channel layout : C L R Ls Rs LFE

  39. Sampling rate : 48.0 kHz

  40. Frame rate : 93.750 FPS (512 SPF)

  41. Bit depth : 16 bits

  42. Compression mode : Lossy

  43. Delay relative to video : 2 s 0 ms

  44. Stream size : 1.22 GiB (5%)

  45. Language : English

  46. Default : Yes

  47. Forced : No

  48. Audio #2

  49. ID : 3

  50. Format : DTS

  51. Format/Info : Digital Theater Systems

  52. Codec ID : A_DTS

  53. Duration : 1 h 56 min

  54. Bit rate mode : Constant

  55. Bit rate : 754 kb/s

  56. Channel(s) : 6 channels

  57. Channel layout : C L R Ls Rs LFE

  58. Sampling rate : 48.0 kHz

  59. Frame rate : 93.750 FPS (512 SPF)

  60. Bit depth : 24 bits

  61. Compression mode : Lossy

  62. Delay relative to video : 2 s 0 ms

  63. Stream size : 627 MiB (2%)

  64. Language : Chinese

  65. Default : No

  66. Forced : No

  67. Text #1

  68. ID : 4

  69. Format : PGS

  70. Muxing mode : zlib

  71. Codec ID : S_HDMV/PGS

  72. Codec ID/Info : Picture based subtitle format used on BDs/HD-DVDs

  73. Duration : 1 h 50 min

  74. Bit rate : 16.2 kb/s

  75. Count of elements : 2850

  76. Stream size : 12.9 MiB (0%)

  77. Language : English

  78. Default : Yes

  79. Forced : No

  80. Text #2

  81. ID : 5

  82. Format : PGS

  83. Muxing mode : zlib

  84. Codec ID : S_HDMV/PGS

  85. Codec ID/Info : Picture based subtitle format used on BDs/HD-DVDs

  86. Duration : 1 h 51 min

  87. Bit rate : 19.1 kb/s

  88. Count of elements : 3166

  89. Stream size : 15.3 MiB (0%)

  90. Language : Chinese

  91. Default : No

  92. Forced : No

  93. Text #3

  94. ID : 6

  95. Format : PGS

  96. Muxing mode : zlib

  97. Codec ID : S_HDMV/PGS

  98. Codec ID/Info : Picture based subtitle format used on BDs/HD-DVDs

  99. Duration : 1 h 51 min

  100. Bit rate : 16.6 kb/s

  101. Count of elements : 3166

  102. Stream size : 13.3 MiB (0%)

  103. Language : Chinese

  104. Default : No

  105. Forced : No

  106. Text #4

  107. ID : 7

  108. Format : PGS

  109. Muxing mode : zlib

  110. Codec ID : S_HDMV/PGS

  111. Codec ID/Info : Picture based subtitle format used on BDs/HD-DVDs

  112. Duration : 1 h 51 min

  113. Bit rate : 30.2 kb/s

  114. Count of elements : 3166

  115. Stream size : 24.2 MiB (0%)

  116. Language : Chinese

  117. Default : No

  118. Forced : No

  119. Text #5

  120. ID : 8

  121. Format : PGS

  122. Muxing mode : zlib

  123. Codec ID : S_HDMV/PGS

  124. Codec ID/Info : Picture based subtitle format used on BDs/HD-DVDs

  125. Duration : 1 h 51 min

  126. Bit rate : 17.2 kb/s

  127. Count of elements : 3244

  128. Stream size : 13.8 MiB (0%)

  129. Language : Chinese

  130. Default : No

  131. Forced : No

  132. Menu

  133. 00:00:00.000 : :00:00:00.000

  134. 00:11:49.250 : :00:11:49.250

  135. 00:18:21.684 : :00:18:21.684

  136. 00:22:24.510 : :00:22:24.510

  137. 00:27:41.410 : :00:27:41.410

  138. 00:35:19.659 : :00:35:19.659

  139. 00:41:44.752 : :00:41:44.752

  140. 00:47:57.917 : :00:47:57.917

  141. 00:55:20.192 : :00:55:20.192

  142. 01:02:02.177 : :01:02:02.177

  143. 01:12:26.509 : :01:12:26.509

  144. 01:17:50.958 : :01:17:50.958

  145. 01:22:57.764 : :01:22:57.764

  146. 01:30:23.418 : :01:30:23.418

  147. 01:37:53.951 : :01:37:53.951

  148. 01:47:12.009 : :01:47:12.009


复制代码



文件下载


除非特别注明,本文『洛杉矶之战[国英多音轨/中英字幕].Battle.Los.Angeles.2011.WEB-DL.2160p.x265.10bit.2Audio-MiniHD 24.64GB』来源于互联网机器人自动抓取,非本站原创。 浮游电影网不对本文拥有版权,如有侵犯,请联系邮箱:fuyouu#yandex.com[#换成@]投诉。我们会在15个工作日内删除。 但烦请转载时请标明出处:“本文转载于『浮游电影网』,原文地址:https://www.fuyouu.com/22206.html

评论吧骚年!

发表你的见解   

昵称*

E-mail*(建议输入,以便收到博主回复的提示邮件)

验证码*

您可以使用eMule或eMule Mod(Windows)、aMule(Win、Linux、Mac)等软件下载eD2k链接。。
eMule收藏集(.emulecollection)文件是您选中的所有链接的列表文件。eMule可以直接下载它们。
按住SHIFT键选择可以选中多个选择框。
可用文件名和大小选择器来选择文件。
文件名选择器帮您根据文件名称或后缀来选择文件。不分大小写。
符号使用:
和:空格( )、+
不包含:-
或:|
转义:一对英文引号("");
匹配开头:^
匹配结尾:$
例如:
选中所有名称中包含有“eMule”或“0.49c”字眼,但不包含有“exe”字眼的:emule|0.49c -exe
选中所有名称的开头是“eMule”,结尾是“0.49c”的:^emule 0.49c$
选中所有名称中带有“eMule 0.49c”的(必须是“eMule 0.49c”,中间没有别的字符,不能是“eMule fake 0.49c”),需要转义:"emule 0.49c"
大小选择器帮您根据文件大小选择文件。