当前位置: 首页 >> 港台电影 >> 行运超人[国语音轨/中文字幕].My.Lucky.Star.2003.CHINESE.1080p.BluRay.x264.FLAC.2.0-c0kE 11.24GB >> 正文

行运超人[国语音轨/中文字幕].My.Lucky.Star.2003.CHINESE.1080p.BluRay.x264.FLAC.2.0-c0kE 11.24GB

2022年05月16日 10:34:45     电影发布:来源于网络     电影分类:港台电影     评论(0)    

行运超人[国语音轨/中文字幕].My.Lucky.Star.2003.CHINESE.1080p.BluRay.x264.FLAC.2.0 c0kE 11.24GB  港台电影  第1张

行运超人[国语音轨/中文字幕].My.Lucky.Star.2003.CHINESE.1080p.BluRay.x264.FLAC.2.0 c0kE 11.24GB  港台电影  第2张

◎译 名 行运超人 / 幸运超人 / My Lucky Star

◎片 名 行運超人

◎年 代 2003

◎产 地 中国香港

◎类 别 喜剧 / 爱情

◎语 言 粤语

◎上映日期 2003-01-23(中国香港)

◎IMDb链接 https://www.imdb.com/title/tt0380069/

◎豆瓣评分 6.7/10 (32654人评价)

◎豆瓣链接 https://movie.douban.com/subject/1306334/

◎片 长 98分钟

◎导 演 谷德昭 Vincent Kok (id:1025526)

◎编 剧 谷德昭 Vincent Kok (id:1025526)

叶念琛 Patrick Kong (id:1274344)

◎演 员 杨千嬅 Miriam Yeung (id:1173971)

梁朝伟 Tony Leung Chiu Wai (id:1115918)

郑中基 Ronald Cheng (id:1032940)

杜丽莎 Teresa Carpio (id:1028456)

谷德昭 Vincent Kok (id:1025526)

邓健泓 Patrick Tang (id:1048705)

雷颂德 Mark Lui (id:1052286)

安雅 Anya (id:1005185)

王合喜 Ken Wong (id:1008281)

张智尧 Kennth Chang (id:1274768)

方中信 Alex Fong (id:1033102)

张达明 Tat-Ming Cheung (id:1274433)

苏永康 William So Wing Hong (id:1155115)

李彩桦 Rain Li (id:1042200)

何超仪 Josie Ho (id:1014212)

余文乐 Shawn Yue (id:1041510)

阮小仪 Kitty Yuen (id:1219964)

冯勉恒 Min Hun Fung (id:1322425)

于粦 Lin Yu (id:1350472)

苏民峰 Peter So Man Fung (id:1350960)

方力申 Lik-Sun Fong (id:1171687)

森美 Sammy Leung (id:1038992)

陈达志 Tat Chi Chan (id:1443399)

黄柏高 Paco Wong Pak Go (id:1343341)

谷德昭 Vincent Kok (id:1025526)

黄英华 Ying-Wah Wong (id:1301204)

邝志良 Chi-Leung Kwong (id:1289164)

◎简 介

叶孤红(杨千嬅饰)生性开朗乐观,纵使历年来经历了很多倒霉事,但都让她一笑置之,更常常研究各种术法转运。

城中著名堪舆学家赖料布(梁朝伟饰),自小便得祖训不得与姓叶的人结缘,叶孤红为了能得其指点,便想尽办法接近料布,二人缘分也从此开始。

料布算得原来一直有高人扰乱孤红的生活,那人便是赖料布的死对头段蟹(郑中基饰)。要把叶孤红置之死地的是她父亲的第二任妻子。

赖料布抛开祖训,决心和孤红携手对付段蟹。

◎获奖情况 (共1项)

第23届香港电影金像奖 (2004)

最佳男配角(提名)

└──郑中基 (id:1032940)

  1. Video

  2. ID : 1

  3. Format : AVC

  4. Format/Info : Advanced Video Codec

  5. Format profile : [email protected]

  6. Format settings : CABAC / 4 Ref Frames

  7. Format settings, CABAC : Yes

  8. Format settings, Reference frames : 4 frames

  9. Codec ID : V_MPEG4/ISO/AVC

  10. Duration : 1 h 38 min

  11. Bit rate : 15.6 Mb/s

  12. Width : 1 920 pixels

  13. Height : 1 080 pixels

  14. Display aspect ratio : 16:9

  15. Frame rate mode : Constant

  16. Frame rate : 24.000 FPS

  17. Color space : YUV

  18. Chroma subsampling : 4:2:0

  19. Bit depth : 8 bits

  20. Scan type : Progressive

  21. Bits/(Pixel*Frame) : 0.313

  22. Stream size : 10.8 GiB (96%)

  23. Title : Hang wan chiu yan (2003) / c0kE

  24. Writing library : x264 core 164 r3081+60M 07dcb39 devel [(8 & 10)[email protected] X86_64]

  25. Encoding settings : cabac=1 / ref=4 / deblock=1:-3:-3 / analyse=0x3:0x133 / me=umh / subme=10 / psy=1 / fade_compensate=0.00 / psy_rd=1.05:0.00 / mixed_ref=1 / me_range=32 / chroma_me=1 / trellis=2 / 8x8dct=1 / cqm=0 / deadzone=21,11 / fast_pskip=0 / chroma_qp_offset=-2 / threads=12 / lookahead_threads=1 / sliced_threads=0 / nr=0 / decimate=0 / interlaced=0 / NTMzNTQ= / bluray_compat=0 / constrained_intra=0 / fgo=0 / bframes=6 / b_pyramid=2 / b_adapt=2 / b_bias=0 / direct=3 / weightb=1 / open_gop=0 / weightp=2 / keyint=250 / keyint_min=24 / NTMzNTQ=uuDQuD2mJt9fsCf / scenecut=40 / intra_refresh=0 / rc_lookahead=60 / rc=crf / mbtree=0 / crf=19.0000 / qcomp=0.65 / qpmin=0:0:0 / qpmax=69:69:69 / qpstep=4 / vbv_maxrate=62500 / vbv_bufsize=78125 / crf_max=0.0 / nal_hrd=none / filler=0 / NTMzNTQ=LmsMAP37EqsCpk / ip_ratio=1.30 / pb_ratio=1.20 / aq=3:0.80 / aq-sensitivity=10.00 / aq-factor=1.00:1.00:1.00 / aq2=0 / aq3=0

  26. Language : Chinese

  27. Default : Yes

  28. Forced : No

  29. Color range : Limited

  30. Color primaries : BT.709

  31. Matrix coefficients : BT.709


  32. Audio

  33. ID : 2

  34. Format : FLAC

  35. Format/Info : Free Lossless Audio Codec

  36. Codec ID : A_FLAC

  37. Duration : 1 h 38 min

  38. Bit rate mode : Variable

  39. Bit rate : 626 kb/s

  40. Channel(s) : 2 channels

  41. Channel layout : L R

  42. Sampling rate : 48.0 kHz

  43. Frame rate : 11.719 FPS (4096 SPF)

  44. Bit depth : 16 bits

  45. Compression mode : Lossless

  46. Stream size : 443 MiB (4%)

  47. Title : Cantonese

  48. Writing library : libFLAC 1.3.3 (UTC 2019-08-04)

  49. Language : Chinese

  50. Default : Yes

  51. Forced : No


  52. Text #1

  53. ID : 3

  54. Format : UTF-8

  55. Codec ID : S_TEXT/UTF8

  56. Codec ID/Info : UTF-8 Plain Text

  57. Duration : 1 h 34 min

  58. Bit rate : 45 b/s

  59. Count of elements : 1877

  60. Stream size : 31.8 KiB (0%)

  61. Language : English

  62. Default : Yes

  63. Forced : No


  64. Text #2

  65. ID : 4

  66. Format : PGS

  67. Muxing mode : zlib

  68. Codec ID : S_HDMV/PGS

  69. Codec ID/Info : Picture based subtitle format used on BDs/HD-DVDs

  70. Duration : 1 h 34 min

  71. Bit rate : 45.9 kb/s

  72. Count of elements : 2816

  73. Stream size : 31.1 MiB (0%)

  74. Title : Traditional

  75. Language : Chinese

  76. Default : No

  77. Forced : No


  78. Text #3

  79. ID : 5

  80. Format : PGS

  81. Muxing mode : zlib

  82. Codec ID : S_HDMV/PGS

  83. Codec ID/Info : Picture based subtitle format used on BDs/HD-DVDs

  84. Duration : 1 h 34 min

  85. Bit rate : 42.5 kb/s

  86. Count of elements : 2816

  87. Stream size : 28.8 MiB (0%)

  88. Title : Simplified

  89. Language : Chinese

  90. Default : No

  91. Forced : No


  92. Menu

  93. 00:00:00.000 : Chapter 01

  94. 00:12:41.292 : Chapter 02

  95. 00:18:45.375 : Chapter 03

  96. 00:28:57.125 : Chapter 04

  97. 00:35:57.375 : Chapter 05

  98. 00:44:41.375 : Chapter 06

  99. 00:52:44.583 : Chapter 07

  100. 00:58:21.292 : Chapter 08

  101. 01:04:37.625 : Chapter 09

  102. 01:10:51.833 : Chapter 10

  103. 01:17:53.792 : Chapter 11

  104. 01:26:48.167 : Chapter 12

复制代码

行运超人[国语音轨/中文字幕].My.Lucky.Star.2003.CHINESE.1080p.BluRay.x264.FLAC.2.0 c0kE 11.24GB  港台电影  第3张 行运超人[国语音轨/中文字幕].My.Lucky.Star.2003.CHINESE.1080p.BluRay.x264.FLAC.2.0 c0kE 11.24GB  港台电影  第4张 行运超人[国语音轨/中文字幕].My.Lucky.Star.2003.CHINESE.1080p.BluRay.x264.FLAC.2.0 c0kE 11.24GB  港台电影  第5张



文件下载


除非特别注明,本文『行运超人[国语音轨/中文字幕].My.Lucky.Star.2003.CHINESE.1080p.BluRay.x264.FLAC.2.0-c0kE 11.24GB』来源于互联网机器人自动抓取,非本站原创。 浮游电影网不对本文拥有版权,如有侵犯,请联系邮箱:fuyouu#yandex.com[#换成@]投诉。我们会在15个工作日内删除。 但烦请转载时请标明出处:“本文转载于『浮游电影网』,原文地址:https://www.fuyouu.com/22202.html

评论吧骚年!

发表你的见解   

昵称*

E-mail*(建议输入,以便收到博主回复的提示邮件)

验证码*

您可以使用eMule或eMule Mod(Windows)、aMule(Win、Linux、Mac)等软件下载eD2k链接。。
eMule收藏集(.emulecollection)文件是您选中的所有链接的列表文件。eMule可以直接下载它们。
按住SHIFT键选择可以选中多个选择框。
可用文件名和大小选择器来选择文件。
文件名选择器帮您根据文件名称或后缀来选择文件。不分大小写。
符号使用:
和:空格( )、+
不包含:-
或:|
转义:一对英文引号("");
匹配开头:^
匹配结尾:$
例如:
选中所有名称中包含有“eMule”或“0.49c”字眼,但不包含有“exe”字眼的:emule|0.49c -exe
选中所有名称的开头是“eMule”,结尾是“0.49c”的:^emule 0.49c$
选中所有名称中带有“eMule 0.49c”的(必须是“eMule 0.49c”,中间没有别的字符,不能是“eMule fake 0.49c”),需要转义:"emule 0.49c"
大小选择器帮您根据文件大小选择文件。