当前位置: 首页 >> 港台电影 >> 爱的面包魂[国语音轨].The.Soul.of.Bread.2012.CHINESE.1080p.BluRay.x264.DD5.1-TayTO 7.29GB >> 正文

爱的面包魂[国语音轨].The.Soul.of.Bread.2012.CHINESE.1080p.BluRay.x264.DD5.1-TayTO 7.29GB

2022年05月16日 10:23:14     电影发布:来源于网络     电影分类:港台电影     评论(0)    

爱的面包魂[国语音轨].The.Soul.of.Bread.2012.CHINESE.1080p.BluRay.x264.DD5.1 TayTO 7.29GB  港台电影  第1张

爱的面包魂[国语音轨].The.Soul.of.Bread.2012.CHINESE.1080p.BluRay.x264.DD5.1 TayTO 7.29GB  港台电影  第2张

◎译 名 爱的面包魂 / The Soul of Bread

◎片 名 愛的麵包魂

◎年 代 2012

◎产 地 中国台湾

◎类 别 剧情 / 喜剧 / 爱情

◎语 言 汉语普通话 / 闽南语 / 英语 / 法语

◎上映日期 2012-07-13(中国大陆) / 2012-02-03(中国台湾)

◎IMDb链接 https://www.imdb.com/title/tt2191861/

◎豆瓣评分 5.9/10 (11536人评价)

◎豆瓣链接 https://movie.douban.com/subject/6858739/

◎片 长 114分钟(台湾)

◎导 演 高炳权 Pin-Chuan Kao (id:1320648)

林君阳 Chun-Yang Lin (id:1320649)

◎编 剧 木二 Mu Er (id:1320647)

简士耕 Shi-Geng Jian (id:1320960)

高炳权 Pin-Chuan Kao (id:1320648)

◎演 员 陈汉典 Han Dian Chen (id:1274546)

陈妍希 Michelle Chen (id:1313303)

倪安东 Anthony Neely (id:1275980)

廖峻 Chun Liao (id:1318163)

陈盈洁 Ying-Chieh Chen (id:1320646)

柯淑勤 Samantha Shu-Chin Ko (id:1320137)

蔡淑臻 Janel Tsai (id:1317634)

弯弯 Wan Wan (id:1315839)

侯彦西 Yen Hsi Hou (id:1315838)

谢依霖 Yilin Sie (id:1319858)

高允汉 Rex Kao (id:1341630)

陈雪甄 Vera Chen (id:1423723)

吕莳媛 Lu Shih-Yuan (id:1352058)

王伟忠 Wei-zhong Wang (id:1315938)

苏福裕 Su Fu-Yu (id:1405535)

王希文 Owen Wang (id:1331668)

杨渭汉 Yang Wei-Han (id:1345997)

林君阳 Chun-Yang Lin (id:1320649)

顾晓芸 Hsiao-Yun Ku (id:1370235)

许淑华 Shu-hua Hsu (id:1419888)

陈冠仲 Allen Chen (id:1419420)

杜笃之 Du-Che Tu (id:1275159)

杨志龙 Gino Yang (id:1434709)

◎简 介

在一个正港台客面包师傅,遇到了来自英国的贵族面包师傅,为了追求心爱的女孩,展开正面对决。两个男人,乡村面包店的土洋大战,谁输谁赢,口味将决定一切.......

糕饼(陈汉典 饰)是一间位于在高雄乡间“源晨面包店”的面包师傅,和店长邱爸(廖峻 饰)的女儿晓萍(陈妍希 饰) 是从小到大的青梅竹马。非晓萍不娶的糕饼,有一天晚上精心筹划了一场求婚惊喜,但晓萍心中一直有个渴望实现的梦想,因此面对糕饼的求婚仍旧不为所动。 这天,平静的面包店,来了一位帅气的混血王子布莱德(倪安东 饰)。身为国际美食旅游节目主持人,同时也是米其林三星餐厅主厨,布莱德为了寻找灵感,决定找出母亲生前最爱的面包,而来到这个纯朴的小镇。他对晓萍一见钟情,晓萍虽心有所属,但是,布莱德做的欧式面包,以及他浪漫温柔的举止,意外地搅乱晓萍和糕饼的生活。 在晓萍无心插柳的安排下,布莱德以房客的身分,...

  1. Video

  2. ID : 1

  3. Format : AVC

  4. Format/Info : Advanced Video Codec

  5. Format profile : [email protected]

  6. Format settings : CABAC / 5 Ref Frames

  7. Format settings, CABAC : Yes

  8. Format settings, Reference frames : 5 frames

  9. Codec ID : V_MPEG4/ISO/AVC

  10. Duration : 1 h 50 min

  11. Bit rate : 8 800 kb/s

  12. Width : 1 920 pixels

  13. Height : 816 pixels

  14. Display aspect ratio : 2.35:1

  15. Frame rate mode : Constant

  16. Frame rate : 24.000 FPS

  17. Color space : YUV

  18. Chroma subsampling : 4:2:0

  19. Bit depth : 8 bits

  20. Scan type : Progressive

  21. Bits/(Pixel*Frame) : 0.234

  22. Stream size : 6.65 GiB (91%)

  23. Title : The Soul of Bread 2012 1080p BluRay DD5.1 x264-TayTO

  24. Writing library : x264 core 130 r2273 b3065e6

  25. Encoding settings : cabac=1 / ref=5 / deblock=1:-3:-3 / analyse=0x3:0x113 / me=umh / subme=10 / psy=1 / psy_rd=1.00:0.00 / mixed_ref=1 / me_range=16 / chroma_me=1 / trellis=2 / 8x8dct=1 / cqm=0 / deadzone=21,11 / fast_pskip=0 / chroma_qp_offset=-2 / threads=12 / lookahead_threads=2 / sliced_threads=0 / nr=0 / decimate=0 / interlaced=0 / NTMzNTQ= / bluray_compat=0 / constrained_intra=0 / bframes=7 / b_pyramid=2 / b_adapt=2 / b_bias=0 / direct=3 / weightb=1 / open_gop=0 / weightp=2 / keyint=240 / keyint_min=24 / NTMzNTQ=uuDQuD2mJt9fsCf / scenecut=40 / intra_refresh=0 / rc=2pass / mbtree=0 / bitrate=8800 / ratetol=1.0 / qcomp=0.70 / qpmin=0 / qpmax=69 / qpstep=4 / cplxblur=20.0 / qblur=0.5 / NTMzNTQ=LmsMAP37EqsCpk / ip_ratio=1.40 / pb_ratio=1.30 / aq=1:0.90

  26. Language : Chinese

  27. Default : Yes

  28. Forced : No

  29. Color range : Limited

  30. Matrix coefficients : BT.709


  31. Audio

  32. ID : 2

  33. Format : AC-3

  34. Format/Info : Audio Coding 3

  35. Commercial name : Dolby Digital

  36. Format settings : Dolby Surround EX

  37. Codec ID : A_AC3

  38. Duration : 1 h 50 min

  39. Bit rate mode : Constant

  40. Bit rate : 640 kb/s

  41. Channel(s) : 6 channels

  42. Channel layout : L R C LFE Ls Rs

  43. Sampling rate : 48.0 kHz

  44. Frame rate : 31.250 FPS (1536 SPF)

  45. Compression mode : Lossy

  46. Stream size : 506 MiB (7%)

  47. Language : Chinese

  48. Service kind : Complete Main

  49. Default : Yes

  50. Forced : No


  51. Text

  52. ID : 3

  53. Format : UTF-8

  54. Codec ID : S_TEXT/UTF8

  55. Codec ID/Info : UTF-8 Plain Text

  56. Language : English

  57. Default : Yes

  58. Forced : No


  59. Menu

  60. 00:00:00.000 : en:00:00:00.000

  61. 00:06:13.042 : en:00:06:13.042

  62. 00:09:30.125 : en:00:09:30.125

  63. 00:14:03.958 : en:00:14:03.958

  64. 00:19:58.875 : en:00:19:58.875

  65. 00:25:01.625 : en:00:25:01.625

  66. 00:29:43.917 : en:00:29:43.917

  67. 00:34:03.833 : en:00:34:03.833

  68. 00:40:20.667 : en:00:40:20.667

  69. 00:48:12.667 : en:00:48:12.667

  70. 00:53:42.250 : en:00:53:42.250

  71. 00:59:43.083 : en:00:59:43.083

  72. 01:05:42.125 : en:01:05:42.125

  73. 01:09:58.458 : en:01:09:58.458

  74. 01:14:08.708 : en:01:14:08.708

  75. 01:19:50.500 : en:01:19:50.500

  76. 01:25:49.958 : en:01:25:49.958

  77. 01:30:42.500 : en:01:30:42.500

  78. 01:38:33.208 : en:01:38:33.208

  79. 01:42:11.833 : en:01:42:11.833

复制代码

爱的面包魂[国语音轨].The.Soul.of.Bread.2012.CHINESE.1080p.BluRay.x264.DD5.1 TayTO 7.29GB  港台电影  第3张 爱的面包魂[国语音轨].The.Soul.of.Bread.2012.CHINESE.1080p.BluRay.x264.DD5.1 TayTO 7.29GB  港台电影  第4张 爱的面包魂[国语音轨].The.Soul.of.Bread.2012.CHINESE.1080p.BluRay.x264.DD5.1 TayTO 7.29GB  港台电影  第5张



文件下载


除非特别注明,本文『爱的面包魂[国语音轨].The.Soul.of.Bread.2012.CHINESE.1080p.BluRay.x264.DD5.1-TayTO 7.29GB』来源于互联网机器人自动抓取,非本站原创。 浮游电影网不对本文拥有版权,如有侵犯,请联系邮箱:fuyouu#yandex.com[#换成@]投诉。我们会在15个工作日内删除。 但烦请转载时请标明出处:“本文转载于『浮游电影网』,原文地址:https://www.fuyouu.com/22197.html

评论吧骚年!

发表你的见解   

昵称*

E-mail*(建议输入,以便收到博主回复的提示邮件)

验证码*

您可以使用eMule或eMule Mod(Windows)、aMule(Win、Linux、Mac)等软件下载eD2k链接。。
eMule收藏集(.emulecollection)文件是您选中的所有链接的列表文件。eMule可以直接下载它们。
按住SHIFT键选择可以选中多个选择框。
可用文件名和大小选择器来选择文件。
文件名选择器帮您根据文件名称或后缀来选择文件。不分大小写。
符号使用:
和:空格( )、+
不包含:-
或:|
转义:一对英文引号("");
匹配开头:^
匹配结尾:$
例如:
选中所有名称中包含有“eMule”或“0.49c”字眼,但不包含有“exe”字眼的:emule|0.49c -exe
选中所有名称的开头是“eMule”,结尾是“0.49c”的:^emule 0.49c$
选中所有名称中带有“eMule 0.49c”的(必须是“eMule 0.49c”,中间没有别的字符,不能是“eMule fake 0.49c”),需要转义:"emule 0.49c"
大小选择器帮您根据文件大小选择文件。