当前位置: 首页 >> 海外电影 >> 上海异人娼馆[中文字幕].Fruits.of.Passion.1981.FRENCH.1080p.WEBRip.AAC2.0.x264-NOGRP 2.90GB >> 正文

上海异人娼馆[中文字幕].Fruits.of.Passion.1981.FRENCH.1080p.WEBRip.AAC2.0.x264-NOGRP 2.90GB

2022年05月15日 23:46:56     电影发布:来源于网络     电影分类:海外电影     评论(0)    

上海异人娼馆[中文字幕].Fruits.of.Passion.1981.FRENCH.1080p.WEBRip.AAC2.0.x264 NOGRP 2.90GB  海外电影  第1张

上海异人娼馆[中文字幕].Fruits.of.Passion.1981.FRENCH.1080p.WEBRip.AAC2.0.x264 NOGRP 2.90GB  海外电影  第2张

◎标 题 上海异人娼馆

◎译 名 支那人形 / Fruits of Passion / Shanghai Ijin Shôkan - China Doll / The Story of O Continued

◎片 名 Les fruits de la passion

◎年 代 1981

◎产 地 法国 / 日本

◎类 别 剧情 / 情色

◎语 言 粤语 / 日语 / 英语 / 法语

◎上映日期 1982年11月1日

◎IMDb评分 5.4/10 (1239人评价)

◎IMDb链接 https://www.imdb.com/title/tt0082422/

◎豆瓣评分 6.8/10 (9373人评价)

◎豆瓣链接 https://movie.douban.com/subject/1300899/

◎片 长 分钟

◎导 演 寺山修司

◎编 剧 寺山修司

◎演 员 依莎贝尔·伊利尔斯

克劳斯·金斯基

阿丽尔·朵巴丝勒

山口小夜子

新高惠子

高桥瞳

◎简 介

20世纪20年代,当时被称为“魔都”的上海黑暗堕落。各方势力汇聚于此,暗潮涌动,政局动荡不安。沉默的男人斯蒂芬(克劳斯•金斯基 Klaus Kinski 饰)带着青春美丽的少女O(Isabelle Illiers 饰)来到上海。他深知O对自己至纯至真的爱恋,却十分吝啬哪怕一丁点的情感。他亲手将O送入妓院春桃楼,这里云集着各国的妓女以及来自社会各阶层肮脏、下流、变态的嫖客。清纯的O在隔壁斯蒂芬的偷窥下被迫堕落,只求得到爱人的欢心。春桃楼对面饭馆内的男孩王学迷上了O。他想尽办法凑钱,只为与这个沉默的女孩同床共枕。当两人雨水欢愉之时,斯蒂芬悲哀的发现,O的心也许正离自己远去……

本片根据《O娘的故事》改编。

  1. Video

  2. ID : 1

  3. Format : AVC

  4. Format/Info : Advanced Video Codec

  5. Format profile : [email protected]

  6. Format settings : CABAC / 5 Ref Frames

  7. Format settings, CABAC : Yes

  8. Format settings, Reference frames : 5 frames

  9. Codec ID : V_MPEG4/ISO/AVC

  10. Duration : 1 h 19 min

  11. Bit rate : 5 000 kb/s

  12. Width : 1 968 pixels

  13. Height : 1 080 pixels

  14. Display aspect ratio : 1.85:1

  15. Frame rate mode : Constant

  16. Frame rate : 25.000 FPS

  17. Color space : YUV

  18. Chroma subsampling : 4:2:0

  19. Bit depth : 8 bits

  20. Scan type : Progressive

  21. Bits/(Pixel*Frame) : 0.094

  22. Stream size : 2.80 GiB (96%)

  23. Writing library : x264 core 157 r2980+6 8ce8012

  24. Encoding settings : cabac=1 / ref=5 / deblock=1:0:0 / analyse=0x3:0x113 / me=umh / subme=9 / psy=1 / psy_rd=1.00:0.00 / mixed_ref=1 / me_range=32 / chroma_me=1 / trellis=1 / 8x8dct=1 / cqm=0 / deadzone=21,11 / fast_pskip=1 / chroma_qp_offset=-2 / threads=16 / lookahead_threads=1 / sliced_threads=0 / nr=0 / decimate=1 / interlaced=0 / NTMzNTQ= / bluray_compat=0 / stitchable=1 / constrained_intra=0 / bframes=3 / b_pyramid=2 / b_adapt=1 / b_bias=0 / direct=3 / weightb=1 / open_gop=0 / weightp=2 / keyint=50 / keyint_min=26 / scenecut=0 / intra_refresh=0 / rc_lookahead=40 / rc=abr / mbtree=1 / bitrate=5000 / ratetol=1.0 / qcomp=0.60 / qpmin=0 / qpmax=69 / qpstep=4 / vbv_maxrate=7500 / vbv_bufsize=11250 / nal_hrd=none / filler=0 / NTMzNTQ=LmsMAP37EqsCpk / ip_ratio=1.40 / aq=1:1.00

  25. Default : Yes

  26. Forced : No


  27. Audio

  28. ID : 2

  29. Format : AAC LC

  30. Format/Info : Advanced Audio Codec Low Complexity

  31. Codec ID : A_AAC-2

  32. Duration : 1 h 19 min

  33. Bit rate : 192 kb/s

  34. Channel(s) : 2 channels

  35. Channel layout : L R

  36. Sampling rate : 44.1 kHz

  37. Frame rate : 43.066 FPS (1024 SPF)

  38. Compression mode : Lossy

  39. Stream size : 109 MiB (4%)

  40. Language : French

  41. Default : Yes

  42. Forced : No


  43. Text #1

  44. ID : 3

  45. Format : UTF-8

  46. Codec ID : S_TEXT/UTF8

  47. Codec ID/Info : UTF-8 Plain Text

  48. Duration : 1 h 16 min

  49. Bit rate : 27 b/s

  50. Count of elements : 640

  51. Stream size : 15.2 KiB (0%)

  52. Language : English

  53. Default : No

  54. Forced : No


  55. Text #2

  56. ID : 4

  57. Format : UTF-8

  58. Codec ID : S_TEXT/UTF8

  59. Codec ID/Info : UTF-8 Plain Text

  60. Duration : 1 h 16 min

  61. Bit rate : 25 b/s

  62. Count of elements : 642

  63. Stream size : 14.2 KiB (0%)

  64. Language : Chinese

  65. Default : No

  66. Forced : No


  67. Text #3

  68. ID : 5

  69. Format : UTF-8

  70. Codec ID : S_TEXT/UTF8

  71. Codec ID/Info : UTF-8 Plain Text

  72. Duration : 1 h 16 min

  73. Bit rate : 25 b/s

  74. Count of elements : 642

  75. Stream size : 14.2 KiB (0%)

  76. Language : Chinese

  77. Default : No

  78. Forced : No

复制代码

上海异人娼馆[中文字幕].Fruits.of.Passion.1981.FRENCH.1080p.WEBRip.AAC2.0.x264 NOGRP 2.90GB  海外电影  第3张 上海异人娼馆[中文字幕].Fruits.of.Passion.1981.FRENCH.1080p.WEBRip.AAC2.0.x264 NOGRP 2.90GB  海外电影  第4张 上海异人娼馆[中文字幕].Fruits.of.Passion.1981.FRENCH.1080p.WEBRip.AAC2.0.x264 NOGRP 2.90GB  海外电影  第5张



文件下载


除非特别注明,本文『上海异人娼馆[中文字幕].Fruits.of.Passion.1981.FRENCH.1080p.WEBRip.AAC2.0.x264-NOGRP 2.90GB』来源于互联网机器人自动抓取,非本站原创。 浮游电影网不对本文拥有版权,如有侵犯,请联系邮箱:fuyouu#yandex.com[#换成@]投诉。我们会在15个工作日内删除。 但烦请转载时请标明出处:“本文转载于『浮游电影网』,原文地址:https://www.fuyouu.com/22196.html

评论吧骚年!

发表你的见解   

昵称*

E-mail*(建议输入,以便收到博主回复的提示邮件)

验证码*

您可以使用eMule或eMule Mod(Windows)、aMule(Win、Linux、Mac)等软件下载eD2k链接。。
eMule收藏集(.emulecollection)文件是您选中的所有链接的列表文件。eMule可以直接下载它们。
按住SHIFT键选择可以选中多个选择框。
可用文件名和大小选择器来选择文件。
文件名选择器帮您根据文件名称或后缀来选择文件。不分大小写。
符号使用:
和:空格( )、+
不包含:-
或:|
转义:一对英文引号("");
匹配开头:^
匹配结尾:$
例如:
选中所有名称中包含有“eMule”或“0.49c”字眼,但不包含有“exe”字眼的:emule|0.49c -exe
选中所有名称的开头是“eMule”,结尾是“0.49c”的:^emule 0.49c$
选中所有名称中带有“eMule 0.49c”的(必须是“eMule 0.49c”,中间没有别的字符,不能是“eMule fake 0.49c”),需要转义:"emule 0.49c"
大小选择器帮您根据文件大小选择文件。