当前位置: 首页 >> 欧美电影 >> 捉鬼敢死队2[中文字幕].Ghostbusters.II.1989.REMASTERED.1080p.BluRay.REMUX.AVC.DTS-HD.MA.TrueHD.7.1.Atmos-FGT 3 >> 正文

捉鬼敢死队2[中文字幕].Ghostbusters.II.1989.REMASTERED.1080p.BluRay.REMUX.AVC.DTS-HD.MA.TrueHD.7.1.Atmos-FGT 3

2022年05月15日 23:44:56     电影发布:来源于网络     电影分类:欧美电影     评论(0)    

捉鬼敢死队2[中文字幕].Ghostbusters.II.1989.REMASTERED.1080p.BluRay.REMUX.AVC.DTS HD.MA.TrueHD.7.1.Atmos FGT 3  欧美电影  第1张

捉鬼敢死队2[中文字幕].Ghostbusters.II.1989.REMASTERED.1080p.BluRay.REMUX.AVC.DTS HD.MA.TrueHD.7.1.Atmos FGT 3  欧美电影  第2张

◎译 名 捉鬼敢死队2 / 魔鬼克星2(台)

◎片 名 Ghostbusters II

◎年 代 1989

◎产 地 美国

◎类 别 喜剧 / 科幻 / 奇幻

◎语 言 英语

◎上映日期 1989-06-19

◎IMDb链接 https://www.imdb.com/title/tt0097428/

◎豆瓣评分 6.6/10 (4261人评价)

◎豆瓣链接 https://movie.douban.com/subject/1297946/

◎片 长 108 分钟

◎导 演 伊万·雷特曼 Ivan Reitman (id:1041182)

◎编 剧 丹·艾克罗伊德 Dan Aykroyd (id:1010562)

哈罗德·雷米斯 Harold Ramis (id:1040554)

◎演 员 比尔·默瑞 Bill Murray (id:1054508)

丹·艾克罗伊德 Dan Aykroyd (id:1010562)

西格妮·韦弗 Sigourney Weaver (id:1053569)

哈罗德·雷米斯 Harold Ramis (id:1040554)

里克·莫拉尼斯 Rick Moranis (id:1002719)

乔治·P·威尔伯 George P. Wilbur (id:1300897)

佩姬·梁 Page Leong (id:1428912)

贾森·雷特曼 Jason Reitman (id:1027257)

凯文·杜恩 Kevin Dunn (id:1049634)

尤金·列维 Eugene Levy (id:1036438)

彼特·麦尼科 Peter MacNicol (id:1000169)

理查德·弗让吉 Richard Foronjy (id:1087428)

威赫姆·冯·霍姆伯格 Wilhelm von Homburg (id:1050101)

柯特·富勒 Kurt Fuller (id:1049882)

菲利普·贝克·霍尔 Philip Baker Hall (id:1049779)

马克斯·冯·叙多夫 Max von Sydow (id:1002675)

伊万·雷特曼 Ivan Reitman (id:1041182)

布赖恩·道尔 Brian Doyle (id:1041163)

安妮·波茨 Annie Potts (id:1041111)

埃涅·赫德森 Ernie Hudson (id:1036444)

珍妮特·玛戈林 Janet Margolin (id:1022930)

切奇·马林 Cheech Marin (id:1010603)

科洛·韦伯 Chloe Webb (id:1009474)

Robert Alan Beuth Robert Alan Beuth (id:1063131)

鲍比·布朗 Bobby Brown (id:1075814)

Walter Flanagan Walter Flanagan (id:1081258)

哈里斯·于林 Harris Yulin (id:1160840)

玛丽·艾伦·特雷纳 Mary Ellen Trainor (id:1156743)

本·斯坦 Ben Stein (id:1150280)

路易丝·特洛伊 Louise Troy (id:1150029)

Kariim Ratcliff Kariim Ratcliff (id:1147691)

Douglas Seale Douglas Seale (id:1142403)

凯瑟琳·瑞特曼 Catherine Reitman (id:1141369)

克里斯托弗·尼姆 Christopher Neame (id:1136388)

迈克尔·P·莫兰 Michael P. Moran (id:1132281)

大卫·马古利斯 David Margulies (id:1125418)

阿隆·鲁斯汀 Aaron Lustig (id:1116537)

John Hammil John Hammil (id:1101362)

George G. Colucci George G. Colucci (id:1097539)

戴夫·弗洛雷克 Dave Florek (id:1086691)

Michael C. Gross Michael C. Gross (id:1285528)

戈登·A·韦伯 Gordon A. Webb (id:1038376)

谢尔顿·卡恩 Sheldon Kahn (id:1288017)

乔伊·麦迪贾克 Joe Medjuck (id:1005607)

Bernie Brillstein Bernie Brillstein (id:1045614)

伊万·雷特曼 Ivan Reitman (id:1041182)

兰迪·艾德尔曼 Randy Edelman (id:1019213)

迈克尔·查普曼 Michael Chapman (id:1075517)

唐·坎伯恩 Donn Cambern (id:1029126)

谢尔顿·卡恩 Sheldon Kahn (id:1288017)

博·维尔奇 Bo Welch (id:1036907)

谢丽尔·卡拉西克 Cheryl Carasik (id:1280048)

Tom Duffield Tom Duffield (id:1282784)

格洛里亚·格雷斯汉 Gloria Gresham (id:1285438)

Stephen Abrums Stephen Abrums (id:1276769)

Mark Alfrey Mark Alfrey (id:1209764)

迈克尔·R·托马斯 Michael R. Thomas (id:1160022)

Marlene D. Williams Marlene D. Williams (id:1300979)

小约翰·M·艾略特 John M. Elliott Jr. (id:1283124)

迈克尔·D·穆尔 Michael D. Moore (id:1028085)

Sue Fellows Sue Fellows (id:1283553)

Drew Ann Rosenberg Drew Ann Rosenberg (id:1296066)

Annette Sutera Annette Sutera (id:1298672)

Ned Gorman Ned Gorman (id:1285204)

格兰特·麦丘恩 Grant McCune (id:1291510)

George Muhs George Muhs (id:1127284)

Mark S. Miller Mark S. Miller (id:1292098)

Patrick T. Myers Patrick T. Myers (id:1292827)

Benton Jew Benton Jew (id:1106450)

Sam Nicholson Sam Nicholson (id:1293152)

洛尔恩·彼得森 Lorne Peterson (id:1294386)

Martin Rosenberg Martin Rosenberg (id:1296082)

托马斯·罗塞特 Thomas Rosseter (id:1296146)

肯尼斯·史密斯 Kenneth Smith (id:1297900)

唐·比斯 Don Bies (id:1061497)

戴夫·埃伦 Dave Allen (id:1058356)

彼得·库兰 Peter Kuran (id:1289126)

布拉德·库恩 Brad Kuehn (id:1289086)

布莱恩·格南德 Brian Gernand (id:1284742)

比尔·乔治 Bill George (id:1284713)

托马斯·弗洛茨 Thomas Floutz (id:1283888)

帕米拉·伊斯利 Pamela Easley (id:1282940)

David Drzewiecki David Drzewiecki (id:1282739)

莱斯·伯恩斯汀 Les Bernstien (id:1278498)

戈登·贝克尔 Gordon Baker (id:1277729)

乔恩·亚历山大 Jon Alexander (id:1276987)

爱德华·赫希 Edward Hirsh (id:1286690)

保罗·哈特森 Paul Huston (id:1287204)

哈雷·杰斯普 Harley Jessup (id:1287721)

Carolyn Ensle Rendu Carolyn Ensle Rendu (id:1144333)

皮特·科扎齐克 Pete Kozachik (id:1288949)

迈克·史密斯森 Mike Smithson (id:1297961)

布鲁斯·沃尔特斯 Bruce Walters (id:1300370)

马克·萨利文 Mark Sullivan (id:1298630)

丹尼斯·穆伦 Dennis Muren (id:1041635)

斯科特·罗斯 Scott Ross (id:1042184)

上杉佑子 Yusei Uesugi (id:1299710)

汤姆·柏提诺 Tom Bertino (id:1278530)

马克·瓦尔戈 Mark Vargo (id:1045732)

Pat Sweeney Pat Sweeney (id:1298721)

Michael Gleason Michael Gleason (id:1013136)

马克·西格尔 Mark Siegel (id:1024269)

◎简 介

捉鬼敢死队员们又一次拿起武器在曼哈顿与恶魔决斗,在纽约城一场小战争后,敢死队发现一个千年恶魔准备重返地球并对曼哈顿不怀好意,而且通过他的王国---曼哈顿艺术博物馆进行破坏行动,现在只有捉鬼敢死队为了拯救纽约城与恶魔决斗一场……

  1. Video

  2. ID : 1

  3. ID in the original source medium : 4113 (0x1011)

  4. Format : AVC

  5. Format/Info : Advanced Video Codec

  6. Format profile : [email protected]

  7. Format settings : CABAC / 2 Ref Frames

  8. Format settings, CABAC : Yes

  9. Format settings, Reference frames : 2 frames

  10. Codec ID : V_MPEG4/ISO/AVC

  11. Duration : 1 h 48 min

  12. Bit rate mode : Variable

  13. Bit rate : 27.9 Mb/s

  14. Width : 1 920 pixels

  15. Height : 1 080 pixels

  16. Display aspect ratio : 16:9

  17. Frame rate mode : Constant

  18. Frame rate : 23.976 (24000/1001/53354) FPS

  19. Color space : YUV

  20. Chroma subsampling : 4:2:0

  21. Bit depth : 8 bits

  22. Scan type : Progressive

  23. Bits/(Pixel*Frame) : 0.562

  24. Stream size : 21.1 GiB (59%)

  25. Language : English

  26. Default : No

  27. Forced : No

  28. Original source medium : Blu-ray


  29. Audio #1

  30. ID : 2

  31. ID in the original source medium : 4352 (0x1100)

  32. Format : MLP FBA 16-ch

  33. Format/Info : Meridian Lossless Packing FBA with 16-channel presentation

  34. Commercial name : Dolby TrueHD with Dolby Atmos

  35. Codec ID : A_TRUEHD

  36. Duration : 1 h 48 min

  37. Bit rate mode : Variable

  38. Bit rate : 4 429 kb/s

  39. Maximum bit rate : 7 485 kb/s

  40. Channel(s) : 8 channels

  41. Channel layout : L R C LFE Ls Rs Lb Rb

  42. Sampling rate : 48.0 kHz

  43. Frame rate : 1 200.000 FPS (40 SPF)

  44. Bit depth : 24 bits

  45. Compression mode : Lossless

  46. Stream size : 3.35 GiB (9%)

  47. Title : TrueHD 7.1 Atmos

  48. Language : English

  49. Default : Yes

  50. Forced : No

  51. Original source medium : Blu-ray

  52. Number of dynamic objects : 11

  53. Bed channel count : 1 channel

  54. Bed channel configuration : LFE


  55. Audio #2

  56. ID : 3

  57. Format : DTS XLL

  58. Format/Info : Digital Theater Systems

  59. Commercial name : DTS-HD Master Audio

  60. Codec ID : A_DTS

  61. Duration : 1 h 48 min

  62. Bit rate mode : Variable

  63. Bit rate : 4 224 kb/s

  64. Channel(s) : 8 channels

  65. Channel layout : C L R LFE Lb Rb Lss Rss

  66. Sampling rate : 48.0 kHz

  67. Frame rate : 93.750 FPS (512 SPF)

  68. Bit depth : 24 bits

  69. Compression mode : Lossless

  70. Stream size : 3.20 GiB (9%)

  71. Title : DTS-HD MA 7.1

  72. Language : English

  73. Default : No

  74. Forced : No


  75. Audio #3

  76. ID : 4

  77. ID in the original source medium : 4352 (0x1100)

  78. Format : AC-3

  79. Format/Info : Audio Coding 3

  80. Commercial name : Dolby Digital

  81. Codec ID : A_AC3

  82. Duration : 1 h 48 min

  83. Bit rate mode : Constant

  84. Bit rate : 640 kb/s

  85. Channel(s) : 6 channels

  86. Channel layout : L R C LFE Ls Rs

  87. Sampling rate : 48.0 kHz

  88. Frame rate : 31.250 FPS (1536 SPF)

  89. Compression mode : Lossy

  90. Stream size : 496 MiB (1%)

  91. Title : DD 5.1

  92. Language : English

  93. Service kind : Complete Main

  94. Default : No

  95. Forced : No

  96. Original source medium : Blu-ray


  97. Audio #4

  98. ID : 5

  99. ID in the original source medium : 4352 (0x1100)

  100. Format : DTS XLL

  101. Format/Info : Digital Theater Systems

  102. Commercial name : DTS-HD Master Audio

  103. Codec ID : A_DTS

  104. Duration : 1 h 48 min

  105. Bit rate mode : Variable

  106. Bit rate : 3 895 kb/s

  107. Channel(s) : 6 channels

  108. Channel layout : C L R Ls Rs LFE

  109. Sampling rate : 48.0 kHz

  110. Frame rate : 93.750 FPS (512 SPF)

  111. Bit depth : 24 bits

  112. Compression mode : Lossless

  113. Stream size : 2.95 GiB (8%)

  114. Title : DTS-HD MA 2.0

  115. Language : English

  116. Default : No

  117. Forced : No

  118. Original source medium : Blu-ray


  119. Audio #5

  120. ID : 6

  121. ID in the original source medium : 4355 (0x1103)

  122. Format : DTS XLL

  123. Format/Info : Digital Theater Systems

  124. Commercial name : DTS-HD Master Audio

  125. Codec ID : A_DTS

  126. Duration : 1 h 48 min

  127. Bit rate mode : Variable

  128. Bit rate : 2 188 kb/s

  129. Channel(s) : 6 channels

  130. Channel layout : C L R Ls Rs LFE

  131. Sampling rate : 48.0 kHz

  132. Frame rate : 93.750 FPS (512 SPF)

  133. Bit depth : 16 bits

  134. Compression mode : Lossless

  135. Stream size : 1.66 GiB (5%)

  136. Title : DTS-HD MA 5.1

  137. Language : French

  138. Default : No

  139. Forced : No

  140. Original source medium : Blu-ray


  141. Audio #6

  142. ID : 7

  143. ID in the original source medium : 4353 (0x1101)

  144. Format : AC-3

  145. Format/Info : Audio Coding 3

  146. Commercial name : Dolby Digital

  147. Codec ID : A_AC3

  148. Duration : 1 h 48 min

  149. Bit rate mode : Constant

  150. Bit rate : 640 kb/s

  151. Channel(s) : 6 channels

  152. Channel layout : L R C LFE Ls Rs

  153. Sampling rate : 48.0 kHz

  154. Frame rate : 31.250 FPS (1536 SPF)

  155. Compression mode : Lossy

  156. Stream size : 496 MiB (1%)

  157. Title : DD 2.0

  158. Language : French

  159. Service kind : Complete Main

  160. Default : No

  161. Forced : No

  162. Original source medium : Blu-ray


  163. Audio #7

  164. ID : 8

  165. ID in the original source medium : 4354 (0x1102)

  166. Format : AC-3

  167. Format/Info : Audio Coding 3

  168. Commercial name : Dolby Digital

  169. Format settings : Dolby Surround

  170. Codec ID : A_AC3

  171. Duration : 1 h 48 min

  172. Bit rate mode : Constant

  173. Bit rate : 192 kb/s

  174. Channel(s) : 2 channels

  175. Channel layout : L R

  176. Sampling rate : 48.0 kHz

  177. Frame rate : 31.250 FPS (1536 SPF)

  178. Compression mode : Lossy

  179. Stream size : 149 MiB (0%)

  180. Title : DD 2.0

  181. Language : German

  182. Service kind : Complete Main

  183. Default : No

  184. Forced : No

  185. Original source medium : Blu-ray


  186. Audio #8

  187. ID : 9

  188. ID in the original source medium : 4355 (0x1103)

  189. Format : AC-3

  190. Format/Info : Audio Coding 3

  191. Commercial name : Dolby Digital

  192. Codec ID : A_AC3

  193. Duration : 1 h 48 min

  194. Bit rate mode : Constant

  195. Bit rate : 192 kb/s

  196. Channel(s) : 2 channels

  197. Channel layout : L R

  198. Sampling rate : 48.0 kHz

  199. Frame rate : 31.250 FPS (1536 SPF)

  200. Compression mode : Lossy

  201. Stream size : 149 MiB (0%)

  202. Title : DD 2.0

  203. Language : Italian

  204. Service kind : Complete Main

  205. Default : No

  206. Forced : No

  207. Original source medium : Blu-ray


  208. Audio #9

  209. ID : 10

  210. ID in the original source medium : 4356 (0x1104)

  211. Format : AC-3

  212. Format/Info : Audio Coding 3

  213. Commercial name : Dolby Digital

  214. Format settings : Dolby Surround

  215. Codec ID : A_AC3

  216. Duration : 1 h 48 min

  217. Bit rate mode : Constant

  218. Bit rate : 192 kb/s

  219. Channel(s) : 2 channels

  220. Channel layout : L R

  221. Sampling rate : 48.0 kHz

  222. Frame rate : 31.250 FPS (1536 SPF)

  223. Compression mode : Lossy

  224. Stream size : 149 MiB (0%)

  225. Title : DD 2.0

  226. Language : Japanese

  227. Service kind : Complete Main

  228. Default : No

  229. Forced : No

  230. Original source medium : Blu-ray


  231. Audio #10

  232. ID : 11

  233. ID in the original source medium : 4357 (0x1105)

  234. Format : AC-3

  235. Format/Info : Audio Coding 3

  236. Commercial name : Dolby Digital

  237. Codec ID : A_AC3

  238. Duration : 1 h 48 min

  239. Bit rate mode : Constant

  240. Bit rate : 192 kb/s

  241. Channel(s) : 2 channels

  242. Channel layout : L R

  243. Sampling rate : 48.0 kHz

  244. Frame rate : 31.250 FPS (1536 SPF)

  245. Compression mode : Lossy

  246. Stream size : 149 MiB (0%)

  247. Title : DD 2.0

  248. Language : Portuguese

  249. Service kind : Complete Main

  250. Default : No

  251. Forced : No

  252. Original source medium : Blu-ray


  253. Audio #11

  254. ID : 12

  255. ID in the original source medium : 4358 (0x1106)

  256. Format : AC-3

  257. Format/Info : Audio Coding 3

  258. Commercial name : Dolby Digital

  259. Codec ID : A_AC3

  260. Duration : 1 h 48 min

  261. Bit rate mode : Constant

  262. Bit rate : 640 kb/s

  263. Channel(s) : 6 channels

  264. Channel layout : L R C LFE Ls Rs

  265. Sampling rate : 48.0 kHz

  266. Frame rate : 31.250 FPS (1536 SPF)

  267. Compression mode : Lossy

  268. Stream size : 496 MiB (1%)

  269. Title : DD 5.1

  270. Language : Russian

  271. Service kind : Complete Main

  272. Default : No

  273. Forced : No

  274. Original source medium : Blu-ray


  275. Audio #12

  276. ID : 13

  277. ID in the original source medium : 4359 (0x1107)

  278. Format : AC-3

  279. Format/Info : Audio Coding 3

  280. Commercial name : Dolby Digital

  281. Format settings : Dolby Surround

  282. Codec ID : A_AC3

  283. Duration : 1 h 48 min

  284. Bit rate mode : Constant

  285. Bit rate : 192 kb/s

  286. Channel(s) : 2 channels

  287. Channel layout : L R

  288. Sampling rate : 48.0 kHz

  289. Frame rate : 31.250 FPS (1536 SPF)

  290. Compression mode : Lossy

  291. Stream size : 149 MiB (0%)

  292. Title : DD 2.0

  293. Language : Spanish

  294. Service kind : Complete Main

  295. Default : No

  296. Forced : No

  297. Original source medium : Blu-ray


  298. Audio #13

  299. ID : 14

  300. ID in the original source medium : 4360 (0x1108)

  301. Format : AC-3

  302. Format/Info : Audio Coding 3

  303. Commercial name : Dolby Digital

  304. Format settings : Dolby Surround

  305. Codec ID : A_AC3

  306. Duration : 1 h 48 min

  307. Bit rate mode : Constant

  308. Bit rate : 192 kb/s

  309. Channel(s) : 2 channels

  310. Channel layout : L R

  311. Sampling rate : 48.0 kHz

  312. Frame rate : 31.250 FPS (1536 SPF)

  313. Compression mode : Lossy

  314. Stream size : 149 MiB (0%)

  315. Title : DD 2.0

  316. Language : Spanish

  317. Service kind : Complete Main

  318. Default : No

  319. Forced : No

  320. Original source medium : Blu-ray


  321. Audio #14

  322. ID : 15

  323. ID in the original source medium : 4361 (0x1109)

  324. Format : AC-3

  325. Format/Info : Audio Coding 3

  326. Commercial name : Dolby Digital

  327. Codec ID : A_AC3

  328. Duration : 1 h 48 min

  329. Bit rate mode : Constant

  330. Bit rate : 640 kb/s

  331. Channel(s) : 6 channels

  332. Channel layout : L R C LFE Ls Rs

  333. Sampling rate : 48.0 kHz

  334. Frame rate : 31.250 FPS (1536 SPF)

  335. Compression mode : Lossy

  336. Stream size : 496 MiB (1%)

  337. Title : DD 5.1

  338. Language : Thai

  339. Service kind : Complete Main

  340. Default : No

  341. Forced : No

  342. Original source medium : Blu-ray


  343. Audio #15

  344. ID : 16

  345. ID in the original source medium : 4357 (0x1105)

  346. Format : AC-3

  347. Format/Info : Audio Coding 3

  348. Commercial name : Dolby Digital

  349. Format settings : Dolby Surround

  350. Codec ID : A_AC3

  351. Duration : 1 h 48 min

  352. Bit rate mode : Constant

  353. Bit rate : 192 kb/s

  354. Channel(s) : 2 channels

  355. Channel layout : L R

  356. Sampling rate : 48.0 kHz

  357. Frame rate : 31.250 FPS (1536 SPF)

  358. Compression mode : Lossy

  359. Stream size : 149 MiB (0%)

  360. Title : DD 2.0

  361. Language : Hungarian

  362. Service kind : Complete Main

  363. Default : No

  364. Forced : No

  365. Original source medium : Blu-ray


  366. Text #1

  367. ID : 17

  368. Format : UTF-8

  369. Codec ID : S_TEXT/UTF8

  370. Codec ID/Info : UTF-8 Plain Text

  371. Duration : 1 h 45 min

  372. Bit rate : 78 b/s

  373. Count of elements : 1550

  374. Stream size : 60.7 KiB (0%)

  375. Language : English

  376. Default : Yes

  377. Forced : No


  378. Text #2

  379. ID : 18

  380. Format : UTF-8

  381. Codec ID : S_TEXT/UTF8

  382. Codec ID/Info : UTF-8 Plain Text

  383. Duration : 1 h 46 min

  384. Bit rate : 81 b/s

  385. Count of elements : 1728

  386. Stream size : 62.9 KiB (0%)

  387. Title : SDH

  388. Language : English

  389. Default : No

  390. Forced : No


  391. Text #3

  392. ID : 19

  393. ID in the original source medium : 4768 (0x12A0)

  394. Format : PGS

  395. Muxing mode : zlib

  396. Codec ID : S_HDMV/PGS

  397. Codec ID/Info : Picture based subtitle format used on BDs/HD-DVDs

  398. Duration : 1 h 46 min

  399. Bit rate : 47.1 kb/s

  400. Count of elements : 3573

  401. Stream size : 35.7 MiB (0%)

  402. Language : English

  403. Default : No

  404. Forced : No

  405. Original source medium : Blu-ray


  406. Text #4

  407. ID : 20

  408. ID in the original source medium : 4769 (0x12A1)

  409. Format : PGS

  410. Muxing mode : zlib

  411. Codec ID : S_HDMV/PGS

  412. Codec ID/Info : Picture based subtitle format used on BDs/HD-DVDs

  413. Duration : 1 h 39 min

  414. Bit rate : 41.3 kb/s

  415. Count of elements : 2845

  416. Stream size : 29.3 MiB (0%)

  417. Language : English

  418. Default : No

  419. Forced : No

  420. Original source medium : Blu-ray


  421. Text #5

  422. ID : 21

  423. ID in the original source medium : 4770 (0x12A2)

  424. Format : PGS

  425. Muxing mode : zlib

  426. Codec ID : S_HDMV/PGS

  427. Codec ID/Info : Picture based subtitle format used on BDs/HD-DVDs

  428. Duration : 1 h 46 min

  429. Bit rate : 47.1 kb/s

  430. Count of elements : 3593

  431. Stream size : 35.7 MiB (0%)

  432. Language : English

  433. Default : No

  434. Forced : No

  435. Original source medium : Blu-ray


  436. Text #6

  437. ID : 22

  438. ID in the original source medium : 4771 (0x12A3)

  439. Format : PGS

  440. Muxing mode : zlib

  441. Codec ID : S_HDMV/PGS

  442. Codec ID/Info : Picture based subtitle format used on BDs/HD-DVDs

  443. Duration : 1 h 38 min

  444. Bit rate : 41.2 kb/s

  445. Count of elements : 2817

  446. Stream size : 29.1 MiB (0%)

  447. Language : English

  448. Default : No

  449. Forced : No

  450. Original source medium : Blu-ray


  451. Text #7

  452. ID : 23

  453. ID in the original source medium : 4772 (0x12A4)

  454. Format : PGS

  455. Muxing mode : zlib

  456. Codec ID : S_HDMV/PGS

  457. Codec ID/Info : Picture based subtitle format used on BDs/HD-DVDs

  458. Duration : 1 h 39 min

  459. Bit rate : 20.3 kb/s

  460. Count of elements : 2843

  461. Stream size : 14.4 MiB (0%)

  462. Language : Arabic

  463. Default : No

  464. Forced : No

  465. Original source medium : Blu-ray


  466. Text #8

  467. ID : 24

  468. ID in the original source medium : 4773 (0x12A5)

  469. Format : PGS

  470. Muxing mode : zlib

  471. Codec ID : S_HDMV/PGS

  472. Codec ID/Info : Picture based subtitle format used on BDs/HD-DVDs

  473. Duration : 1 h 48 min

  474. Bit rate : 35.9 kb/s

  475. Count of elements : 2843

  476. Stream size : 27.8 MiB (0%)

  477. Language : Chinese

  478. Default : No

  479. Forced : No

  480. Original source medium : Blu-ray


  481. Text #9

  482. ID : 25

  483. ID in the original source medium : 4774 (0x12A6)

  484. Format : PGS

  485. Muxing mode : zlib

  486. Codec ID : S_HDMV/PGS

  487. Codec ID/Info : Picture based subtitle format used on BDs/HD-DVDs

  488. Duration : 1 h 39 min

  489. Bit rate : 28.6 kb/s

  490. Count of elements : 2843

  491. Stream size : 20.3 MiB (0%)

  492. Language : Chinese

  493. Default : No

  494. Forced : No

  495. Original source medium : Blu-ray


  496. Text #10

  497. ID : 26

  498. ID in the original source medium : 4775 (0x12A7)

  499. Format : PGS

  500. Muxing mode : zlib

  501. Codec ID : S_HDMV/PGS

  502. Codec ID/Info : Picture based subtitle format used on BDs/HD-DVDs

  503. Duration : 1 h 39 min

  504. Bit rate : 32.3 kb/s

  505. Count of elements : 2835

  506. Stream size : 23.0 MiB (0%)

  507. Language : Croatian

  508. Default : No

  509. Forced : No

  510. Original source medium : Blu-ray


  511. Text #11

  512. ID : 27

  513. ID in the original source medium : 4776 (0x12A8)

  514. Format : PGS

  515. Muxing mode : zlib

  516. Codec ID : S_HDMV/PGS

  517. Codec ID/Info : Picture based subtitle format used on BDs/HD-DVDs

  518. Duration : 1 h 39 min

  519. Bit rate : 28.8 kb/s

  520. Count of elements : 2769

  521. Stream size : 20.5 MiB (0%)

  522. Language : Czech

  523. Default : No

  524. Forced : No

  525. Original source medium : Blu-ray


  526. Text #12

  527. ID : 28

  528. ID in the original source medium : 4777 (0x12A9)

  529. Format : PGS

  530. Muxing mode : zlib

  531. Codec ID : S_HDMV/PGS

  532. Codec ID/Info : Picture based subtitle format used on BDs/HD-DVDs

  533. Duration : 1 h 39 min

  534. Bit rate : 27.0 kb/s

  535. Count of elements : 1642

  536. Stream size : 19.2 MiB (0%)

  537. Language : Danish

  538. Default : No

  539. Forced : No

  540. Original source medium : Blu-ray


  541. Text #13

  542. ID : 29

  543. ID in the original source medium : 4778 (0x12AA)

  544. Format : PGS

  545. Muxing mode : zlib

  546. Codec ID : S_HDMV/PGS

  547. Codec ID/Info : Picture based subtitle format used on BDs/HD-DVDs

  548. Duration : 1 h 48 min

  549. Bit rate : 25.8 kb/s

  550. Count of elements : 1646

  551. Stream size : 20.0 MiB (0%)

  552. Language : Dutch

  553. Default : No

  554. Forced : No

  555. Original source medium : Blu-ray


  556. Text #14

  557. ID : 30

  558. ID in the original source medium : 4779 (0x12AB)

  559. Format : PGS

  560. Muxing mode : zlib

  561. Codec ID : S_HDMV/PGS

  562. Codec ID/Info : Picture based subtitle format used on BDs/HD-DVDs

  563. Duration : 1 h 39 min

  564. Bit rate : 27.7 kb/s

  565. Count of elements : 1755

  566. Stream size : 19.7 MiB (0%)

  567. Language : Finnish

  568. Default : No

  569. Forced : No

  570. Original source medium : Blu-ray


  571. Text #15

  572. ID : 31

  573. ID in the original source medium : 4780 (0x12AC)

  574. Format : PGS

  575. Muxing mode : zlib

  576. Codec ID : S_HDMV/PGS

  577. Codec ID/Info : Picture based subtitle format used on BDs/HD-DVDs

  578. Duration : 1 h 48 min

  579. Bit rate : 27.4 kb/s

  580. Count of elements : 2258

  581. Stream size : 21.2 MiB (0%)

  582. Language : French

  583. Default : No

  584. Forced : No

  585. Original source medium : Blu-ray


  586. Text #16

  587. ID : 32

  588. ID in the original source medium : 4781 (0x12AD)

  589. Format : PGS

  590. Muxing mode : zlib

  591. Codec ID : S_HDMV/PGS

  592. Codec ID/Info : Picture based subtitle format used on BDs/HD-DVDs

  593. Duration : 1 h 39 min

  594. Bit rate : 35.5 kb/s

  595. Count of elements : 2408

  596. Stream size : 25.2 MiB (0%)

  597. Language : German

  598. Default : No

  599. Forced : No

  600. Original source medium : Blu-ray


  601. Text #17

  602. ID : 33

  603. ID in the original source medium : 4782 (0x12AE)

  604. Format : PGS

  605. Muxing mode : zlib

  606. Codec ID : S_HDMV/PGS

  607. Codec ID/Info : Picture based subtitle format used on BDs/HD-DVDs

  608. Duration : 1 h 39 min

  609. Bit rate : 29.9 kb/s

  610. Count of elements : 2653

  611. Stream size : 21.3 MiB (0%)

  612. Language : Greek

  613. Default : No

  614. Forced : No

  615. Original source medium : Blu-ray


  616. Text #18

  617. ID : 34

  618. ID in the original source medium : 4783 (0x12AF)

  619. Format : PGS

  620. Muxing mode : zlib

  621. Codec ID : S_HDMV/PGS

  622. Codec ID/Info : Picture based subtitle format used on BDs/HD-DVDs

  623. Duration : 1 h 39 min

  624. Bit rate : 31.9 kb/s

  625. Count of elements : 2833

  626. Stream size : 22.6 MiB (0%)

  627. Language : Hungarian

  628. Default : No

  629. Forced : No

  630. Original source medium : Blu-ray


  631. Text #19

  632. ID : 35

  633. ID in the original source medium : 4784 (0x12B0)

  634. Format : PGS

  635. Muxing mode : zlib

  636. Codec ID : S_HDMV/PGS

  637. Codec ID/Info : Picture based subtitle format used on BDs/HD-DVDs

  638. Duration : 1 h 39 min

  639. Bit rate : 29.7 kb/s

  640. Count of elements : 1790

  641. Stream size : 21.1 MiB (0%)

  642. Language : Icelandic

  643. Default : No

  644. Forced : No

  645. Original source medium : Blu-ray


  646. Text #20

  647. ID : 36

  648. ID in the original source medium : 4785 (0x12B1)

  649. Format : PGS

  650. Muxing mode : zlib

  651. Codec ID : S_HDMV/PGS

  652. Codec ID/Info : Picture based subtitle format used on BDs/HD-DVDs

  653. Duration : 1 h 39 min

  654. Bit rate : 36.5 kb/s

  655. Count of elements : 2841

  656. Stream size : 26.0 MiB (0%)

  657. Language : Italian

  658. Default : No

  659. Forced : No

  660. Original source medium : Blu-ray


  661. Text #21

  662. ID : 37

  663. ID in the original source medium : 4786 (0x12B2)

  664. Format : PGS

  665. Muxing mode : zlib

  666. Codec ID : S_HDMV/PGS

  667. Codec ID/Info : Picture based subtitle format used on BDs/HD-DVDs

  668. Duration : 1 h 39 min

  669. Bit rate : 26.2 kb/s

  670. Count of elements : 2486

  671. Stream size : 18.6 MiB (0%)

  672. Language : Japanese

  673. Default : No

  674. Forced : No

  675. Original source medium : Blu-ray


  676. Text #22

  677. ID : 38

  678. ID in the original source medium : 4787 (0x12B3)

  679. Format : PGS

  680. Muxing mode : zlib

  681. Codec ID : S_HDMV/PGS

  682. Codec ID/Info : Picture based subtitle format used on BDs/HD-DVDs

  683. Duration : 1 h 39 min

  684. Bit rate : 24.0 kb/s

  685. Count of elements : 1646

  686. Stream size : 17.0 MiB (0%)

  687. Language : Korean

  688. Default : No

  689. Forced : No

  690. Original source medium : Blu-ray


  691. Text #23

  692. ID : 39

  693. ID in the original source medium : 4788 (0x12B4)

  694. Format : PGS

  695. Muxing mode : zlib

  696. Codec ID : S_HDMV/PGS

  697. Codec ID/Info : Picture based subtitle format used on BDs/HD-DVDs

  698. Duration : 1 h 39 min

  699. Bit rate : 27.1 kb/s

  700. Count of elements : 1648

  701. Stream size : 19.2 MiB (0%)

  702. Language : Norwegian

  703. Default : No

  704. Forced : No

  705. Original source medium : Blu-ray


  706. Text #24

  707. ID : 40

  708. ID in the original source medium : 4789 (0x12B5)

  709. Format : PGS

  710. Muxing mode : zlib

  711. Codec ID : S_HDMV/PGS

  712. Codec ID/Info : Picture based subtitle format used on BDs/HD-DVDs

  713. Duration : 1 h 39 min

  714. Bit rate : 36.9 kb/s

  715. Count of elements : 2839

  716. Stream size : 26.2 MiB (0%)

  717. Language : Polish

  718. Default : No

  719. Forced : No

  720. Original source medium : Blu-ray


  721. Text #25

  722. ID : 41

  723. ID in the original source medium : 4790 (0x12B6)

  724. Format : PGS

  725. Muxing mode : zlib

  726. Codec ID : S_HDMV/PGS

  727. Codec ID/Info : Picture based subtitle format used on BDs/HD-DVDs

  728. Duration : 1 h 47 min

  729. Bit rate : 30.5 kb/s

  730. Count of elements : 2048

  731. Stream size : 23.5 MiB (0%)

  732. Language : Portuguese

  733. Default : No

  734. Forced : No

  735. Original source medium : Blu-ray


  736. Text #26

  737. ID : 42

  738. ID in the original source medium : 4791 (0x12B7)

  739. Format : PGS

  740. Muxing mode : zlib

  741. Codec ID : S_HDMV/PGS

  742. Codec ID/Info : Picture based subtitle format used on BDs/HD-DVDs

  743. Duration : 1 h 48 min

  744. Bit rate : 34.0 kb/s

  745. Count of elements : 2839

  746. Stream size : 26.3 MiB (0%)

  747. Language : Romanian

  748. Default : No

  749. Forced : No

  750. Original source medium : Blu-ray


  751. Text #27

  752. ID : 43

  753. ID in the original source medium : 4792 (0x12B8)

  754. Format : PGS

  755. Muxing mode : zlib

  756. Codec ID : S_HDMV/PGS

  757. Codec ID/Info : Picture based subtitle format used on BDs/HD-DVDs

  758. Duration : 1 h 39 min

  759. Bit rate : 26.9 kb/s

  760. Count of elements : 1708

  761. Stream size : 19.1 MiB (0%)

  762. Language : Russian

  763. Default : No

  764. Forced : No

  765. Original source medium : Blu-ray


  766. Text #28

  767. ID : 44

  768. ID in the original source medium : 4793 (0x12B9)

  769. Format : PGS

  770. Muxing mode : zlib

  771. Codec ID : S_HDMV/PGS

  772. Codec ID/Info : Picture based subtitle format used on BDs/HD-DVDs

  773. Duration : 1 h 48 min

  774. Bit rate : 30.8 kb/s

  775. Count of elements : 2840

  776. Stream size : 23.8 MiB (0%)

  777. Language : Slovak

  778. Default : No

  779. Forced : No

  780. Original source medium : Blu-ray


  781. Text #29

  782. ID : 45

  783. ID in the original source medium : 4794 (0x12BA)

  784. Format : PGS

  785. Muxing mode : zlib

  786. Codec ID : S_HDMV/PGS

  787. Codec ID/Info : Picture based subtitle format used on BDs/HD-DVDs

  788. Duration : 1 h 39 min

  789. Bit rate : 31.3 kb/s

  790. Count of elements : 1901

  791. Stream size : 22.2 MiB (0%)

  792. Language : Spanish

  793. Default : No

  794. Forced : No

  795. Original source medium : Blu-ray


  796. Text #30

  797. ID : 46

  798. ID in the original source medium : 4795 (0x12BB)

  799. Format : PGS

  800. Muxing mode : zlib

  801. Codec ID : S_HDMV/PGS

  802. Codec ID/Info : Picture based subtitle format used on BDs/HD-DVDs

  803. Duration : 1 h 47 min

  804. Bit rate : 34.6 kb/s

  805. Count of elements : 2631

  806. Stream size : 26.6 MiB (0%)

  807. Language : Spanish

  808. Default : No

  809. Forced : No

  810. Original source medium : Blu-ray


  811. Text #31

  812. ID : 47

  813. ID in the original source medium : 4796 (0x12BC)

  814. Format : PGS

  815. Muxing mode : zlib

  816. Codec ID : S_HDMV/PGS

  817. Codec ID/Info : Picture based subtitle format used on BDs/HD-DVDs

  818. Duration : 1 h 39 min

  819. Bit rate : 27.1 kb/s

  820. Count of elements : 1722

  821. Stream size : 19.2 MiB (0%)

  822. Language : Swedish

  823. Default : No

  824. Forced : No

  825. Original source medium : Blu-ray


  826. Text #32

  827. ID : 48

  828. ID in the original source medium : 4797 (0x12BD)

  829. Format : PGS

  830. Muxing mode : zlib

  831. Codec ID : S_HDMV/PGS

  832. Codec ID/Info : Picture based subtitle format used on BDs/HD-DVDs

  833. Duration : 1 h 39 min

  834. Bit rate : 31.8 kb/s

  835. Count of elements : 2841

  836. Stream size : 22.6 MiB (0%)

  837. Language : Thai

  838. Default : No

  839. Forced : No

  840. Original source medium : Blu-ray


  841. Text #33

  842. ID : 49

  843. ID in the original source medium : 4798 (0x12BE)

  844. Format : PGS

  845. Muxing mode : zlib

  846. Codec ID : S_HDMV/PGS

  847. Codec ID/Info : Picture based subtitle format used on BDs/HD-DVDs

  848. Duration : 1 h 39 min

  849. Bit rate : 37.8 kb/s

  850. Count of elements : 2847

  851. Stream size : 26.9 MiB (0%)

  852. Language : Turkish

  853. Default : No

  854. Forced : No

  855. Original source medium : Blu-ray


  856. Text #34

  857. ID : 50

  858. ID in the original source medium : 4799 (0x12BF)

  859. Format : PGS

  860. Muxing mode : zlib

  861. Codec ID : S_HDMV/PGS

  862. Codec ID/Info : Picture based subtitle format used on BDs/HD-DVDs

  863. Duration : 1 h 7 min

  864. Bit rate : 363 b/s

  865. Count of elements : 30

  866. Stream size : 180 KiB (0%)

  867. Language : Japanese

  868. Default : No

  869. Forced : No

  870. Original source medium : Blu-ray


  871. Menu

  872. 00:00:00.000 : en:Chapter 01

  873. 00:05:00.341 : en:Chapter 02

  874. 00:11:43.828 : en:Chapter 03

  875. 00:18:16.011 : en:Chapter 04

  876. 00:23:36.498 : en:Chapter 05

  877. 00:32:39.666 : en:Chapter 06

  878. 00:39:20.816 : en:Chapter 07

  879. 00:46:15.147 : en:Chapter 08

  880. 00:52:36.486 : en:Chapter 09

  881. 00:58:46.189 : en:Chapter 10

  882. 01:05:33.679 : en:Chapter 11

  883. 01:14:06.775 : en:Chapter 12

  884. 01:19:22.048 : en:Chapter 13

  885. 01:27:22.570 : en:Chapter 14

  886. 01:33:06.747 : en:Chapter 15

  887. 01:38:10.634 : en:Chapter 16

复制代码

捉鬼敢死队2[中文字幕].Ghostbusters.II.1989.REMASTERED.1080p.BluRay.REMUX.AVC.DTS HD.MA.TrueHD.7.1.Atmos FGT 3  欧美电影  第3张 捉鬼敢死队2[中文字幕].Ghostbusters.II.1989.REMASTERED.1080p.BluRay.REMUX.AVC.DTS HD.MA.TrueHD.7.1.Atmos FGT 3  欧美电影  第4张 捉鬼敢死队2[中文字幕].Ghostbusters.II.1989.REMASTERED.1080p.BluRay.REMUX.AVC.DTS HD.MA.TrueHD.7.1.Atmos FGT 3  欧美电影  第5张



文件下载


除非特别注明,本文『捉鬼敢死队2[中文字幕].Ghostbusters.II.1989.REMASTERED.1080p.BluRay.REMUX.AVC.DTS-HD.MA.TrueHD.7.1.Atmos-FGT 3』来源于互联网机器人自动抓取,非本站原创。 浮游电影网不对本文拥有版权,如有侵犯,请联系邮箱:fuyouu#yandex.com[#换成@]投诉。我们会在15个工作日内删除。 但烦请转载时请标明出处:“本文转载于『浮游电影网』,原文地址:https://www.fuyouu.com/22194.html

评论吧骚年!

发表你的见解   

昵称*

E-mail*(建议输入,以便收到博主回复的提示邮件)

验证码*

您可以使用eMule或eMule Mod(Windows)、aMule(Win、Linux、Mac)等软件下载eD2k链接。。
eMule收藏集(.emulecollection)文件是您选中的所有链接的列表文件。eMule可以直接下载它们。
按住SHIFT键选择可以选中多个选择框。
可用文件名和大小选择器来选择文件。
文件名选择器帮您根据文件名称或后缀来选择文件。不分大小写。
符号使用:
和:空格( )、+
不包含:-
或:|
转义:一对英文引号("");
匹配开头:^
匹配结尾:$
例如:
选中所有名称中包含有“eMule”或“0.49c”字眼,但不包含有“exe”字眼的:emule|0.49c -exe
选中所有名称的开头是“eMule”,结尾是“0.49c”的:^emule 0.49c$
选中所有名称中带有“eMule 0.49c”的(必须是“eMule 0.49c”,中间没有别的字符,不能是“eMule fake 0.49c”),需要转义:"emule 0.49c"
大小选择器帮您根据文件大小选择文件。