当前位置: 首页 >> 海外电影 >> 关键协议[简繁英字幕].The.Proposition.2005.BluRay.2160p.DTS-HD.MA.5.1.HDR.x265.10bit-CTRLHD 18.33GB >> 正文

关键协议[简繁英字幕].The.Proposition.2005.BluRay.2160p.DTS-HD.MA.5.1.HDR.x265.10bit-CTRLHD 18.33GB

2022年05月15日 23:41:27     电影发布:来源于网络     电影分类:海外电影     评论(0)    

p1202622452.jpg

◎译 名 关键协议 / 关键协定 / 情欲失格

◎片 名 The Proposition

◎年 代 2005

◎产 地 澳大利亚 / 英国

◎类 别 剧情 / 犯罪 / 西部

◎语 言 英语

◎上映日期 2005-10-06

◎IMDb链接 https://www.imdb.com/title/tt0421238/

◎豆瓣评分 6.9/10 (1124人评价)

◎豆瓣链接 https://movie.douban.com/subject/1485411/

◎片 长 104 分钟

◎导 演 约翰·希尔寇特 John Hillcoat (id:1286634)

◎编 剧 尼克·凯夫 Nick Cave (id:1049985)

◎演 员 雷·温斯顿 Ray Winstone (id:1006977)

盖·皮尔斯 Guy Pearce (id:1035672)

艾米丽·沃森 Emily Watson (id:1013814)

丹尼·赫斯顿 Danny Huston (id:1333426)

理查德·威尔逊 Richard Wilson (id:1161655)

大卫·文翰 David Wenham (id:1049573)

约翰·赫特 John Hurt (id:1004587)

罗伯特·摩根 Robert Morgan (id:1292503)

鲍里斯·布尔基奇 Boris Brkic (id:1455242)

Oliver Ackland Oliver Ackland (id:1193317)

大卫·古皮利 David Gulpilil (id:1009593)

诺亚·泰勒 Noah Taylor (id:1049775)

汤姆·巴治 Tom Budge (id:1072808)

博格丹·科卡 Bogdan Koca (id:1104884)

汤米·刘易斯 Tommy Lewis (id:1123017)

利亚·珀赛尔 Leah Purcell (id:1137639)

Richard Wilson Richard Wilson (id:1161532)

Garry Waddell Garry Waddell (id:1163271)

伊恩·加德纳 Iain Gardiner (id:1455244)

罗伯特·琼斯 Robert Jones (id:1287891)

Christopher Simon Christopher Simon (id:1159682)

Michael Hamlyn Michael Hamlyn (id:1285915)

Jackie O'Sullivan Jackie O'Sullivan (id:1293451)

Chiara Menage Chiara Menage (id:1291817)

克里斯·布朗 Chris Brown (id:1279415)

Chris Auty Chris Auty (id:1020339)

Cat Villiers Cat Villiers (id:1038271)

华伦·埃利斯 Warren Ellis (id:1283147)

尼克·凯夫 Nick Cave (id:1049985)

班诺特·德姆 Beno?t Delhomme (id:1282193)

乔恩·格雷戈里 Jon Gregory (id:1285427)

Jill Eden Jill Eden (id:1282990)

克里斯·肯尼迪(I) Chris Kennedy (id:1288395)

玛戈特·威尔逊 Margot Wilson (id:1043231)

杰森·霍尔利 Jason Horley (id:1286921)

约翰·霍格沃德 Jan Hogevold (id:1101499)

Piers Hampton Piers Hampton (id:1096263)

◎简 介

故事发生在1880年的澳大利亚,警察和黑帮之间的关系已经降到了冰点,所有人都知道,事态再照这样发展下去,一场恶斗在所难免。土匪阿瑟(丹尼·休斯顿 Danny Huston 饰)的举动让事件向更糟的方向发展而去,他在小镇居民霍普金斯家展开了一场血腥残暴的大屠杀后逃之夭夭。

看到兄弟已然丧失了理智,查尔斯(盖·皮尔斯 Guy Pearce 饰)决定带着麦克(理查德·威尔森 Richard Wilson 饰)远走高飞。在关键时刻,斯坦利警长(雷·温斯顿 Ray Winstone 饰)制服了查尔斯,绑架了麦克,他以麦克的性命为筹码,要求查尔斯杀掉丧心病狂的阿瑟。两边都是手足情深的兄弟,查尔斯陷入了艰难的抉择之中。

  1. ##### MediaInfo ######

  2. General

  3. Unique ID : 226625038549341926106436574814626359676 (0xAA7E6510E47A2A2E67643A0E2AD7A97C)

  4. Complete name : The.Proposition.2005.BluRay.2160p.DTS-HD.MA.5.1.HDR.x265.10bit-CTRLHD.mkv

  5. Format : Matroska

  6. Format version : Version 4

  7. File size : 18.3 GiB

  8. Duration : 1 h 43 min

  9. Overall bit rate mode : Variable

  10. Overall bit rate : 25.3 Mb/s

  11. Movie name : The Proposition

  12. Encoded date : UTC 2022-05-14 00:05:54

  13. Writing application : mkvmerge v63.0.0 ('Everything') 64-bit

  14. Writing library : libebml v1.4.2 + libmatroska v1.6.4

  15. Cover : Yes

  16. Attachments : cover.jpg / cover.jpg

  17. Video

  18. ID : 1

  19. Format : HEVC

  20. Format/Info : High Efficiency Video Coding

  21. Format profile : Main [email protected]@High

  22. HDR format : SMPTE ST 2086, HDR10 compatible

  23. Codec ID : V_MPEGH/ISO/HEVC

  24. Duration : 1 h 43 min

  25. Bit rate : 23.4 Mb/s

  26. Width : 3 840 pixels

  27. Height : 1 632 pixels

  28. Display aspect ratio : 2.35:1

  29. Frame rate mode : Constant

  30. Frame rate : 24.000 FPS

  31. Color space : YUV

  32. Chroma subsampling : 4:2:0 (Type 2)

  33. Bit depth : 10 bits

  34. Bits/(Pixel*Frame) : 0.156

  35. Stream size : 17.0 GiB (93%)

  36. Writing library : x265 3.5+2-g2b25c9ba0+87:[Windows][clang 12.0.1][64 bit] Kasumi 10bit

  37. Encoding settings : rc=crf / crf=13.0000 / qcomp=0.60 / qpstep=4 / stats-write=0 / stats-read=0 / no-lossless / no-cu-lossless / aq-mode=1 / aq-strength=1.00 / cbqpoffs=0 / crqpoffs=0 / ipratio=1.40 / pbratio=1.30 / psy-rd=3.00 / psy-rdoq=4.80 / deblock=0:0 / ref=6 / limit-refs=1 / no-limit-modes / bframes=14 / b-adapt=2 / bframe-bias=0 / b-pyramid / b-intra / weightp / weightb / min-keyint=24 / max-keyint=250 / rc-lookahead=75 / gop-lookahead=0 / NTMzNTQ=uuDQuD2mJt9fsCf / scenecut=40 / hist-scenecut=0 / radl=0 / max-cu-size=64 / min-cu-size=8 / me=3 / subme=7 / merange=64 / rdoq-level=2 / rd=4 / rdpenalty=2 / dynamic-rd=0.00 / no-rd-refine / ----- / cutree / no-sao / no-rect / no-amp / no-open-gop / wpp / no-pmode / no-pme / no-psnr / no-ssim / nr-intra=0 / nr-inter=0 / no-constrained-intra / no-strong-intra-smoothing / max-tu-size=32 / tu-inter-depth=1 / tu-intra-depth=1 / limit-tu=0 / qg-size=32 / qpmax=69 / qpmin=0 / ----- / cpuid=533541111039 / frame-threads=5 / numa-pools=64,64,0,0 / log-level=2 / input-csp=1 / input-res=3840x1632 / interlace=0 / level-idc=0 / high-tier=1 / uhd-bd=0 / no-allow-non-conformance / repeat-headers / no-aud / no-hrd / info / hash=0 / no-temporal-layers / lookahead-slices=8 / no-splice / no-intra-refresh / no-ssim-rd / signhide / no-tskip / max-merge=3 / temporal-mvp / no-frame-dup / no-hme / no-analyze-src-pics / no-sao-non-deblock / selective-sao=0 / early-skip / rskip / no-fast-intra / no-tskip-fast / no-splitrd-skip / zone-count=0 / no-strict-cbr / no-rc-grain / no-const-vbv / sar=0 / overscan=0 / videoformat=5 / range=0 / colorprim=9 / transfer=16 / colormatrix=9 / chromaloc=1 / chromaloc-top=2 / chromaloc-bottom=2 / display-window=0 / master-display=G(8500,39850)B(6550,2300)R(35400,14600)WP(15635,16450)L(10000000,1) / cll=972,338 / min-luma=0 / max-luma=1023 / log2-max-poc-lsb=8 / vui-timing-info / vui-hrd-info / slices=1 / no-opt-qp-pps / no-opt-ref-list-length-pps / no-multi-pass-opt-rps / scenecut-bias=0.05 / hist-threshold=0.03 / no-opt-cu-delta-qp / aq-motion / hdr10 / hdr10-opt / no-dhdr10-opt / no-idr-recovery-sei / analysis-reuse-level=0 / analysis-save-reuse-level=0 / analysis-load-reuse-level=0 / scale-factor=0 / refine-intra=0 / refine-inter=0 / refine-mv=1 / refine-ctu-distortion=0 / no-limit-sao / ctu-info=0 / no-lowpass-dct / refine-analysis-type=0 / copy-pic=1 / max-ausize-factor=1.0 / no-dynamic-refine / no-single-sei / no-hevc-aq / no-svt / no-field / qp-adaptation-range=1.00 / scenecut-aware-qp=0conformance-window-offsets / right=0 / bottom=0 / NTMzNTQ= / decoder-max-rate=0 / no-vbv-live-multi-pass

  38. Default : Yes

  39. Forced : No

  40. Color range : Limited

  41. Color primaries : BT.2020

  42. Transfer characteristics : PQ

  43. Matrix coefficients : BT.2020 non-constant

  44. Mastering display color primaries : BT.2020

  45. Mastering display luminance : min: 0.0001 cd/m2, max: 1000 cd/m2

  46. Maximum Content Light Level : 972 cd/m2

  47. Maximum Frame-Average Light Level : 338 cd/m2

  48. Audio

  49. ID : 2

  50. ID in the original source medium : 4352 (0x1100)

  51. Format : DTS XLL

  52. Format/Info : Digital Theater Systems

  53. Commercial name : DTS-HD Master Audio

  54. Codec ID : A_DTS

  55. Duration : 1 h 43 min

  56. Bit rate mode : Variable

  57. Bit rate : 1 797 kb/s

  58. Channel(s) : 6 channels

  59. Channel layout : C L R Ls Rs LFE

  60. Sampling rate : 48.0 kHz

  61. Frame rate : 93.750 FPS (512 SPF)

  62. Bit depth : 24 bits

  63. Compression mode : Lossless

  64. Stream size : 1.30 GiB (7%)

  65. Language : English

  66. Default : Yes

  67. Forced : No

  68. Original source medium : Blu-ray

  69. Text #1

  70. ID : 3

  71. ID in the original source medium : 4768 (0x12A0)

  72. Format : PGS

  73. Muxing mode : zlib

  74. Codec ID : S_HDMV/PGS

  75. Codec ID/Info : Picture based subtitle format used on BDs/HD-DVDs

  76. Duration : 1 h 41 min

  77. Bit rate : 28.4 kb/s

  78. Count of elements : 2316

  79. Stream size : 20.7 MiB (0%)

  80. Language : English

  81. Default : Yes

  82. Forced : No

  83. Original source medium : Blu-ray

  84. Text #2

  85. ID : 4

  86. ID in the original source medium : 4769 (0x12A1)

  87. Format : PGS

  88. Muxing mode : zlib

  89. Codec ID : S_HDMV/PGS

  90. Codec ID/Info : Picture based subtitle format used on BDs/HD-DVDs

  91. Duration : 1 h 36 min

  92. Bit rate : 16.4 kb/s

  93. Count of elements : 1740

  94. Stream size : 11.3 MiB (0%)

  95. Title : chs

  96. Language : Chinese

  97. Default : Yes

  98. Forced : No

  99. Original source medium : Blu-ray

  100. Text #3

  101. ID : 5

  102. ID in the original source medium : 4770 (0x12A2)

  103. Format : PGS

  104. Muxing mode : zlib

  105. Codec ID : S_HDMV/PGS

  106. Codec ID/Info : Picture based subtitle format used on BDs/HD-DVDs

  107. Duration : 1 h 36 min

  108. Bit rate : 16.9 kb/s

  109. Count of elements : 1740

  110. Stream size : 11.6 MiB (0%)

  111. Title : cht

  112. Language : Chinese

  113. Default : Yes

  114. Forced : No

  115. Original source medium : Blu-ray

  116. Text #4

  117. ID : 6

  118. ID in the original source medium : 4771 (0x12A3)

  119. Format : PGS

  120. Muxing mode : zlib

  121. Codec ID : S_HDMV/PGS

  122. Codec ID/Info : Picture based subtitle format used on BDs/HD-DVDs

  123. Duration : 1 h 36 min

  124. Bit rate : 27.1 kb/s

  125. Count of elements : 1740

  126. Stream size : 18.6 MiB (0%)

  127. Title : chs&eng

  128. Language : Chinese

  129. Default : Yes

  130. Forced : No

  131. Original source medium : Blu-ray

  132. Text #5

  133. ID : 7

  134. ID in the original source medium : 4772 (0x12A4)

  135. Format : PGS

  136. Muxing mode : zlib

  137. Codec ID : S_HDMV/PGS

  138. Codec ID/Info : Picture based subtitle format used on BDs/HD-DVDs

  139. Duration : 1 h 36 min

  140. Bit rate : 27.5 kb/s

  141. Count of elements : 1740

  142. Stream size : 18.9 MiB (0%)

  143. Title : cht&eng

  144. Language : Chinese

  145. Default : Yes

  146. Forced : No

  147. Original source medium : Blu-ray

  148. Menu

  149. 00:00:00.000 : en:第 01 章

  150. 00:12:55.000 : en:第 02 章

  151. 00:20:37.416 : en:第 03 章

  152. 00:37:35.041 : en:第 04 章

  153. 00:55:11.000 : en:第 05 章

  154. 01:09:06.750 : en:第 06 章

  155. 01:25:53.666 : en:第 07 章

  156. 01:36:46.833 : en:第 08 章



文件下载


除非特别注明,本文『关键协议[简繁英字幕].The.Proposition.2005.BluRay.2160p.DTS-HD.MA.5.1.HDR.x265.10bit-CTRLHD 18.33GB』来源于互联网机器人自动抓取,非本站原创。 浮游电影网不对本文拥有版权,如有侵犯,请联系邮箱:fuyouu#yandex.com[#换成@]投诉。我们会在15个工作日内删除。 但烦请转载时请标明出处:“本文转载于『浮游电影网』,原文地址:https://www.fuyouu.com/22191.html

评论吧骚年!

发表你的见解   

昵称*

E-mail*(建议输入,以便收到博主回复的提示邮件)

验证码*

您可以使用eMule或eMule Mod(Windows)、aMule(Win、Linux、Mac)等软件下载eD2k链接。。
eMule收藏集(.emulecollection)文件是您选中的所有链接的列表文件。eMule可以直接下载它们。
按住SHIFT键选择可以选中多个选择框。
可用文件名和大小选择器来选择文件。
文件名选择器帮您根据文件名称或后缀来选择文件。不分大小写。
符号使用:
和:空格( )、+
不包含:-
或:|
转义:一对英文引号("");
匹配开头:^
匹配结尾:$
例如:
选中所有名称中包含有“eMule”或“0.49c”字眼,但不包含有“exe”字眼的:emule|0.49c -exe
选中所有名称的开头是“eMule”,结尾是“0.49c”的:^emule 0.49c$
选中所有名称中带有“eMule 0.49c”的(必须是“eMule 0.49c”,中间没有别的字符,不能是“eMule fake 0.49c”),需要转义:"emule 0.49c"
大小选择器帮您根据文件大小选择文件。