当前位置: 首页 >> 港台电影 >> 林世荣[国粤英多音轨/简繁英字幕].The.Magnificent.Butcher.1979.BluRay.1080p.DTS-HD.MA.5.1.3Audio.x265.10bit-CTRLHD 1 >> 正文

林世荣[国粤英多音轨/简繁英字幕].The.Magnificent.Butcher.1979.BluRay.1080p.DTS-HD.MA.5.1.3Audio.x265.10bit-CTRLHD 1

2022年05月15日 23:40:38     电影发布:来源于网络     电影分类:港台电影     评论(0)    

◎译 名 林世荣 / 仁者无敌 / The Magnificent Butcher

◎年 代 1979

◎产 地 中国香港

◎类 别 喜剧 / 动作

◎语 言 粤语

◎上映日期 1979-12-19(中国香港)

◎IMDb链接 https://www.imdb.com/title/tt0079472/

◎豆瓣评分 6.9/10 (2619人评价)

◎豆瓣链接 https://movie.douban.com/subject/1306258/

◎片 长 108分钟

◎导 演 袁和平 Woo-ping Yuen (id:1275026)

◎编 剧 王晶 Jing Wong (id:1274331)

邓景生 Edward Tang (id:1298905)

◎演 员 洪金宝 Sammo Hung Kam-Bo (id:1055887)

元彪 Biao Yuen (id:1163752)

樊梅生 Mei Sheng Fan (id:1088045)

韦白 Pai Wei (id:1319719)

陈琪琪 Qiqi Chen (id:1316418)

关德兴 Tak-Hing Kwan (id:1274447)

钟发 Fat Chung (id:1314531)

林正英 Ching-Ying Lam (id:1016823)

冯克安 Hark-On Fung (id:1283563)

李海生 Hoi Sang Lee (id:1274574)

西瓜刨 Gwa-pau Sai (id:1220481)

陈会毅 Billy Chan (id:1280414)

冯敬文 Ging Man Fung (id:1341397)

曾楚霖 Choh-Lam Tsang (id:1341398)

刘秋生 Chau Sang Lau (id:1373863)

何柏光 Pak-Kwong Ho (id:1350540)

李超俊 Chiao Chun Li (id:1395765)

唐晶 Jing Tang (id:1396234)

何天诚 Tin-Shing Ho (id:1467756)

元武 Wu Yuan (id:1344878)

何天诚 Tin-Shing Ho (id:1467756)

袁振洋 Brandy Yuen (id:1328286)

周少龙 Shao Lung Chou (id:1344862)

◎简 介

黄飞鸿(关德兴 饰)之徒林世荣(洪金宝 饰)卖猪肉为生,街坊称其为“猪肉荣”,林世荣平日好打抱不平,但是性格莽撞自作聪明,时常令自己陷入窘境。这天林世荣误打当地武林势力“五龙堂”门生,五龙堂主高霸天(李海生 饰)率众闯入宝芝林讨要说法,黄飞鸿巧妙化解,但林世荣免不了受责 罚。林世荣之弟林世光从乡下赶来投奔世荣,不想高霸天之子高大海觊觎世光妻子,设计将其掳走,世光被毒打,林世荣久未见亲弟,反误认世光为暴徒,为高大海出头将世光打伤。万念俱灰的世光欲寻死,巧遇落魄武林高手(樊梅生 饰)相救。高大海再施计寻求世荣保护,然而世荣世光兄弟终于相认,世光之妻亦被世荣救出,但世荣救人时再次自作聪明,将高霸天干女儿一起带走,令自己陷入了更大麻烦……

  1. ##### MediaInfo ######

  2. General

  3. Unique ID : 14514087221049397621618660880295162060 (0xAEB4FBFBD0BB6401A1FE0121B2070CC)

  4. Complete name : The.Magnificent.Butcher.1979.BluRay.1080p.DTS-HD.MA.5.1.3Audio.x265.10bit-CTRLHD.mkv

  5. Format : Matroska

  6. Format version : Version 4

  7. File size : 13.0 GiB

  8. Duration : 1 h 49 min

  9. Overall bit rate mode : Variable

  10. Overall bit rate : 17.1 Mb/s

  11. Encoded date : UTC 2022-05-15 00:58:36

  12. Writing application : mkvmerge v67.0.0 ('Under Stars') 64-bit

  13. Writing library : libebml v1.4.2 + libmatroska v1.6.4

  14. Video

  15. ID : 1

  16. Format : HEVC

  17. Format/Info : High Efficiency Video Coding

  18. Format profile : Main [email protected]@Main

  19. Codec ID : V_MPEGH/ISO/HEVC

  20. Duration : 1 h 49 min

  21. Bit rate : 7 623 kb/s

  22. Width : 1 920 pixels

  23. Height : 804 pixels

  24. Display aspect ratio : 2.40:1

  25. Frame rate mode : Constant

  26. Frame rate : 23.976 (24000/1001/53354) FPS

  27. Original frame rate : 23.976 (23976/1000/53354) FPS

  28. Color space : YUV

  29. Chroma subsampling : 4:2:0

  30. Bit depth : 10 bits

  31. Bits/(Pixel*Frame) : 0.206

  32. Stream size : 5.81 GiB (45%)

  33. Writing library : x265 2.7+15-b9f5b5d7bf95:[Windows][MSVC 1800][64 bit] 10bit

  34. Encoding settings : cpuid=533541173503 / frame-threads=4 / numa-pools=16 / wpp / no-pmode / no-pme / no-psnr / no-ssim / log-level=2 / input-csp=1 / input-res=1920x804 / interlace=0 / total-frames=0 / level-idc=0 / high-tier=1 / uhd-bd=0 / ref=6 / no-allow-non-conformance / repeat-headers / annexb / no-aud / no-hrd / info / hash=0 / no-temporal-layers / no-open-gop / min-keyint=23 / keyint=250 / gop-lookahead=0 / bframes=8 / b-adapt=2 / b-pyramid / bframe-bias=0 / rc-lookahead=24 / lookahead-slices=5 / NTMzNTQ=uuDQuD2mJt9fsCf / scenecut=40 / radl=0 / no-intra-refresh / ctu=64 / min-cu-size=8 / no-rect / no-amp / max-tu-size=32 / tu-inter-depth=1 / tu-intra-depth=1 / limit-tu=0 / rdoq-level=0 / dynamic-rd=0.00 / no-ssim-rd / signhide / no-tskip / nr-intra=0 / nr-inter=0 / no-constrained-intra / no-strong-intra-smoothing / max-merge=2 / limit-refs=3 / no-limit-modes / me=2 / subme=7 / merange=48 / temporal-mvp / weightp / weightb / no-analyze-src-pics / deblock=0:0 / sao / no-sao-non-deblock / rd=4 / no-early-skip / rskip / no-fast-intra / no-tskip-fast / no-cu-lossless / no-b-intra / no-splitrd-skip / rdpenalty=0 / psy-rd=2.00 / psy-rdoq=0.00 / no-rd-refine / no-lossless / cbqpoffs=0 / crqpoffs=0 / rc=crf / crf=20.0 / qcomp=0.60 / qpstep=4 / stats-write=0 / stats-read=0 / ipratio=1.40 / pbratio=1.30 / aq-mode=3 / aq-strength=1.00 / cutree / zone-count=0 / no-strict-cbr / qg-size=32 / no-rc-grain / qpmax=69 / qpmin=0 / no-const-vbv / sar=0 / overscan=0 / videoformat=5 / range=0 / colorprim=2 / transfer=2 / colormatrix=2 / chromaloc=0 / display-window=0 / max-cll=0,0 / min-luma=0 / max-luma=1023 / log2-max-poc-lsb=8 / vui-timing-info / vui-hrd-info / slices=1 / no-opt-qp-pps / no-opt-ref-list-length-pps / no-multi-pass-opt-rps / scenecut-bias=0.05 / no-opt-cu-delta-qp / aq-motion / no-hdr / no-hdr-opt / no-dhdr10-opt / no-idr-recovery-sei / analysis-reuse-level=5 / scale-factor=0 / refine-intra=0 / refine-inter=0 / refine-mv=0 / no-limit-sao / ctu-info=0 / no-lowpass-dct / refine-mv-type=0 / copy-pic=1 / max-ausize-factor=1.0 / no-dynamic-refine

  35. Language : Chinese

  36. Default : Yes

  37. Forced : No

  38. Audio #1

  39. ID : 2

  40. Format : PCM

  41. Format settings : Little / Signed

  42. Codec ID : A_PCM/INT/LIT

  43. Duration : 1 h 49 min

  44. Bit rate mode : Constant

  45. Bit rate : 2 304 kb/s

  46. Channel(s) : 2 channels

  47. Sampling rate : 48.0 kHz

  48. Frame rate : 200.000 FPS (240 SPF)

  49. Bit depth : 24 bits

  50. Stream size : 1.75 GiB (14%)

  51. Language : English

  52. Default : Yes

  53. Forced : No

  54. Audio #2

  55. ID : 3

  56. Format : DTS XLL

  57. Format/Info : Digital Theater Systems

  58. Commercial name : DTS-HD Master Audio

  59. Codec ID : A_DTS

  60. Duration : 1 h 49 min

  61. Bit rate mode : Variable

  62. Bit rate : 3 243 kb/s

  63. Channel(s) : 6 channels

  64. Channel layout : C L R Ls Rs LFE

  65. Sampling rate : 48.0 kHz

  66. Frame rate : 93.750 FPS (512 SPF)

  67. Bit depth : 24 bits

  68. Compression mode : Lossless

  69. Stream size : 2.47 GiB (19%)

  70. Title : Mandarin

  71. Language : Chinese

  72. Default : Yes

  73. Forced : No

  74. Audio #3

  75. ID : 4

  76. Format : DTS XLL

  77. Format/Info : Digital Theater Systems

  78. Commercial name : DTS-HD Master Audio

  79. Codec ID : A_DTS

  80. Duration : 1 h 49 min

  81. Bit rate mode : Variable

  82. Bit rate : 3 823 kb/s

  83. Channel(s) : 6 channels

  84. Channel layout : C L R Ls Rs LFE

  85. Sampling rate : 48.0 kHz

  86. Frame rate : 93.750 FPS (512 SPF)

  87. Bit depth : 24 bits

  88. Compression mode : Lossless

  89. Stream size : 2.91 GiB (22%)

  90. Title : Cantonese

  91. Language : Chinese

  92. Default : Yes

  93. Forced : No

  94. Text #1

  95. ID : 5

  96. Format : PGS

  97. Muxing mode : zlib

  98. Codec ID : S_HDMV/PGS

  99. Codec ID/Info : Picture based subtitle format used on BDs/HD-DVDs

  100. Duration : 1 h 46 min

  101. Bit rate : 32.5 kb/s

  102. Count of elements : 2618

  103. Stream size : 24.9 MiB (0%)

  104. Language : English

  105. Default : Yes

  106. Forced : No

  107. Text #2

  108. ID : 6

  109. Format : PGS

  110. Muxing mode : zlib

  111. Codec ID : S_HDMV/PGS

  112. Codec ID/Info : Picture based subtitle format used on BDs/HD-DVDs

  113. Duration : 1 h 46 min

  114. Bit rate : 17.0 kb/s

  115. Count of elements : 2615

  116. Stream size : 12.9 MiB (0%)

  117. Title : CHS

  118. Language : Chinese

  119. Default : Yes

  120. Forced : No

  121. Text #3

  122. ID : 7

  123. Format : PGS

  124. Muxing mode : zlib

  125. Codec ID : S_HDMV/PGS

  126. Codec ID/Info : Picture based subtitle format used on BDs/HD-DVDs

  127. Duration : 1 h 46 min

  128. Bit rate : 17.6 kb/s

  129. Count of elements : 2615

  130. Stream size : 13.4 MiB (0%)

  131. Title : CHT

  132. Language : Chinese

  133. Default : Yes

  134. Forced : No

  135. Text #4

  136. ID : 8

  137. Format : PGS

  138. Muxing mode : zlib

  139. Codec ID : S_HDMV/PGS

  140. Codec ID/Info : Picture based subtitle format used on BDs/HD-DVDs

  141. Duration : 1 h 46 min

  142. Bit rate : 29.9 kb/s

  143. Count of elements : 2615

  144. Stream size : 22.7 MiB (0%)

  145. Title : CHS&ENG

  146. Language : Chinese

  147. Default : Yes

  148. Forced : No

  149. Text #5

  150. ID : 9

  151. Format : PGS

  152. Muxing mode : zlib

  153. Codec ID : S_HDMV/PGS

  154. Codec ID/Info : Picture based subtitle format used on BDs/HD-DVDs

  155. Duration : 1 h 46 min

  156. Bit rate : 30.5 kb/s

  157. Count of elements : 2615

  158. Stream size : 23.2 MiB (0%)

  159. Title : CHT&ENG

  160. Language : Chinese

  161. Default : Yes

  162. Forced : No

  163. Menu

  164. 00:00:00.000 : en:第 01 章

  165. 00:08:52.782 : en:第 02 章

  166. 00:17:57.326 : en:第 03 章

  167. 00:27:10.087 : en:第 04 章

  168. 00:39:54.100 : en:第 05 章

  169. 00:47:37.021 : en:第 06 章

  170. 00:56:57.539 : en:第 07 章

  171. 01:05:59.539 : en:第 08 章

  172. 01:14:26.837 : en:第 09 章

  173. 01:19:41.360 : en:第 10 章

  174. 01:30:42.312 : en:第 11 章

  175. 01:37:18.833 : en:第 12 章


复制代码



文件下载


除非特别注明,本文『林世荣[国粤英多音轨/简繁英字幕].The.Magnificent.Butcher.1979.BluRay.1080p.DTS-HD.MA.5.1.3Audio.x265.10bit-CTRLHD 1』来源于互联网机器人自动抓取,非本站原创。 浮游电影网不对本文拥有版权,如有侵犯,请联系邮箱:fuyouu#yandex.com[#换成@]投诉。我们会在15个工作日内删除。 但烦请转载时请标明出处:“本文转载于『浮游电影网』,原文地址:https://www.fuyouu.com/22190.html

评论吧骚年!

发表你的见解   

昵称*

E-mail*(建议输入,以便收到博主回复的提示邮件)

验证码*

您可以使用eMule或eMule Mod(Windows)、aMule(Win、Linux、Mac)等软件下载eD2k链接。。
eMule收藏集(.emulecollection)文件是您选中的所有链接的列表文件。eMule可以直接下载它们。
按住SHIFT键选择可以选中多个选择框。
可用文件名和大小选择器来选择文件。
文件名选择器帮您根据文件名称或后缀来选择文件。不分大小写。
符号使用:
和:空格( )、+
不包含:-
或:|
转义:一对英文引号("");
匹配开头:^
匹配结尾:$
例如:
选中所有名称中包含有“eMule”或“0.49c”字眼,但不包含有“exe”字眼的:emule|0.49c -exe
选中所有名称的开头是“eMule”,结尾是“0.49c”的:^emule 0.49c$
选中所有名称中带有“eMule 0.49c”的(必须是“eMule 0.49c”,中间没有别的字符,不能是“eMule fake 0.49c”),需要转义:"emule 0.49c"
大小选择器帮您根据文件大小选择文件。