当前位置: 首页 >> 欧美电影 >> 新蝙蝠侠[国语配音/中文字幕/特效字幕].The.Batman.2022.BluRay.1080p.TrueHD7.1.x265.10bit-CTRLHD 10.84GB >> 正文

新蝙蝠侠[国语配音/中文字幕/特效字幕].The.Batman.2022.BluRay.1080p.TrueHD7.1.x265.10bit-CTRLHD 10.84GB

2022年05月15日 23:39:46     电影发布:来源于网络     电影分类:欧美电影     评论(0)    

◎译 名 新蝙蝠侠 / 蝙蝠侠(港 / 台) / 重启版蝙蝠侠

◎片 名 The Batman

◎年 代 2022

◎产 地 美国

◎类 别 剧情 / 动作 / 悬疑 / 犯罪

◎语 言 英语

◎上映日期 2022-03-18(中国大陆) / 2022-03-01(韩国) / 2022-03-04(美国) / 2022-04-19(美国网络)

◎IMDb链接 https://www.imdb.com/title/tt1877830/

◎豆瓣评分 7.3/10 (230173人评价)

◎豆瓣链接 https://movie.douban.com/subject/6424756/

◎片 长 176分钟

◎导 演 马特·里夫斯 Matt Reeves (id:1045032)

◎编 剧 马特·里夫斯 Matt Reeves (id:1045032)

彼得·克莱格 Peter Craig (id:1041402)

比尔·芬格 Bill Finger (id:1006536)

鲍勃·凯恩 Bob Kane (id:1041392)

马特森·汤姆林 Mattson Tomlin (id:1261166)

◎演 员 罗伯特·帕丁森 Robert Pattinson (id:1035656)

佐伊·克罗维兹 Zo? Kravitz (id:1229502)

保罗·达诺 Paul Dano (id:1027774)

科林·法瑞尔 Colin Farrell (id:1084255)

杰弗里·怀特 Jeffrey Wright (id:1036484)

安迪·瑟金斯 Andy Serkis (id:1002708)

约翰·特托罗 John Turturro (id:1031851)

彼得·萨斯加德 Peter Sarsgaard (id:1031800)

巴里·基奥恩 Barry Keoghan (id:1360874)

杰米·劳森 Jayme Lawson (id:1426399)

吉尔·佩雷斯-亚伯拉罕 Gil Perez-Abraham (id:1417825)

彼得·麦克唐纳德 Peter McDonald (id:1005405)

康·奥尼尔 Con O'Neill (id:1320053)

亚历克斯·费恩斯 Alex Ferns (id:1028439)

鲁伯特·彭利-琼斯 Rupert Penry-Jones (id:1136688)

科莎·恩格勒 Kosha Engler (id:1189258)

杰宁·哈瑞妮 Janine Harouni (id:1392803)

卢克·罗伯茨 Luke Roberts (id:1347621)

斯特拉·斯托克尔 Stella Stocker (id:1347692)

桑德拉·迪金森 Sandra Dickinson (id:1090104)

杰克·班尼特 Jack Bennett (id:1018997)

约瑟夫·巴德拉玛 Joseph Balderrama (id:1400929)

詹姆斯·伊莱斯 James Eeles (id:1376659)

小利莫尔·马雷特 Leemore Marrett Jr. (id:1463867)

斯图尔特·亚历山大 Stewart Alexander (id:1458669)

马库斯·奥尼卢德 Marcus Onilude (id:1466041)

埃琳娜·沙雷 Elena Saurel (id:1414357)

托德·博伊斯 Todd Boyce (id:1350567)

道格拉斯·罗素 Douglas Russell (id:1354930)

查尔斯·卡维尔 Charles Carver (id:1315305)

马克斯·卡维尔 Max Carver (id:1271263)

马克·基林 Mark Killeen (id:1354933)

洛娜·布朗 Lorna Brown (id:1279442)

埃利奥特·沃伦 Elliot Warren (id:1433606)

小田部阿基 Akie Kotabe (id:1231929)

布隆森·韦伯 Bronson Webb (id:1032080)

阿瑟·李 Arthur Lee (id:1411947)

派瑞 格拉斯普 Parry Glasspool (id:1350561)

娜塔丽·阿明 Nathalie Armin (id:1397366)

何塞?帕尔马 Jose Palma (id:1418875)

玛吉·巴基尔 Maggie Bakir (id:1454332)

露丝·霍洛克斯 Ruth Horrocks (id:1397361)

贝恩·科拉科 Bern Colla?o (id:1394212)

丹尼尔·厄根 Daniel Eghan (id:1367202)

雷切尔·汉德肖 Rachel Handshaw (id:1433060)

爵克·哈迪 Juke Hardy (id:1381994)

奥斯卡·诺瓦克 Oscar Novak (id:1470648)

吉米·斯达 Jimmy Star (id:1273873)

妮可拉·吉恩·马祖尔 Nichola Jean Mazur (id:1470099)

杰伊·利库戈 Jay Lycurgo (id:1469864)

马特·里夫斯 Matt Reeves (id:1045032)

迪伦·克拉克 Dylan Clark (id:1419902)

马切尔·E·尤斯兰 Michael E. Uslan (id:1413601)

迈克·吉亚奇诺 Michael Giacchino (id:1027937)

格雷格·弗莱瑟 Greig Fraser (id:1028361)

泰勒·纳尔逊 Tyler Nelson (id:1431508)

辛迪·托兰 Cindy Tolan (id:1303459)

詹姆斯·钦伦德 James Chinlund (id:1418711)

大卫·克罗斯曼 David Crossman (id:1006793)

杰奎琳·杜兰 Jacqueline Durran (id:1282857)

格林·狄龙 Glyn Dillon (id:1424821)

丹·赖蒙 Dan Lemmon (id:1289780)

◎简 介

布鲁斯·韦恩(罗伯特·帕丁森 饰)化身蝙蝠侠于哥谭市行侠仗义两年后,罪犯皆闻风丧胆,他也因此深入接触到哥谭市的阴暗面。他潜行于哥谭市腐败的政要名流关系网中,身边仅有的几个值得信赖的盟友——管家阿尔弗雷德·潘尼沃斯(安迪·瑟金斯 饰)与詹姆斯·戈登警长(杰弗里·怀特 饰)。这位独行的“义警侠探”在哥谭市民心中已成为“复仇”二字最当仁不让的代名词。

  1. ##### MediaInfo ######

  2. General

  3. Unique ID : 241791675586352444085757979964143028025 (0xB5E762013F4DF631ED7A9C5CCF4FC739)

  4. Complete name : The.Batman.2022.BluRay.1080p.TrueHD7.1.x265.10bit-CTRLHD.mkv

  5. Format : Matroska

  6. Format version : Version 4

  7. File size : 10.8 GiB

  8. Duration : 2 h 56 min

  9. Overall bit rate mode : Variable

  10. Overall bit rate : 8 804 kb/s

  11. Encoded date : UTC 2022-05-14 07:50:24

  12. Writing application : mkvmerge v62.0.0 ('Apollo') 64-bit

  13. Writing library : libebml v1.4.2 + libmatroska v1.6.4

  14. Video

  15. ID : 1

  16. Format : HEVC

  17. Format/Info : High Efficiency Video Coding

  18. Format profile : Main [email protected]@Main

  19. Codec ID : V_MPEGH/ISO/HEVC

  20. Duration : 2 h 56 min

  21. Bit rate : 5 106 kb/s

  22. Width : 1 920 pixels

  23. Height : 804 pixels

  24. Display aspect ratio : 2.40:1

  25. Frame rate mode : Constant

  26. Frame rate : 23.976 (23976/1000/53354) FPS

  27. Color space : YUV

  28. Chroma subsampling : 4:2:0

  29. Bit depth : 10 bits

  30. Bits/(Pixel*Frame) : 0.138

  31. Stream size : 6.28 GiB (58%)

  32. Writing library : x265 3.5+10-82786fccc:[Windows][MSVC 1929][64 bit] 10bit

  33. Encoding settings : cpuid=533541111039 / frame-threads=5 / numa-pools=36,36 / wpp / no-pmode / no-pme / no-psnr / no-ssim / log-level=2 / input-csp=1 / input-res=1920x804 / interlace=0 / total-frames=0 / level-idc=0 / high-tier=1 / uhd-bd=0 / ref=6 / no-allow-non-conformance / repeat-headers / annexb / no-aud / no-eob / no-eos / no-hrd / info / hash=0 / no-temporal-layers / no-open-gop / min-keyint=23 / keyint=250 / gop-lookahead=0 / bframes=8 / b-adapt=2 / b-pyramid / bframe-bias=0 / rc-lookahead=24 / lookahead-slices=5 / NTMzNTQ=uuDQuD2mJt9fsCf / scenecut=40 / hist-scenecut=0 / radl=0 / no-splice / no-intra-refresh / ctu=64 / min-cu-size=8 / no-rect / no-amp / max-tu-size=32 / tu-inter-depth=1 / tu-intra-depth=1 / limit-tu=0 / rdoq-level=0 / dynamic-rd=0.00 / no-ssim-rd / signhide / no-tskip / nr-intra=0 / nr-inter=0 / no-constrained-intra / no-strong-intra-smoothing / max-merge=3 / limit-refs=1 / no-limit-modes / me=2 / subme=7 / merange=48 / temporal-mvp / no-frame-dup / no-hme / weightp / weightb / no-analyze-src-pics / deblock=0:0 / sao / no-sao-non-deblock / rd=4 / selective-sao=4 / early-skip / rskip / no-fast-intra / no-tskip-fast / no-cu-lossless / b-intra / no-splitrd-skip / rdpenalty=0 / psy-rd=2.00 / psy-rdoq=0.00 / no-rd-refine / no-lossless / cbqpoffs=0 / crqpoffs=0 / rc=crf / crf=14.5 / qcomp=0.60 / qpstep=4 / stats-write=0 / stats-read=0 / ipratio=1.40 / pbratio=1.30 / aq-mode=3 / aq-strength=1.00 / cutree / zone-count=0 / no-strict-cbr / qg-size=32 / no-rc-grain / qpmax=69 / qpmin=0 / no-const-vbv / sar=0 / overscan=0 / videoformat=5 / range=0 / colorprim=2 / transfer=2 / colormatrix=2 / chromaloc=0 / display-window=0 / cll=0,0 / min-luma=0 / max-luma=1023 / log2-max-poc-lsb=8 / vui-timing-info / vui-hrd-info / slices=1 / no-opt-qp-pps / no-opt-ref-list-length-pps / no-multi-pass-opt-rps / scenecut-bias=0.05 / hist-threshold=0.03 / no-opt-cu-delta-qp / aq-motion / no-hdr10 / no-hdr10-opt / no-dhdr10-opt / no-idr-recovery-sei / analysis-reuse-level=0 / analysis-save-reuse-level=0 / analysis-load-reuse-level=0 / scale-factor=0 / refine-intra=0 / refine-inter=0 / refine-mv=1 / refine-ctu-distortion=0 / no-limit-sao / ctu-info=0 / no-lowpass-dct / refine-analysis-type=0 / copy-pic=1 / max-ausize-factor=1.0 / no-dynamic-refine / no-single-sei / no-hevc-aq / no-svt / no-field / qp-adaptation-range=1.00 / scenecut-aware-qp=0conformance-window-offsets / right=0 / bottom=0 / NTMzNTQ= / decoder-max-rate=0 / no-vbv-live-multi-pass

  34. Default : Yes

  35. Forced : No

  36. Audio #1

  37. ID : 2

  38. Format : MLP FBA 16-ch

  39. Format/Info : Meridian Lossless Packing FBA with 16-channel presentation

  40. Commercial name : Dolby TrueHD with Dolby Atmos

  41. Codec ID : A_TRUEHD

  42. Duration : 2 h 56 min

  43. Bit rate mode : Variable

  44. Bit rate : 3 028 kb/s

  45. Maximum bit rate : 5 271 kb/s

  46. Channel(s) : 8 channels

  47. Channel layout : L R C LFE Ls Rs Lb Rb

  48. Sampling rate : 48.0 kHz

  49. Frame rate : 1 200.000 FPS (40 SPF)

  50. Compression mode : Lossless

  51. Stream size : 3.73 GiB (34%)

  52. Language : English

  53. Default : Yes

  54. Forced : No

  55. Number of dynamic objects : 11

  56. Bed channel count : 1 channel

  57. Bed channel configuration : LFE

  58. Audio #2

  59. ID : 3

  60. Format : AC-3

  61. Format/Info : Audio Coding 3

  62. Commercial name : Dolby Digital

  63. Codec ID : A_AC3

  64. Duration : 2 h 56 min

  65. Bit rate mode : Constant

  66. Bit rate : 448 kb/s

  67. Channel(s) : 6 channels

  68. Channel layout : L R C LFE Ls Rs

  69. Sampling rate : 48.0 kHz

  70. Frame rate : 31.250 FPS (1536 SPF)

  71. Compression mode : Lossy

  72. Stream size : 565 MiB (5%)

  73. Language : Chinese

  74. Service kind : Complete Main

  75. Default : No

  76. Forced : No

  77. Text #1

  78. ID : 4

  79. Format : PGS

  80. Muxing mode : zlib

  81. Codec ID : S_HDMV/PGS

  82. Codec ID/Info : Picture based subtitle format used on BDs/HD-DVDs

  83. Duration : 2 h 55 min

  84. Bit rate : 22.5 kb/s

  85. Count of elements : 3839

  86. Stream size : 28.3 MiB (0%)

  87. Language : Chinese

  88. Default : Yes

  89. Forced : No

  90. Text #2

  91. ID : 5

  92. Format : PGS

  93. Muxing mode : zlib

  94. Codec ID : S_HDMV/PGS

  95. Codec ID/Info : Picture based subtitle format used on BDs/HD-DVDs

  96. Duration : 2 h 55 min

  97. Bit rate : 22.8 kb/s

  98. Count of elements : 3839

  99. Stream size : 28.7 MiB (0%)

  100. Language : Chinese

  101. Default : No

  102. Forced : No

  103. Text #3

  104. ID : 6

  105. Format : PGS

  106. Muxing mode : zlib

  107. Codec ID : S_HDMV/PGS

  108. Codec ID/Info : Picture based subtitle format used on BDs/HD-DVDs

  109. Duration : 2 h 55 min

  110. Bit rate : 40.3 kb/s

  111. Count of elements : 3839

  112. Stream size : 50.7 MiB (0%)

  113. Language : Chinese

  114. Default : No

  115. Forced : No

  116. Text #4

  117. ID : 7

  118. Format : PGS

  119. Muxing mode : zlib

  120. Codec ID : S_HDMV/PGS

  121. Codec ID/Info : Picture based subtitle format used on BDs/HD-DVDs

  122. Duration : 2 h 55 min

  123. Bit rate : 40.7 kb/s

  124. Count of elements : 3839

  125. Stream size : 51.1 MiB (0%)

  126. Language : Chinese

  127. Default : No

  128. Forced : No

  129. Text #5

  130. ID : 8

  131. Format : PGS

  132. Muxing mode : zlib

  133. Codec ID : S_HDMV/PGS

  134. Codec ID/Info : Picture based subtitle format used on BDs/HD-DVDs

  135. Duration : 2 h 56 min

  136. Bit rate : 159 kb/s

  137. Count of elements : 11459

  138. Stream size : 200 MiB (2%)

  139. Language : Chinese

  140. Default : No

  141. Forced : No

  142. Text #6

  143. ID : 9

  144. Format : PGS

  145. Muxing mode : zlib

  146. Codec ID : S_HDMV/PGS

  147. Codec ID/Info : Picture based subtitle format used on BDs/HD-DVDs

  148. Duration : 2 h 55 min

  149. Bit rate : 34.3 kb/s

  150. Count of elements : 4834

  151. Stream size : 43.1 MiB (0%)

  152. Language : English

  153. Default : No

  154. Forced : No

  155. Menu

  156. 00:00:00.000 : en:第 01 章

  157. 00:12:01.387 : en:第 02 章

  158. 00:23:21.650 : en:第 03 章

  159. 00:31:53.829 : en:第 04 章

  160. 00:41:44.502 : en:第 05 章

  161. 00:51:36.677 : en:第 06 章

  162. 01:00:12.901 : en:第 07 章

  163. 01:10:32.395 : en:第 08 章

  164. 01:18:35.127 : en:第 09 章

  165. 01:29:14.724 : en:第 10 章

  166. 01:42:33.147 : en:第 11 章

  167. 01:52:16.897 : en:第 12 章

  168. 01:58:21.219 : en:第 13 章

  169. 02:09:39.981 : en:第 14 章

  170. 02:21:14.466 : en:第 15 章

  171. 02:27:31.342 : en:第 16 章

  172. 02:38:36.006 : en:第 17 章

  173. 02:46:58.342 : en:第 18 章


复制代码


文件下载


除非特别注明,本文『新蝙蝠侠[国语配音/中文字幕/特效字幕].The.Batman.2022.BluRay.1080p.TrueHD7.1.x265.10bit-CTRLHD 10.84GB』来源于互联网机器人自动抓取,非本站原创。 浮游电影网不对本文拥有版权,如有侵犯,请联系邮箱:fuyouu#yandex.com[#换成@]投诉。我们会在15个工作日内删除。 但烦请转载时请标明出处:“本文转载于『浮游电影网』,原文地址:https://www.fuyouu.com/22189.html

评论吧骚年!

发表你的见解   

昵称*

E-mail*(建议输入,以便收到博主回复的提示邮件)

验证码*

您可以使用eMule或eMule Mod(Windows)、aMule(Win、Linux、Mac)等软件下载eD2k链接。。
eMule收藏集(.emulecollection)文件是您选中的所有链接的列表文件。eMule可以直接下载它们。
按住SHIFT键选择可以选中多个选择框。
可用文件名和大小选择器来选择文件。
文件名选择器帮您根据文件名称或后缀来选择文件。不分大小写。
符号使用:
和:空格( )、+
不包含:-
或:|
转义:一对英文引号("");
匹配开头:^
匹配结尾:$
例如:
选中所有名称中包含有“eMule”或“0.49c”字眼,但不包含有“exe”字眼的:emule|0.49c -exe
选中所有名称的开头是“eMule”,结尾是“0.49c”的:^emule 0.49c$
选中所有名称中带有“eMule 0.49c”的(必须是“eMule 0.49c”,中间没有别的字符,不能是“eMule fake 0.49c”),需要转义:"emule 0.49c"
大小选择器帮您根据文件大小选择文件。