当前位置: 首页 >> 欧美电影 >> 恶魔录音棚[中文字幕].Studio.666.2022.BluRay.1080p.DTS-HDMA7.1.x264-CTRLHD 13.48GB >> 正文

恶魔录音棚[中文字幕].Studio.666.2022.BluRay.1080p.DTS-HDMA7.1.x264-CTRLHD 13.48GB

2022年05月15日 23:38:27     电影发布:来源于网络     电影分类:欧美电影     评论(0)    

微信截图_20220515233848.png

◎译 名 恶魔录音棚

◎片 名 Studio 666

◎年 代 2022

◎产 地 美国

◎类 别 恐怖

◎语 言 英语

◎上映日期 2022-02-25(美国)

◎IMDb链接 https://www.imdb.com/title/tt15374070/

◎豆瓣评分 5.4/10 (397人评价)

◎豆瓣链接 https://movie.douban.com/subject/35657056/

◎片 长 106分钟

◎导 演 比利·约翰·麦克唐纳 BJ McDonnell (id:1198882)

◎编 剧 杰夫·布勒 Jeff Buhler (id:1397704)

丽贝卡·休斯 Rebecca Hughes (id:1468659)

戴夫·格罗 David Grohl (id:1014068)

◎演 员 戴夫·格罗 David Grohl (id:1014068)

泰勒·霍金斯 Taylor Hawkins (id:1197677)

内特·孟德尔 Nate Mendel (id:1115499)

帕特·斯密尔 Pat Smear (id:1152108)

克里斯·夏夫利特 Chris Shiflett (id:1046351)

拉米·杰菲 Rami Jaffee (id:1468660)

惠特妮·卡明 Whitney Cummings (id:1193270)

莱斯利·格罗斯曼 Leslie Grossman (id:1094270)

珍娜·奥尔特加 Jenna Ortega (id:1437862)

杰夫·格尔林 Jeff Garlin (id:1018022)

威尔·福特 Will Forte (id:1019039)

凯瑞·金 Kerry King (id:1212518)

马蒂·马图利斯 Marti Matulis (id:1229486)

杰森·特罗斯特 Jason Trost (id:1426153)

◎简 介

老牌摇滚乐队Foo Fighters进驻位于洛杉矶恩西诺的一间有着浓郁摇滚历史的豪宅,录制自己的第十张专辑,然而在录制过程中,主唱Dave Grohl发现豪宅中有一股超自然力量正在威胁专辑乃至整支乐队的命运。

  1. ##### MediaInfo ######

  2. General

  3. Unique ID : 327595574880672256536199583629077817912 (0xF6749CDBF2BFB9241FB058538B8AAA38)

  4. Complete name : Studio.666.2022.BluRay.1080p.DTS-HDMA7.1.x264-CTRLHD.mkv

  5. Format : Matroska

  6. Format version : Version 4

  7. File size : 13.5 GiB

  8. Duration : 1 h 46 min

  9. Overall bit rate mode : Variable

  10. Overall bit rate : 18.1 Mb/s

  11. Encoded date : UTC 2022-05-14 15:54:25

  12. Writing application : mkvmerge v62.0.0 ('Apollo') 64-bit

  13. Writing library : libebml v1.4.2 + libmatroska v1.6.4

  14. Video

  15. ID : 1

  16. Format : AVC

  17. Format/Info : Advanced Video Codec

  18. Format profile : [email protected]

  19. Format settings : CABAC / 4 Ref Frames

  20. Format settings, CABAC : Yes

  21. Format settings, Reference frames : 4 frames

  22. Codec ID : V_MPEG4/ISO/AVC

  23. Duration : 1 h 46 min

  24. Bit rate : 13.3 Mb/s

  25. Width : 1 920 pixels

  26. Height : 804 pixels

  27. Display aspect ratio : 2.40:1

  28. Frame rate mode : Constant

  29. Frame rate : 23.976 (24000/1001/53354) FPS

  30. Color space : YUV

  31. Chroma subsampling : 4:2:0

  32. Bit depth : 8 bits

  33. Scan type : Progressive

  34. Bits/(Pixel*Frame) : 0.360

  35. Stream size : 9.91 GiB (74%)

  36. Writing library : x264 core 157 r2867+150 7e91e0e t_mod_Custom_2 [[email protected] X86_64]

  37. Encoding settings : cabac=1 / ref=4 / deblock=1:-3:-3 / analyse=0x3:0x133 / me=umh / subme=11 / psy=1 / fade_compensate=0.00 / psy_rd=0.90:0.10 / mixed_ref=1 / me_range=64 / chroma_me=1 / trellis=2 / 8x8dct=1 / cqm=0 / deadzone=21,11 / fast_pskip=0 / chroma_qp_offset=-4 / threads=25 / lookahead_threads=4 / sliced_threads=0 / nr=0 / decimate=1 / interlaced=0 / NTMzNTQ= / bluray_compat=0 / constrained_intra=0 / fgo=0 / bframes=8 / b_pyramid=2 / b_adapt=2 / b_bias=0 / direct=3 / weightb=1 / open_gop=0 / weightp=2 / keyint=250 / keyint_min=23 / NTMzNTQ=uuDQuD2mJt9fsCf / scenecut=40 / intra_refresh=0 / rc_lookahead=60 / rc=crf / mbtree=0 / crf=17.0000 / qcomp=0.70 / qpmin=0:0:0 / qpmax=69:69:69 / qpstep=4 / vbv_maxrate=35000 / vbv_bufsize=35000 / crf_max=0.0 / nal_hrd=none / filler=0 / NTMzNTQ=LmsMAP37EqsCpk / ip_ratio=1.40 / pb_ratio=1.30 / aq=3:1.00 / aq-sensitivity=10.00 / aq-factor=1.00:1.00:1.00 / aq2=0 / aq3=0

  38. Language : Chinese

  39. Default : Yes

  40. Forced : No

  41. Audio

  42. ID : 2

  43. Format : DTS XLL

  44. Format/Info : Digital Theater Systems

  45. Commercial name : DTS-HD Master Audio

  46. Codec ID : A_DTS

  47. Duration : 1 h 46 min

  48. Bit rate mode : Variable

  49. Bit rate : 4 722 kb/s

  50. Channel(s) : 8 channels

  51. Channel layout : C L R LFE Lb Rb Lss Rss

  52. Sampling rate : 48.0 kHz

  53. Frame rate : 93.750 FPS (512 SPF)

  54. Bit depth : 24 bits

  55. Compression mode : Lossless

  56. Stream size : 3.51 GiB (26%)

  57. Language : English

  58. Default : Yes

  59. Forced : No

  60. Text #1

  61. ID : 3

  62. Format : PGS

  63. Muxing mode : zlib

  64. Codec ID : S_HDMV/PGS

  65. Codec ID/Info : Picture based subtitle format used on BDs/HD-DVDs

  66. Duration : 1 h 45 min

  67. Bit rate : 19.7 kb/s

  68. Count of elements : 2261

  69. Stream size : 14.8 MiB (0%)

  70. Language : Chinese

  71. Default : Yes

  72. Forced : No

  73. Text #2

  74. ID : 4

  75. Format : PGS

  76. Muxing mode : zlib

  77. Codec ID : S_HDMV/PGS

  78. Codec ID/Info : Picture based subtitle format used on BDs/HD-DVDs

  79. Duration : 1 h 45 min

  80. Bit rate : 19.9 kb/s

  81. Count of elements : 2261

  82. Stream size : 15.0 MiB (0%)

  83. Language : Chinese

  84. Default : Yes

  85. Forced : No

  86. Text #3

  87. ID : 5

  88. Format : PGS

  89. Muxing mode : zlib

  90. Codec ID : S_HDMV/PGS

  91. Codec ID/Info : Picture based subtitle format used on BDs/HD-DVDs

  92. Duration : 1 h 45 min

  93. Bit rate : 38.2 kb/s

  94. Count of elements : 2261

  95. Stream size : 28.8 MiB (0%)

  96. Language : Chinese

  97. Default : Yes

  98. Forced : No

  99. Text #4

  100. ID : 6

  101. Format : PGS

  102. Muxing mode : zlib

  103. Codec ID : S_HDMV/PGS

  104. Codec ID/Info : Picture based subtitle format used on BDs/HD-DVDs

  105. Duration : 1 h 45 min

  106. Bit rate : 38.5 kb/s

  107. Count of elements : 2261

  108. Stream size : 29.0 MiB (0%)

  109. Language : Chinese

  110. Default : Yes

  111. Forced : No

  112. Text #5

  113. ID : 7

  114. Format : PGS

  115. Muxing mode : zlib

  116. Codec ID : S_HDMV/PGS

  117. Codec ID/Info : Picture based subtitle format used on BDs/HD-DVDs

  118. Duration : 1 h 45 min

  119. Bit rate : 37.9 kb/s

  120. Count of elements : 3052

  121. Stream size : 28.7 MiB (0%)

  122. Language : English

  123. Default : Yes

  124. Forced : No

  125. Menu

  126. 00:00:00.000 : en:第 01 章

  127. 00:04:18.967 : en:第 02 章

  128. 00:11:19.554 : en:第 03 章

  129. 00:15:08.199 : en:第 04 章

  130. 00:20:53.169 : en:第 05 章

  131. 00:25:52.176 : en:第 06 章

  132. 00:29:55.335 : en:第 07 章

  133. 00:36:41.449 : en:第 08 章

  134. 00:40:53.868 : en:第 09 章

  135. 00:45:43.991 : en:第 10 章

  136. 00:50:13.093 : en:第 11 章

  137. 00:56:05.821 : en:第 12 章

  138. 01:01:18.341 : en:第 13 章

  139. 01:06:26.691 : en:第 14 章

  140. 01:12:17.750 : en:第 15 章

  141. 01:17:52.918 : en:第 16 章

  142. 01:21:44.316 : en:第 17 章

  143. 01:27:38.962 : en:第 18 章

  144. 01:33:37.737 : en:第 19 章

  145. 01:41:36.465 : en:第 20 章


复制代码



文件下载


除非特别注明,本文『恶魔录音棚[中文字幕].Studio.666.2022.BluRay.1080p.DTS-HDMA7.1.x264-CTRLHD 13.48GB』来源于互联网机器人自动抓取,非本站原创。 浮游电影网不对本文拥有版权,如有侵犯,请联系邮箱:fuyouu#yandex.com[#换成@]投诉。我们会在15个工作日内删除。 但烦请转载时请标明出处:“本文转载于『浮游电影网』,原文地址:https://www.fuyouu.com/22188.html

评论吧骚年!

发表你的见解   

昵称*

E-mail*(建议输入,以便收到博主回复的提示邮件)

验证码*

您可以使用eMule或eMule Mod(Windows)、aMule(Win、Linux、Mac)等软件下载eD2k链接。。
eMule收藏集(.emulecollection)文件是您选中的所有链接的列表文件。eMule可以直接下载它们。
按住SHIFT键选择可以选中多个选择框。
可用文件名和大小选择器来选择文件。
文件名选择器帮您根据文件名称或后缀来选择文件。不分大小写。
符号使用:
和:空格( )、+
不包含:-
或:|
转义:一对英文引号("");
匹配开头:^
匹配结尾:$
例如:
选中所有名称中包含有“eMule”或“0.49c”字眼,但不包含有“exe”字眼的:emule|0.49c -exe
选中所有名称的开头是“eMule”,结尾是“0.49c”的:^emule 0.49c$
选中所有名称中带有“eMule 0.49c”的(必须是“eMule 0.49c”,中间没有别的字符,不能是“eMule fake 0.49c”),需要转义:"emule 0.49c"
大小选择器帮您根据文件大小选择文件。