当前位置: 首页 >> 海外电影 >> 巴黎两日情[中文字幕].2.Days.in.Paris.2007.BluRay.1080p.DTS.HDMA5.1.x265.10bit-CTRLHD 4.41GB >> 正文

巴黎两日情[中文字幕].2.Days.in.Paris.2007.BluRay.1080p.DTS.HDMA5.1.x265.10bit-CTRLHD 4.41GB

2022年05月15日 23:36:03     电影发布:来源于网络     电影分类:海外电影     评论(0)    

◎译 名 巴黎两日情 / 巴黎两日游 / 巴黎爱漫游 / 巴黎二日情

◎片 名 2 Days in Paris

◎年 代 2007

◎产 地 法国 / 德国

◎类 别 剧情 / 喜剧 / 爱情

◎语 言 英语 / 法语

◎上映日期 2007-05-17

◎IMDb链接 https://www.imdb.com/title/tt0841044/

◎豆瓣评分 7.2/10 (6010人评价)

◎豆瓣链接 https://movie.douban.com/subject/1981335/

◎片 长 96 分钟

◎导 演 朱莉·德尔佩 Julie Delpy (id:1036420)

◎编 剧 朱莉·德尔佩 Julie Delpy (id:1036420)

◎演 员 亚当·戈德堡 Adam Goldberg (id:1040542)

朱莉·德尔佩 Julie Delpy (id:1036420)

丹尼尔·布鲁赫 Daniel Brühl (id:1053566)

奇克·奥尔特加 Chick Ortega (id:1293645)

亚当·佐杜洛夫斯基 Adan Jodorowsky (id:1287746)

纳努·本纳穆 Nanou Benhamou (id:1307154)

艾伯特·德尔佩 Albert Delpy (id:1080736)

卢德维克·伯特希尔克 Ludovic Berthillot (id:1064558)

阿丽克西亚·兰道 Aleksia Landeau (id:1055102)

Hubert Toint Hubert Toint (id:1021454)

Verónica Redondo Moreno Verónica Redondo Moreno (id:1015812)

玛丽·佩里 Marie Pillet (id:1012636)

Thierry Potok Thierry Potok (id:1307445)

Charles Paviot Charles Paviot (id:1017400)

Hubert Toint Hubert Toint (id:1021454)

Christophe Mazodier Christophe Mazodier (id:1304819)

朱莉·德尔佩 Julie Delpy (id:1036420)

朱莉·德尔佩 Julie Delpy (id:1036420)

Lubomir Bakchev Lubomir Bakchev (id:1046294)

朱莉·德尔佩 Julie Delpy (id:1036420)

◎简 介

玛丽安(朱莉?黛比 饰)是来自法国的摄影师,她的男朋友杰克(亚当?戈登堡 饰)是美国的室内设计师,两人在纽约生活了两年,感情逐渐趋于平淡。为了找回失落的激情,两人放下一切去欧洲度假。在享受了完美的旅行,二人感情重新苏醒之后,玛丽安决定转到巴黎看望父母,顺便领回自己的小猫,对巴黎颇有幻想的杰克欣然同意。

然而,种种匪夷所思的事情随之而来:玛丽安的父母作风大胆,话题百无禁忌;玛丽安的前男友们纷纷出现,一个比一个疯狂……短短两天,杰克对天堂巴黎的幻想破灭,他的美国基因无法接受这一切。最终,玛丽安和杰克不得不坐下来谈谈未来,这次谈话也许是一个艰难的开始,或者仅仅是一个无奈的结束。

  1. ##### MediaInfo ######

  2. General

  3. Unique ID : 156024596069125318693821973227514839729 (0x75613E817825CB85B0D8A8E9725B42B1)

  4. Complete name : 2.Days.in.Paris.2007.BluRay.1080p.DTS.HDMA5.1.x265.10bit-CTRLHD.mkv

  5. Format : Matroska

  6. Format version : Version 4

  7. File size : 4.41 GiB

  8. Duration : 1 h 40 min

  9. Overall bit rate mode : Variable

  10. Overall bit rate : 6 293 kb/s

  11. Encoded date : UTC 2022-05-14 02:18:52

  12. Writing application : mkvmerge v67.0.0.76 ('Under Stars') 64-bit

  13. Writing library : libebml v1.4.2 + libmatroska v1.6.4

  14. Video

  15. ID : 1

  16. Format : HEVC

  17. Format/Info : High Efficiency Video Coding

  18. Format profile : Main [email protected]@Main

  19. Codec ID : V_MPEGH/ISO/HEVC

  20. Duration : 1 h 40 min

  21. Bit rate : 4 556 kb/s

  22. Width : 1 920 pixels

  23. Height : 1 048 pixels

  24. Display aspect ratio : 1.85:1

  25. Frame rate mode : Constant

  26. Frame rate : 23.976 (23976/1000/53354) FPS

  27. Color space : YUV

  28. Chroma subsampling : 4:2:0

  29. Bit depth : 10 bits

  30. Bits/(Pixel*Frame) : 0.094

  31. Stream size : 3.19 GiB (72%)

  32. Writing library : x265 3.5+36-9b59d4554:[Windows][GCC 11.2.0][64 bit] 10bit

  33. Encoding settings : cpuid=533541111039 / frame-threads=5 / numa-pools=32 / wpp / no-pmode / no-pme / no-psnr / no-ssim / log-level=2 / input-csp=1 / input-res=1920x1048 / interlace=0 / total-frames=0 / level-idc=0 / high-tier=1 / uhd-bd=0 / ref=6 / no-allow-non-conformance / no-repeat-headers / annexb / no-aud / no-eob / no-eos / no-hrd / info / hash=0 / no-temporal-layers / no-open-gop / min-keyint=23 / keyint=250 / gop-lookahead=0 / bframes=12 / b-adapt=2 / b-pyramid / bframe-bias=0 / rc-lookahead=48 / lookahead-slices=6 / NTMzNTQ=uuDQuD2mJt9fsCf / scenecut=40 / no-hist-scenecut / radl=0 / no-splice / no-intra-refresh / ctu=64 / min-cu-size=8 / rect / amp / max-tu-size=32 / tu-inter-depth=1 / tu-intra-depth=1 / limit-tu=0 / rdoq-level=0 / dynamic-rd=0.00 / no-ssim-rd / signhide / no-tskip / nr-intra=0 / nr-inter=0 / no-constrained-intra / no-strong-intra-smoothing / max-merge=3 / limit-refs=1 / no-limit-modes / me=3 / subme=7 / merange=64 / temporal-mvp / no-frame-dup / no-hme / weightp / weightb / no-analyze-src-pics / deblock=0:0 / no-sao / no-sao-non-deblock / rd=4 / selective-sao=0 / early-skip / rskip / no-fast-intra / no-tskip-fast / no-cu-lossless / b-intra / no-splitrd-skip / rdpenalty=0 / psy-rd=2.00 / psy-rdoq=0.00 / no-rd-refine / no-lossless / cbqpoffs=0 / crqpoffs=0 / rc=crf / crf=17.0 / qcomp=0.60 / qpstep=4 / stats-write=0 / stats-read=0 / ipratio=1.40 / pbratio=1.30 / aq-mode=1 / aq-strength=1.00 / cutree / zone-count=0 / no-strict-cbr / qg-size=32 / no-rc-grain / qpmax=69 / qpmin=0 / no-const-vbv / sar=0 / overscan=0 / videoformat=5 / range=0 / colorprim=2 / transfer=2 / colormatrix=2 / chromaloc=0 / display-window=0 / cll=0,0 / min-luma=0 / max-luma=1023 / log2-max-poc-lsb=8 / vui-timing-info / vui-hrd-info / slices=1 / no-opt-qp-pps / no-opt-ref-list-length-pps / no-multi-pass-opt-rps / scenecut-bias=0.05 / hist-threshold=0.03 / no-opt-cu-delta-qp / aq-motion / no-hdr10 / no-hdr10-opt / no-dhdr10-opt / no-idr-recovery-sei / analysis-reuse-level=0 / analysis-save-reuse-level=0 / analysis-load-reuse-level=0 / scale-factor=0 / refine-intra=0 / refine-inter=0 / refine-mv=1 / refine-ctu-distortion=0 / no-limit-sao / ctu-info=0 / no-lowpass-dct / refine-analysis-type=0 / copy-pic=1 / max-ausize-factor=1.0 / no-dynamic-refine / no-single-sei / no-hevc-aq / no-svt / no-field / qp-adaptation-range=1.00 / scenecut-aware-qp=0conformance-window-offsets / right=0 / bottom=0 / NTMzNTQ= / decoder-max-rate=0 / no-vbv-live-multi-pass

  34. Default : Yes

  35. Forced : No

  36. Audio

  37. ID : 2

  38. ID in the original source medium : 4353 (0x1101)

  39. Format : DTS XLL

  40. Format/Info : Digital Theater Systems

  41. Commercial name : DTS-HD Master Audio

  42. Codec ID : A_DTS

  43. Duration : 1 h 40 min

  44. Bit rate mode : Variable

  45. Bit rate : 1 663 kb/s

  46. Channel(s) : 6 channels

  47. Channel layout : C L R Ls Rs LFE

  48. Sampling rate : 48.0 kHz

  49. Frame rate : 93.750 FPS (512 SPF)

  50. Bit depth : 16 bits

  51. Compression mode : Lossless

  52. Stream size : 1.16 GiB (26%)

  53. Language : English

  54. Default : Yes

  55. Forced : No

  56. Original source medium : Blu-ray

  57. Text #1

  58. ID : 3

  59. ID in the original source medium : 4609 (0x1201)

  60. Format : PGS

  61. Muxing mode : zlib

  62. Codec ID : S_HDMV/PGS

  63. Codec ID/Info : Picture based subtitle format used on BDs/HD-DVDs

  64. Duration : 1 h 37 min

  65. Bit rate : 49.8 kb/s

  66. Count of elements : 2819

  67. Stream size : 34.7 MiB (1%)

  68. Title : CHS&ENG

  69. Language : Chinese

  70. Default : Yes

  71. Forced : No

  72. Original source medium : Blu-ray

  73. Text #2

  74. ID : 4

  75. ID in the original source medium : 4611 (0x1203)

  76. Format : PGS

  77. Muxing mode : zlib

  78. Codec ID : S_HDMV/PGS

  79. Codec ID/Info : Picture based subtitle format used on BDs/HD-DVDs

  80. Duration : 1 h 37 min

  81. Bit rate : 50.0 kb/s

  82. Count of elements : 2819

  83. Stream size : 34.8 MiB (1%)

  84. Title : CHT&ENG

  85. Language : Chinese

  86. Default : Yes

  87. Forced : No

  88. Original source medium : Blu-ray

  89. Text #3

  90. ID : 5

  91. ID in the original source medium : 4610 (0x1202)

  92. Format : PGS

  93. Muxing mode : zlib

  94. Codec ID : S_HDMV/PGS

  95. Codec ID/Info : Picture based subtitle format used on BDs/HD-DVDs

  96. Duration : 1 h 37 min

  97. Bit rate : 24.7 kb/s

  98. Count of elements : 2819

  99. Stream size : 17.2 MiB (0%)

  100. Title : CHS

  101. Language : Chinese

  102. Default : Yes

  103. Forced : No

  104. Original source medium : Blu-ray

  105. Text #4

  106. ID : 6

  107. ID in the original source medium : 4612 (0x1204)

  108. Format : PGS

  109. Muxing mode : zlib

  110. Codec ID : S_HDMV/PGS

  111. Codec ID/Info : Picture based subtitle format used on BDs/HD-DVDs

  112. Duration : 1 h 37 min

  113. Bit rate : 24.8 kb/s

  114. Count of elements : 2819

  115. Stream size : 17.3 MiB (0%)

  116. Title : CHT

  117. Language : Chinese

  118. Default : Yes

  119. Forced : No

  120. Original source medium : Blu-ray

  121. Menu

  122. 00:00:00.000 : en:??? 01 ???


复制代码



文件下载


除非特别注明,本文『巴黎两日情[中文字幕].2.Days.in.Paris.2007.BluRay.1080p.DTS.HDMA5.1.x265.10bit-CTRLHD 4.41GB』来源于互联网机器人自动抓取,非本站原创。 浮游电影网不对本文拥有版权,如有侵犯,请联系邮箱:fuyouu#yandex.com[#换成@]投诉。我们会在15个工作日内删除。 但烦请转载时请标明出处:“本文转载于『浮游电影网』,原文地址:https://www.fuyouu.com/22186.html

评论吧骚年!

发表你的见解   

昵称*

E-mail*(建议输入,以便收到博主回复的提示邮件)

验证码*

您可以使用eMule或eMule Mod(Windows)、aMule(Win、Linux、Mac)等软件下载eD2k链接。。
eMule收藏集(.emulecollection)文件是您选中的所有链接的列表文件。eMule可以直接下载它们。
按住SHIFT键选择可以选中多个选择框。
可用文件名和大小选择器来选择文件。
文件名选择器帮您根据文件名称或后缀来选择文件。不分大小写。
符号使用:
和:空格( )、+
不包含:-
或:|
转义:一对英文引号("");
匹配开头:^
匹配结尾:$
例如:
选中所有名称中包含有“eMule”或“0.49c”字眼,但不包含有“exe”字眼的:emule|0.49c -exe
选中所有名称的开头是“eMule”,结尾是“0.49c”的:^emule 0.49c$
选中所有名称中带有“eMule 0.49c”的(必须是“eMule 0.49c”,中间没有别的字符,不能是“eMule fake 0.49c”),需要转义:"emule 0.49c"
大小选择器帮您根据文件大小选择文件。