当前位置: 首页 >> 欧美电影 >> 人生遥控器[国英多音轨/中英字幕].Click.2006.BluRay.1080p.x265.10bit.3Audio-MiniHD 6.36GB >> 正文

人生遥控器[国英多音轨/中英字幕].Click.2006.BluRay.1080p.x265.10bit.3Audio-MiniHD 6.36GB

2022年05月15日 23:32:25     电影发布:来源于网络     电影分类:欧美电影     评论(0)    

◎译 名 人生遥控器 / 命运自选台(港) / 命运好好玩(台) / 神奇遥控器

◎片 名 Click

◎年 代 2006

◎产 地 美国

◎类 别 剧情 / 喜剧 / 家庭 / 奇幻

◎语 言 英语

◎上映日期 2007-04-20(中国大陆) / 2006-06-23(美国)

◎IMDb链接 https://www.imdb.com/title/tt0389860/

◎豆瓣评分 7.8/10 (130536人评价)

◎豆瓣链接 https://movie.douban.com/subject/1474185/

◎片 长 107 分钟

◎导 演 弗兰克·克拉斯 Frank Coraci (id:1005041)

◎编 剧 史蒂夫·科伦 Steve Koren (id:1320600)

马克·奥基夫 Mark O'Keefe (id:1410662)

◎演 员 亚当·桑德勒 Adam Sandler (id:1054523)

凯特·贝金赛尔 Kate Beckinsale (id:1003487)

克里斯托弗·沃肯 Christopher Walken (id:1053574)

大卫·哈塞尔霍夫 David Hasselhoff (id:1010601)

亨利·温克勒 Henry Winkler (id:1041140)

朱莉·卡夫娜 Julie Kavner (id:1049754)

西恩·奥斯汀 Sean Astin (id:1031818)

约瑟夫·卡斯坦诺 Joseph Castanon (id:1181475)

乔纳·希尔 Jonah Hill (id:1036302)

杰克·霍夫曼 Jake Hoffman (id:1032175)

塔图姆·麦克凯恩 Tatum McCann (id:1307696)

洛琳·尼科尔森 Lorraine Nicholson (id:1000212)

凯蒂·卡西迪 Katie Cassidy (id:1036318)

卡梅隆·莫纳汉 Cameron Monaghan (id:1192535)

詹妮佛·库里奇 Jennifer Coolidge (id:1049511)

瑞秋·德拉彻 Rachel Dratch (id:1032014)

苏菲·蒙克 Sophie Monk (id:1036482)

米歇尔·隆巴多 Michelle Lombardo (id:1183845)

珍娜·克拉默 Jana Kramer (id:1189778)

尼克·斯旺森 Nick Swardson (id:1027834)

西德尼·甘尼斯 Sidney Ganis (id:1014575)

井上英治 Eiji Inoue (id:1421934)

弗兰克·克拉斯 Frank Coraci (id:1005041)

提姆·赫利希 Tim Herlihy (id:1028003)

Ireesha Ireesha (id:1348203)

Emilio Cast (id:1227171)

莉莉·莫·辛 Lily Mo Sheen (id:1004937)

卡罗琳·赫尼塞 Carolyn Hennesy (id:1100298)

Elliott Cho Elliott Cho (id:1210070)

Robert Jones Robert Jones (id:1310569)

马克·可汗 Marco Khan (id:1321919)

桃乐丝·奥里奥丹 Dolores O'riordan (id:1126880)

Sally Insul Sally Insul (id:1216617)

特蕊萨·巴雷拉 Theresa Barrera (id:1343760)

Abra Chouinard (id:1236736)

布莱克·克拉克 Blake Clark (id:1006981)

泰瑞·克鲁斯 Terry Crews (id:1022577)

达隆·亨廷顿 Dalon Huntington (id:1204567)

珍·约翰逊 Jen Johnson (id:1230283)

詹姆斯·厄尔·琼斯 James Earl Jones (id:1013800)

特雷西·金 Traycee King (id:1236684)

罗伯·施奈德 Rob Schneider (id:1040519)

比利·斯洛特 Billy Slaughter (id:1205890)

克莱斯特·塞森 Celeste Thorson (id:1239184)

张杰 Jie Zhang (id:1320632)

尼尔·H·莫瑞兹 Neal H. Moritz (id:1019194)

提姆·赫利希 Tim Herlihy (id:1028003)

亚当·桑德勒 Adam Sandler (id:1054523)

鲁伯特·格雷格森-威廉姆斯 Rupert Gregson-Williams (id:1285429)

迪安·塞姆勒 Dean Semler (id:1276583)

Jeff Gourson Jeff Gourson (id:1285246)

Roger Mussenden Roger Mussenden (id:1292799)

加里·费迪斯 Gary Fettis (id:1283648)

Jeffrey Mossa Jeffrey Mossa (id:1292618)

比尔·科尔索 Bill Corso (id:1281317)

里克·贝克 Rick Baker (id:1036707)

史蒂夫·普劳蒂 Steve Prouty (id:1294954)

Thomas Real Thomas Real (id:1295323)

Jamie Kelman Jamie Kelman (id:1288362)

Yoichi Art Sakamoto Yoichi Art Sakamoto (id:1140584)

Bill Sturgeon Bill Sturgeon (id:1298591)

辻一弘 Kazuhiro Tsuji (id:1156237)

Margaret Prentice Margaret Prentice (id:1278536)

西尔维亚·纳瓦 Sylvia Nava (id:1292952)

克林顿·维恩 Clinton Wayne (id:1055970)

西德妮·科内尔 Cydney Cornell (id:1281289)

吉姆·瑞吉尔 Jim Rygiel (id:1296402)

莱斯·伯恩斯汀 Les Bernstien (id:1278498)

帕特里克·克兰斯 Patrick Clancey (id:1071903)

芮妮·泰姆尼 Renée Tymn (id:1067517)

David Taritero David Taritero (id:1298923)

彼得·特拉弗斯 Peter G. Travers (id:1299485)

凯里·维尔加斯 Carey Villegas (id:1300081)

埃德森·威廉姆斯 Edson Williams (id:1043237)

科林·施特劳斯 Colin Strause (id:1041429)

Roxanne Dorman Roxanne Dorman (id:1081123)

Debbie Denise Debbie Denise (id:1276381)

约翰·布蒂乌 John Butiu (id:1199461)

Blaine Kennison Blaine Kennison (id:1288414)

Greg Groenekamp Greg Groenekamp (id:1285507)

Andrew Frankel Andrew Frankel (id:1213748)

Chris Antonini Chris Antonini (id:1218346)

吉姆·戈尔曼 Jim Gorman (id:1285203)

丹尼塔·斯劳格赫特尔 Danita Slaughter (id:1239865)

克里斯·英格索尔 Chris Ingersoll (id:1102738)

格雷格·施特劳斯 Greg Strause (id:1014448)

胡安·卡洛斯·巴尔加斯 Juan Carlos Vargas (id:1038055)

Bruce Jurgens Bruce Jurgens (id:1012898)

凯西·艾伦 Casey Allen (id:1020582)

吉姆·瑞吉尔 Jim Rygiel (id:1296402)

◎简 介

建筑师迈可·纽曼(亚当·桑德勒 饰)每天都过着忙碌的生活。事业有成的他纵使有个美满的家庭,美丽贤惠的妻子唐娜(凯特·贝金赛尔 饰),可爱的一对儿女,他总是没时间好好享受天伦之乐,为了晋升而逃避甚至忘记了与家人们的约定。

迈可正寻找一个万能遥控器,一个神秘身份的老板莫蒂( 克里斯托弗·沃肯 饰)给了他一个。当迈可回到家尝试使用后才发觉了这个遥控的神奇功能:他可以利用这个遥控器控制自己的生活时间,这对他来说是件极其兴奋的事情,他可以逃过那些繁琐的事,随心所欲到达自己想要的时段。

直到有一天,这个遥控器不再受他的控制了,他的生活变得乱七八糟,时间迅速向前走,而他也错过了很多重要的事情:他迅速的成为公司的高层、他的妻子离开了他与别人结婚、父亲逝世、儿子结婚等等,他才后悔自己故意错过的东西,而他也来到了弥留之际,他努力要告诫儿子不要重蹈覆辙,多把时间留给家人…...

◎获奖情况 (共2项)

第79届奥斯卡金像奖 (2007)

最佳化妆(提名)

第16届MTV电影奖 (2007)

MTV电影奖 最佳喜剧表演(提名)

└──亚当·桑德勒 (id:1054523)

  1. ##### MediaInfo ######

  2. General

  3. Unique ID : 197975894162366463927244799471841570053 (0x94F0C5314B37AADC9D68ADF3DCCDED05)

  4. Complete name : Click.2006.BluRay.1080p.x265.10bit.3Audio-MiniHD.mkv

  5. Format : Matroska

  6. Format version : Version 4

  7. File size : 6.36 GiB

  8. Duration : 1 h 47 min

  9. Overall bit rate : 8 472 kb/s

  10. Encoded date : UTC 2017-01-12 07:30:55

  11. Writing application : mkvmerge v9.2.0 ('Photograph') 32bit

  12. Writing library : libebml v1.3.3 + libmatroska v1.4.4

  13. Video

  14. ID : 1

  15. Format : HEVC

  16. Format/Info : High Efficiency Video Coding

  17. Format profile : Main [email protected]@Main

  18. Codec ID : V_MPEGH/ISO/HEVC

  19. Duration : 1 h 47 min

  20. Bit rate : 6 768 kb/s

  21. Width : 1 920 pixels

  22. Height : 1 040 pixels

  23. Display aspect ratio : 1.85:1

  24. Frame rate mode : Constant

  25. Frame rate : 23.976 (24000/1001/53354) FPS

  26. Color space : YUV

  27. Chroma subsampling : 4:2:0

  28. Bit depth : 10 bits

  29. Bits/(Pixel*Frame) : 0.141

  30. Stream size : 5.08 GiB (80%)

  31. Writing library : x265 2.2+5-e40db0bdde4a:[Windows][GCC 6.2.0][64 bit] 10bit

  32. Encoding settings : cpuid=533541173503 / frame-threads=6 / numa-pools=36 / wpp / no-pmode / no-pme / no-psnr / no-ssim / log-level=2 / input-csp=1 / input-res=1920x1040 / interlace=0 / total-frames=154681 / level-idc=0 / high-tier=1 / uhd-bd=0 / ref=5 / no-allow-non-conformance / no-repeat-headers / annexb / no-aud / no-hrd / info / hash=0 / no-temporal-layers / no-open-gop / min-keyint=1 / keyint=360 / bframes=8 / b-adapt=2 / b-pyramid / bframe-bias=0 / rc-lookahead=60 / lookahead-slices=4 / NTMzNTQ=uuDQuD2mJt9fsCf / scenecut=40 / no-intra-refresh / ctu=32 / min-cu-size=8 / rect / no-amp / max-tu-size=16 / tu-inter-depth=2 / tu-intra-depth=2 / limit-tu=0 / rdoq-level=2 / signhide / no-tskip / nr-intra=0 / nr-inter=0 / no-constrained-intra / no-strong-intra-smoothing / max-merge=3 / limit-refs=3 / limit-modes / me=3 / subme=5 / merange=25 / temporal-mvp / weightp / weightb / no-analyze-src-pics / deblock=-1:-1 / no-sao / no-sao-non-deblock / rd=4 / no-early-skip / rskip / no-fast-intra / no-tskip-fast / no-cu-lossless / b-intra / rdpenalty=1 / psy-rd=2.00 / psy-rdoq=5.00 / no-rd-refine / analysis-mode=0 / no-lossless / cbqpoffs=-2 / crqpoffs=-2 / rc=crf / crf=21.0 / qcomp=0.65 / qpstep=4 / stats-write=0 / stats-read=0 / ipratio=1.40 / pbratio=1.30 / aq-mode=3 / aq-strength=0.80 / cutree / zone-count=0 / no-strict-cbr / qg-size=16 / no-rc-grain / qpmax=69 / qpmin=0 / sar=0 / overscan=0 / videoformat=5 / range=0 / colorprim=1 / transfer=2 / colormatrix=2 / chromaloc=0 / display-window=0 / max-cll=0,0 / min-luma=0 / max-luma=1023 / log2-max-poc-lsb=8 / vui-timing-info / vui-hrd-info / slices=1 / opt-qp-pps / opt-ref-list-length-pps / no-multi-pass-opt-rps / scenecut-bias=0.05 / no-opt-cu-delta-qp

  33. Default : Yes

  34. Forced : No

  35. Color range : Limited

  36. Color primaries : BT.709

  37. Audio #1

  38. ID : 2

  39. Format : AC-3

  40. Format/Info : Audio Coding 3

  41. Commercial name : Dolby Digital

  42. Codec ID : A_AC3

  43. Duration : 1 h 47 min

  44. Bit rate mode : Constant

  45. Bit rate : 640 kb/s

  46. Channel(s) : 6 channels

  47. Channel layout : L R C LFE Ls Rs

  48. Sampling rate : 48.0 kHz

  49. Frame rate : 31.250 FPS (1536 SPF)

  50. Compression mode : Lossy

  51. Stream size : 492 MiB (8%)

  52. Language : English

  53. Service kind : Complete Main

  54. Default : Yes

  55. Forced : No

  56. Audio #2

  57. ID : 3

  58. Format : AC-3

  59. Format/Info : Audio Coding 3

  60. Commercial name : Dolby Digital

  61. Codec ID : A_AC3

  62. Duration : 1 h 47 min

  63. Bit rate mode : Constant

  64. Bit rate : 448 kb/s

  65. Channel(s) : 6 channels

  66. Channel layout : L R C LFE Ls Rs

  67. Sampling rate : 48.0 kHz

  68. Frame rate : 31.250 FPS (1536 SPF)

  69. Compression mode : Lossy

  70. Stream size : 345 MiB (5%)

  71. Language : Chinese

  72. Service kind : Complete Main

  73. Default : No

  74. Forced : No

  75. Audio #3

  76. ID : 4

  77. Format : AC-3

  78. Format/Info : Audio Coding 3

  79. Commercial name : Dolby Digital

  80. Codec ID : A_AC3

  81. Duration : 1 h 47 min

  82. Bit rate mode : Constant

  83. Bit rate : 448 kb/s

  84. Channel(s) : 6 channels

  85. Channel layout : L R C LFE Ls Rs

  86. Sampling rate : 48.0 kHz

  87. Frame rate : 31.250 FPS (1536 SPF)

  88. Compression mode : Lossy

  89. Stream size : 345 MiB (5%)

  90. Language : Chinese

  91. Service kind : Complete Main

  92. Default : No

  93. Forced : No

  94. Text #1

  95. ID : 5

  96. Format : PGS

  97. Muxing mode : zlib

  98. Codec ID : S_HDMV/PGS

  99. Codec ID/Info : Picture based subtitle format used on BDs/HD-DVDs

  100. Language : English

  101. Default : Yes

  102. Forced : No

  103. Text #2

  104. ID : 6

  105. Format : PGS

  106. Muxing mode : zlib

  107. Codec ID : S_HDMV/PGS

  108. Codec ID/Info : Picture based subtitle format used on BDs/HD-DVDs

  109. Language : Chinese

  110. Default : No

  111. Forced : No

  112. Text #3

  113. ID : 7

  114. Format : PGS

  115. Muxing mode : zlib

  116. Codec ID : S_HDMV/PGS

  117. Codec ID/Info : Picture based subtitle format used on BDs/HD-DVDs

  118. Language : Chinese

  119. Default : No

  120. Forced : No

  121. Text #4

  122. ID : 8

  123. Format : PGS

  124. Muxing mode : zlib

  125. Codec ID : S_HDMV/PGS

  126. Codec ID/Info : Picture based subtitle format used on BDs/HD-DVDs

  127. Language : Chinese

  128. Default : No

  129. Forced : No

  130. Text #5

  131. ID : 9

  132. Format : PGS

  133. Muxing mode : zlib

  134. Codec ID : S_HDMV/PGS

  135. Codec ID/Info : Picture based subtitle format used on BDs/HD-DVDs

  136. Language : Chinese

  137. Default : No

  138. Forced : No

  139. Text #6

  140. ID : 10

  141. Format : PGS

  142. Muxing mode : zlib

  143. Codec ID : S_HDMV/PGS

  144. Codec ID/Info : Picture based subtitle format used on BDs/HD-DVDs

  145. Language : Chinese

  146. Default : No

  147. Forced : No

  148. Text #7

  149. ID : 11

  150. Format : PGS

  151. Muxing mode : zlib

  152. Codec ID : S_HDMV/PGS

  153. Codec ID/Info : Picture based subtitle format used on BDs/HD-DVDs

  154. Language : Chinese

  155. Default : No

  156. Forced : No

  157. Menu

  158. 00:00:00.000 : en:Chapter 01

  159. 00:07:33.202 : en:Chapter 02

  160. 00:11:46.288 : en:Chapter 03

  161. 00:18:26.313 : en:Chapter 04

  162. 00:22:08.535 : en:Chapter 05

  163. 00:31:15.874 : en:Chapter 06

  164. 00:37:47.473 : en:Chapter 07

  165. 00:42:38.806 : en:Chapter 08

  166. 00:49:20.707 : en:Chapter 09

  167. 00:54:21.549 : en:Chapter 10

  168. 00:59:31.401 : en:Chapter 11

  169. 01:06:17.223 : en:Chapter 12

  170. 01:14:12.656 : en:Chapter 13

  171. 01:19:39.024 : en:Chapter 14

  172. 01:29:18.853 : en:Chapter 15

  173. 01:35:02.613 : en:Chapter 16


复制代码



文件下载


除非特别注明,本文『人生遥控器[国英多音轨/中英字幕].Click.2006.BluRay.1080p.x265.10bit.3Audio-MiniHD 6.36GB』来源于互联网机器人自动抓取,非本站原创。 浮游电影网不对本文拥有版权,如有侵犯,请联系邮箱:fuyouu#yandex.com[#换成@]投诉。我们会在15个工作日内删除。 但烦请转载时请标明出处:“本文转载于『浮游电影网』,原文地址:https://www.fuyouu.com/22183.html

评论吧骚年!

发表你的见解   

昵称*

E-mail*(建议输入,以便收到博主回复的提示邮件)

验证码*

您可以使用eMule或eMule Mod(Windows)、aMule(Win、Linux、Mac)等软件下载eD2k链接。。
eMule收藏集(.emulecollection)文件是您选中的所有链接的列表文件。eMule可以直接下载它们。
按住SHIFT键选择可以选中多个选择框。
可用文件名和大小选择器来选择文件。
文件名选择器帮您根据文件名称或后缀来选择文件。不分大小写。
符号使用:
和:空格( )、+
不包含:-
或:|
转义:一对英文引号("");
匹配开头:^
匹配结尾:$
例如:
选中所有名称中包含有“eMule”或“0.49c”字眼,但不包含有“exe”字眼的:emule|0.49c -exe
选中所有名称的开头是“eMule”,结尾是“0.49c”的:^emule 0.49c$
选中所有名称中带有“eMule 0.49c”的(必须是“eMule 0.49c”,中间没有别的字符,不能是“eMule fake 0.49c”),需要转义:"emule 0.49c"
大小选择器帮您根据文件大小选择文件。