当前位置: 首页 >> 欧美电影 >> 碟中谍4[国英多音轨/中英字幕].Mission.Impossible.IV.Ghost.Protocol.2011.BluRay.1080p.x265.10bit.2Audio-MiniHD 6.6 >> 正文

碟中谍4[国英多音轨/中英字幕].Mission.Impossible.IV.Ghost.Protocol.2011.BluRay.1080p.x265.10bit.2Audio-MiniHD 6.6

2022年05月15日 23:29:55     电影发布:来源于网络     电影分类:欧美电影     评论(0)    

◎译 名 碟中谍4 / 职业特工队:鬼影约章(港) / 不可能的任务:鬼影行动(台) / 不可能的任务4 / 职业特工队4 / 碟中谍:幽灵协议 / Mission: Impossible 4 / M: I 4

◎片 名 Mission: Impossible - Ghost Protocol

◎年 代 2011

◎产 地 美国

◎类 别 动作 / 惊悚 / 冒险

◎语 言 英语 / 俄语 / 法语 / 阿拉伯语 / 瑞典语

◎上映日期 2012-01-28(中国大陆) / 2011-12-21(美国)

◎IMDb链接 https://www.imdb.com/title/tt1229238/

◎豆瓣评分 8.3/10 (403069人评价)

◎豆瓣链接 https://movie.douban.com/subject/3068206/

◎片 长 133分钟

◎导 演 布拉德·伯德 Brad Bird (id:1027204)

◎编 剧 布鲁斯·盖勒 Bruce Geller (id:1028370)

乔什·阿佩尔鲍姆 Josh Appelbaum (id:1341524)

安德烈·内梅克 André Nemec (id:1341525)

斯蒂文·泽里安 Steven Zaillian (id:1004913)

大卫·凯普 David Koepp (id:1019071)

◎演 员 汤姆·克鲁斯 Tom Cruise (id:1054435)

杰瑞米·雷纳 Jeremy Renner (id:1013770)

西蒙·佩吉 Simon Pegg (id:1035648)

宝拉·巴顿 Paula Patton (id:1036350)

蕾雅·赛杜 Léa Seydoux (id:1009295)

迈克尔·恩奎斯特 Michael Nyqvist (id:1041155)

弗拉基米尔·马什科夫 Vladimir Mashkov (id:1036888)

萨穆里·埃德尔曼 Samuli Edelmann (id:1083213)

伊万·舍甫多夫 Ivan Shvedoff (id:1297538)

亚尼·卡普 Anil Kapoor (id:1013932)

乔什·哈洛威 Josh Holloway (id:1010534)

帕维尔·克里兹 Pavel Kríz (id:1108424)

米拉吉·格尔比克 Miraj Grbic (id:1181259)

伊利亚·沃里克 Ilia Volok (id:1346238)

戈兰·纳沃耶克 Goran Navojec (id:1127650)

拉迪斯拉夫·伯兰 Ladislav Beran (id:1005359)

Tomás Valík Tomás Valík (id:1153372)

兰迪·霍尔 Randy Hall (id:1285864)

维塔利·克拉夫琴科 Vitaly Kravchenko (id:1108142)

麦克·多普德 Mike Dopud (id:1088714)

马丁·哈伯 Martin Hub (id:1287056)

Ivo Novák Ivo Novák (id:1209832)

Marek Dobes Marek Dobes (id:1005725)

克劳迪娅·瓦西科娃 Claudia Vasekova (id:1169754)

布莱恩·卡斯佩 Brian Caspe (id:1185866)

佩特拉·卢斯提戈瓦 Petra Lustigova (id:1115232)

艾普尔·斯图瓦特 April Stewart (id:1159270)

安德雷斯·魏斯涅夫斯基 Andreas Wisniewski (id:1165729)

迪米特里·柴波维特斯基 Dmitry Chepovetsky (id:1397349)

道恩·楚拜 Dawn Chubai (id:1399641)

凯斯·达拉斯 Keith Dallas (id:1423832)

Tammy Hui Tammy Hui (id:1344076)

大卫·斯图尔特 David Stuart (id:1042438)

Sabrina Morris Sabrina Morris (id:1351826)

杰西卡·贝尔金 Jessica Belkin (id:1367068)

斯蒂芬·罗波 Stephen Lobo (id:1212008)

米歇尔·莫纳汉 Michelle Monaghan (id:1000015)

阿里·奥洛米 Ali Olomi (id:1227376)

文·瑞姆斯 Ving Rhames (id:1048129)

米哈利·绍鲍多什 Mihály Szabados (id:1157510)

汤姆·威尔金森 Tom Wilkinson (id:1036397)

米尔黑·考塔兹 Milhem Cortaz (id:1037469)

汤姆·克鲁斯 Tom Cruise (id:1054435)

J·J·艾布拉姆斯 J.J. Abrams (id:1010542)

大卫·埃里森 David Ellison (id:1014408)

布莱恩·伯克 Bryan Burk (id:1014367)

迈克·吉亚奇诺 Michael Giacchino (id:1027937)

罗伯特·艾斯威特 Robert Elswit (id:1048280)

玛汀娜·泰尔-阿蔻珀瓦 Martina Ter-Akopowá (id:1466544)

迈克尔·卡普兰 Michael Kaplan (id:1288109)

莫娜·西肖迪亚 Mona Sishodia (id:1470433)

保罗·阿克里 Paolo Acri (id:1404816)

◎简 介

特工汉纳威(乔什·哈洛威 Josh Holloway 饰)执行任务时遇害,核机密文件被女杀手莫伦(蕾雅·赛杜 Léa Seydoux 饰)截获。为了找回文件,特工班吉(西蒙·佩吉 Simon Pegg 饰)和特工简(宝拉·巴顿 Paula Patton 饰)从俄罗斯监狱救出了伊桑·亨特(汤姆·克鲁斯 Tom Cruise 饰)。他们接受的幽灵协议任务便是从克林姆林宫盗取核军事密码。然而,当他们接近目标时,却发现被恐怖分子亨德里克斯(迈克尔·恩奎斯特 Michael Nyqvist 饰)捷足先登,抢走了核军事密码。在爆炸中,亨特受困医院,遭俄特工的追捕,幸好他身手矫捷,才化险为夷。不过,亨特的上司也在混乱中丧生,只剩下其助手布兰德(杰瑞米·雷纳 Jeremy Renner 饰)与亨特死里逃生,加上班吉和简,逼上绝境的四人开始了最后一搏,从迪拜到印度,他...

◎获奖情况 (共6项)

第21届MTV电影奖 (2012)

MTV电影奖 最佳打斗(提名)

MTV电影奖 最虐心的表演(提名)

└──汤姆·克鲁斯 (id:1054435)

第14届美国青少年选择奖 (2012)

最佳动作片(提名)

最佳动作片男演员(提名)

└──汤姆·克鲁斯 (id:1054435)

最佳动作片女演员(提名)

└──宝拉·巴顿 (id:1036350)

第3届豆瓣电影鑫像奖 (2013)

鑫豆单元 最佳视觉效果(提名)

  1. ##### MediaInfo ######

  2. General

  3. Unique ID : 179648367021543002721078328948289862897 (0x87270456E1A713AEA33B20A2E7567CF1)

  4. Complete name : Mission.Impossible.IV.Ghost.Protocol.2011.BluRay.1080p.x265.10bit.2Audio-MiniHD.mkv

  5. Format : Matroska

  6. Format version : Version 4

  7. File size : 6.59 GiB

  8. Duration : 2 h 12 min

  9. Overall bit rate : 7 102 kb/s

  10. Encoded date : UTC 2016-03-28 01:54:49

  11. Writing application : mkvmerge v7.5.0 ('Glass Culture') 64bit built on Jan 4 2015 16:48:44

  12. Writing library : libebml v1.3.1 + libmatroska v1.4.2

  13. Video

  14. ID : 1

  15. Format : HEVC

  16. Format/Info : High Efficiency Video Coding

  17. Codec ID : V_MPEGH/ISO/HEVC

  18. Duration : 2 h 12 min

  19. Bit rate : 5 681 kb/s

  20. Width : 1 920 pixels

  21. Height : 800 pixels

  22. Display aspect ratio : 2.40:1

  23. Frame rate mode : Constant

  24. Frame rate : 23.976 (24000/1001/53354) FPS

  25. Bits/(Pixel*Frame) : 0.154

  26. Stream size : 5.28 GiB (80%)

  27. Default : Yes

  28. Forced : No

  29. Audio #1

  30. ID : 2

  31. Format : AC-3

  32. Format/Info : Audio Coding 3

  33. Commercial name : Dolby Digital

  34. Codec ID : A_AC3

  35. Duration : 2 h 12 min

  36. Bit rate mode : Constant

  37. Bit rate : 640 kb/s

  38. Channel(s) : 6 channels

  39. Channel layout : L R C LFE Ls Rs

  40. Sampling rate : 48.0 kHz

  41. Frame rate : 31.250 FPS (1536 SPF)

  42. Compression mode : Lossy

  43. Stream size : 609 MiB (9%)

  44. Language : English

  45. Service kind : Complete Main

  46. Default : Yes

  47. Forced : No

  48. Audio #2

  49. ID : 3

  50. Format : AC-3

  51. Format/Info : Audio Coding 3

  52. Commercial name : Dolby Digital

  53. Codec ID : A_AC3

  54. Duration : 2 h 12 min

  55. Bit rate mode : Constant

  56. Bit rate : 640 kb/s

  57. Channel(s) : 6 channels

  58. Channel layout : L R C LFE Ls Rs

  59. Sampling rate : 48.0 kHz

  60. Frame rate : 31.250 FPS (1536 SPF)

  61. Compression mode : Lossy

  62. Stream size : 609 MiB (9%)

  63. Language : Chinese

  64. Service kind : Complete Main

  65. Default : No

  66. Forced : No

  67. Text #1

  68. ID : 4

  69. Format : PGS

  70. Muxing mode : zlib

  71. Codec ID : S_HDMV/PGS

  72. Codec ID/Info : Picture based subtitle format used on BDs/HD-DVDs

  73. Language : English

  74. Default : Yes

  75. Forced : No

  76. Text #2

  77. ID : 5

  78. Format : PGS

  79. Muxing mode : zlib

  80. Codec ID : S_HDMV/PGS

  81. Codec ID/Info : Picture based subtitle format used on BDs/HD-DVDs

  82. Language : English

  83. Default : No

  84. Forced : No

  85. Text #3

  86. ID : 6

  87. Format : PGS

  88. Muxing mode : zlib

  89. Codec ID : S_HDMV/PGS

  90. Codec ID/Info : Picture based subtitle format used on BDs/HD-DVDs

  91. Language : Chinese

  92. Default : No

  93. Forced : No

  94. Text #4

  95. ID : 7

  96. Format : PGS

  97. Muxing mode : zlib

  98. Codec ID : S_HDMV/PGS

  99. Codec ID/Info : Picture based subtitle format used on BDs/HD-DVDs

  100. Language : Chinese

  101. Default : No

  102. Forced : No

  103. Text #5

  104. ID : 8

  105. Format : PGS

  106. Muxing mode : zlib

  107. Codec ID : S_HDMV/PGS

  108. Codec ID/Info : Picture based subtitle format used on BDs/HD-DVDs

  109. Language : Chinese

  110. Default : No

  111. Forced : No

  112. Text #6

  113. ID : 9

  114. Format : PGS

  115. Muxing mode : zlib

  116. Codec ID : S_HDMV/PGS

  117. Codec ID/Info : Picture based subtitle format used on BDs/HD-DVDs

  118. Language : Chinese

  119. Default : No

  120. Forced : No

  121. Text #7

  122. ID : 10

  123. Format : PGS

  124. Muxing mode : zlib

  125. Codec ID : S_HDMV/PGS

  126. Codec ID/Info : Picture based subtitle format used on BDs/HD-DVDs

  127. Language : Chinese

  128. Default : No

  129. Forced : No

  130. Menu

  131. 00:00:00.000 : :Chapter 01

  132. 00:04:41.906 : :Chapter 02

  133. 00:11:28.896 : :Chapter 03

  134. 00:20:01.950 : :Chapter 04

  135. 00:27:35.320 : :Chapter 05

  136. 00:33:28.172 : :Chapter 06

  137. 00:38:18.087 : :Chapter 07

  138. 00:44:46.100 : :Chapter 08

  139. 00:51:37.219 : :Chapter 09

  140. 00:56:05.153 : :Chapter 10

  141. 01:02:50.183 : :Chapter 11

  142. 01:09:17.820 : :Chapter 12

  143. 01:16:32.379 : :Chapter 13

  144. 01:22:18.516 : :Chapter 14

  145. 01:31:17.054 : :Chapter 15

  146. 01:35:57.376 : :Chapter 16

  147. 01:42:49.913 : :Chapter 17

  148. 01:51:01.780 : :Chapter 18

  149. 01:58:26.390 : :Chapter 19

  150. 02:05:58.842 : :Chapter 20


复制代码



文件下载


除非特别注明,本文『碟中谍4[国英多音轨/中英字幕].Mission.Impossible.IV.Ghost.Protocol.2011.BluRay.1080p.x265.10bit.2Audio-MiniHD 6.6』来源于互联网机器人自动抓取,非本站原创。 浮游电影网不对本文拥有版权,如有侵犯,请联系邮箱:fuyouu#yandex.com[#换成@]投诉。我们会在15个工作日内删除。 但烦请转载时请标明出处:“本文转载于『浮游电影网』,原文地址:https://www.fuyouu.com/22181.html

评论吧骚年!

发表你的见解   

昵称*

E-mail*(建议输入,以便收到博主回复的提示邮件)

验证码*

您可以使用eMule或eMule Mod(Windows)、aMule(Win、Linux、Mac)等软件下载eD2k链接。。
eMule收藏集(.emulecollection)文件是您选中的所有链接的列表文件。eMule可以直接下载它们。
按住SHIFT键选择可以选中多个选择框。
可用文件名和大小选择器来选择文件。
文件名选择器帮您根据文件名称或后缀来选择文件。不分大小写。
符号使用:
和:空格( )、+
不包含:-
或:|
转义:一对英文引号("");
匹配开头:^
匹配结尾:$
例如:
选中所有名称中包含有“eMule”或“0.49c”字眼,但不包含有“exe”字眼的:emule|0.49c -exe
选中所有名称的开头是“eMule”,结尾是“0.49c”的:^emule 0.49c$
选中所有名称中带有“eMule 0.49c”的(必须是“eMule 0.49c”,中间没有别的字符,不能是“eMule fake 0.49c”),需要转义:"emule 0.49c"
大小选择器帮您根据文件大小选择文件。