当前位置: 首页 >> 欧美电影 >> 碟中谍[国英多音轨/中英字幕].Mission.Impossible.1996.BluRay.1080p.x265.10bit.2Audio-MiniHD 6.42GB >> 正文

碟中谍[国英多音轨/中英字幕].Mission.Impossible.1996.BluRay.1080p.x265.10bit.2Audio-MiniHD 6.42GB

2022年05月15日 23:00:26     电影发布:来源于网络     电影分类:欧美电影     评论(0)    

◎译 名 碟中谍 / 职业特工队(港) / 不可能的任务(台) / M:I

◎片 名 Mission: Impossible

◎年 代 1996

◎产 地 美国

◎类 别 动作 / 惊悚 / 冒险

◎语 言 英语 / 捷克语 / 乌克兰语 / 法语

◎上映日期 1996-05-22(美国)

◎IMDb链接 https://www.imdb.com/title/tt0117060/

◎豆瓣评分 8.2/10 (238485人评价)

◎豆瓣链接 https://movie.douban.com/subject/1292484/

◎片 长 110 分钟

◎导 演 布莱恩·德·帕尔玛 Brian De Palma (id:1012516)

◎编 剧 大卫·凯普 David Koepp (id:1019071)

罗伯特·汤 Robert Towne (id:1036789)

斯蒂文·泽里安 Steven Zaillian (id:1004913)

布鲁斯·盖勒 Bruce Geller (id:1028370)

◎演 员 汤姆·克鲁斯 Tom Cruise (id:1054435)

强·沃特 Jon Voight (id:1013838)

艾曼纽·贝阿 Emmanuelle Béart (id:1041012)

亨利·科泽尼 Henry Czerny (id:1007013)

让·雷诺 Jean Reno (id:1025182)

文·瑞姆斯 Ving Rhames (id:1048129)

克里斯汀·斯科特·托马斯 Kristin Scott Thomas (id:1021997)

瓦妮莎·雷德格雷夫 Vanessa Redgrave (id:1004576)

茵格保加·达坤耐特 Ingeborga Dapkunaite (id:1005054)

瓦伦蒂娜·雅库尼亚 Valentina Yakunina (id:1343887)

马雷克·瓦苏特 Marek Vasut (id:1160681)

John McLaughlin John McLaughlin (id:1120941)

罗尔夫·萨克森 Rolf Saxon (id:1357263)

卡雷尔·多布雷 Karel Dobry (id:1314111)

安德雷斯·魏斯涅夫斯基 Andreas Wisniewski (id:1165729)

Gaston Subert Gaston Subert (id:1150215)

里科·罗斯 Ricco Ross (id:1148330)

Bob Friend Bob Friend (id:1079531)

安娜贝尔·穆利恩 Annabel Mullion (id:1414207)

加里克·哈根 Garrick Hagon (id:1331548)

Jirina Trebická Jirina Trebická (id:1157941)

山姆·道格拉斯 Sam Douglas (id:1321473)

奥莱加·费多罗 Olegar Fedoro (id:1086959)

大卫·施奈德 David Schneider (id:1019257)

海伦·林赛 Helen Lindsay (id:1345021)

兰德尔·保罗 Randall Paul (id:1367906)

迈克尔·罗杰斯 Michael Rogers (id:1138041)

劳拉·布鲁克 Laura Brook (id:1391089)

梅丽莎·纳奇布尔 Melissa Knatchbull (id:1367903)

扬·卡拉米特鲁 Ion Caramitru (id:1033166)

代尔·戴 Dale Dye (id:1027890)

马塞尔·尤勒斯 Marcel Iures (id:1022933)

基思·坎贝尔 Keith Campbell (id:1070981)

艾米利奥·艾斯特维兹 Emilio Estevez (id:1044733)

哈里·弗雷德尔 Harry Fielder (id:1086738)

约翰·诺尔 John Knoll (id:1288774)

汤姆·克鲁斯 Tom Cruise (id:1054435)

丹尼·艾夫曼 Danny Elfman (id:1019059)

诺曼·雷诺兹 Norman Reynolds (id:1295528)

彼得·霍威特 Peter Howitt (id:1287039)

弗雷德·侯尔 Fred Hole (id:1286795)

佩妮·罗斯 Penny Rose (id:1296044)

罗伯·博汀 Rob Bottin (id:1276191)

洛伊斯·布尔维尔 Lois Burwell (id:1276653)

恩雅·芬奈尔 Eithne Fennel (id:1283567)

戴夫·埃尔西 Dave Elsey (id:1283160)

托马斯·弗洛茨 Thomas Floutz (id:1283888)

Margaret Prentice Margaret Prentice (id:1278536)

阿曼达·奈特 Amanda Knight (id:1288749)

丹·格拉斯 Dan Glass (id:1284956)

乔·莱特瑞 Joe Letteri (id:1289854)

约翰·诺尔 John Knoll (id:1288774)

Chad Taylor Chad Taylor (id:1298971)

乔治·墨菲 George Murphy (id:1292757)

马克·内特尔顿 Mark Nettleton (id:1293077)

Martin Rosenberg Martin Rosenberg (id:1296082)

基姆·利布莱利 Kim Libreri (id:1290016)

Joe Pavlo Joe Pavlo (id:1294139)

理查德·尤里西奇 Richard Yuricich (id:1301577)

保罗·哈特森 Paul Huston (id:1287204)

Michael Conte Michael Conte (id:1281172)

Scott Frankel Scott Frankel (id:1284099)

Marshall Richard Krasser Marshall Richard Krasser (id:1288991)

Stefan Lange Stefan Lange (id:1289403)

Patrick T. Myers Patrick T. Myers (id:1292827)

Eddie Pasquarello Eddie Pasquarello (id:1294043)

Jonathan Privett Jonathan Privett (id:1294935)

Eve Ramboz Eve Ramboz (id:1295169)

托马斯·罗塞特 Thomas Rosseter (id:1296146)

Matt Johnson Matt Johnson (id:1287813)

亚历克斯·杰格尔 Alex Jaeger (id:1287564)

Guy Hudson Guy Hudson (id:1287083)

Marc Chu Marc Chu (id:1280777)

Ken Dailey Ken Dailey (id:1281726)

史蒂夫·高利 Steve Gawley (id:1284643)

◎简 介

中情局获得情报,得知他们的特工中出了一个叛徒,准备将中情局布置在东欧的特工名单出卖给外国特工组织。在特工头目吉姆(乔恩?沃伊特 Jon Voight 饰)的策划下,伊森(汤姆?克鲁斯 Tom Cruise 饰)所住的一组特工赶往了他们交易的地点。

岂料,当他们按计划赶到 时,却中了埋伏,一组人中除了伊森和吉姆的妻子克莱尔,其他队员都被杀害。这时,伊森的账户无端端多出了12万美金。伊森成了内鬼的最大的嫌疑犯。

无奈之下,伊森只能凭个人之力独闯龙潭虎穴去找出出卖他们的内奸。他和外国间谍组织的接头人麦克斯取得联系后,答应帮麦克斯偷出中情局的间谍名单以交换中情局内鬼的名字。

◎获奖情况 (共1项)

第20届日本电影学院奖 (1997)

最佳外语片(提名)

  1. ##### MediaInfo ######

  2. General

  3. Unique ID : 198327216429691262095793585270126588365 (0x95346EB7B918E99ABB8A200C8DBCB1CD)

  4. Complete name : Mission.Impossible.1996.BluRay.1080p.x265.10bit.2Audio-MiniHD.mkv

  5. Format : Matroska

  6. Format version : Version 4

  7. File size : 6.42 GiB

  8. Duration : 1 h 50 min

  9. Overall bit rate : 8 334 kb/s

  10. Encoded date : UTC 2016-03-28 01:40:55

  11. Writing application : mkvmerge v7.5.0 ('Glass Culture') 64bit built on Jan 4 2015 16:48:44

  12. Writing library : libebml v1.3.1 + libmatroska v1.4.2

  13. Video

  14. ID : 1

  15. Format : HEVC

  16. Format/Info : High Efficiency Video Coding

  17. Codec ID : V_MPEGH/ISO/HEVC

  18. Duration : 1 h 50 min

  19. Bit rate : 6 934 kb/s

  20. Width : 1 920 pixels

  21. Height : 800 pixels

  22. Display aspect ratio : 2.40:1

  23. Frame rate mode : Constant

  24. Frame rate : 23.976 (24000/1001/53354) FPS

  25. Bits/(Pixel*Frame) : 0.188

  26. Stream size : 5.34 GiB (83%)

  27. Default : Yes

  28. Forced : No

  29. Audio #1

  30. ID : 2

  31. Format : AC-3

  32. Format/Info : Audio Coding 3

  33. Commercial name : Dolby Digital

  34. Codec ID : A_AC3

  35. Duration : 1 h 50 min

  36. Bit rate mode : Constant

  37. Bit rate : 640 kb/s

  38. Channel(s) : 6 channels

  39. Channel layout : L R C LFE Ls Rs

  40. Sampling rate : 48.0 kHz

  41. Frame rate : 31.250 FPS (1536 SPF)

  42. Compression mode : Lossy

  43. Stream size : 505 MiB (8%)

  44. Language : English

  45. Service kind : Complete Main

  46. Default : Yes

  47. Forced : No

  48. Audio #2

  49. ID : 3

  50. Format : AC-3

  51. Format/Info : Audio Coding 3

  52. Commercial name : Dolby Digital

  53. Codec ID : A_AC3

  54. Duration : 1 h 50 min

  55. Bit rate mode : Constant

  56. Bit rate : 640 kb/s

  57. Channel(s) : 6 channels

  58. Channel layout : L R C LFE Ls Rs

  59. Sampling rate : 48.0 kHz

  60. Frame rate : 31.250 FPS (1536 SPF)

  61. Compression mode : Lossy

  62. Stream size : 505 MiB (8%)

  63. Language : Chinese

  64. Service kind : Complete Main

  65. Default : No

  66. Forced : No

  67. Text #1

  68. ID : 4

  69. Format : PGS

  70. Muxing mode : zlib

  71. Codec ID : S_HDMV/PGS

  72. Codec ID/Info : Picture based subtitle format used on BDs/HD-DVDs

  73. Duration : 1 h 45 min

  74. Bit rate : 8 108 b/s

  75. Count of elements : 1908

  76. Stream size : 6.12 MiB (0%)

  77. Language : English

  78. Default : Yes

  79. Forced : No

  80. Text #2

  81. ID : 5

  82. Format : PGS

  83. Muxing mode : zlib

  84. Codec ID : S_HDMV/PGS

  85. Codec ID/Info : Picture based subtitle format used on BDs/HD-DVDs

  86. Duration : 1 h 49 min

  87. Bit rate : 7 458 b/s

  88. Count of elements : 1268

  89. Stream size : 5.86 MiB (0%)

  90. Language : Chinese

  91. Default : No

  92. Forced : No

  93. Text #3

  94. ID : 6

  95. Format : PGS

  96. Muxing mode : zlib

  97. Codec ID : S_HDMV/PGS

  98. Codec ID/Info : Picture based subtitle format used on BDs/HD-DVDs

  99. Duration : 1 h 49 min

  100. Bit rate : 8 026 b/s

  101. Count of elements : 1738

  102. Stream size : 6.31 MiB (0%)

  103. Language : Chinese

  104. Default : No

  105. Forced : No

  106. Text #4

  107. ID : 7

  108. Format : PGS

  109. Muxing mode : zlib

  110. Codec ID : S_HDMV/PGS

  111. Codec ID/Info : Picture based subtitle format used on BDs/HD-DVDs

  112. Duration : 1 h 45 min

  113. Bit rate : 19.5 kb/s

  114. Count of elements : 3293

  115. Stream size : 14.7 MiB (0%)

  116. Language : Chinese

  117. Default : No

  118. Forced : No

  119. Text #5

  120. ID : 8

  121. Format : PGS

  122. Muxing mode : zlib

  123. Codec ID : S_HDMV/PGS

  124. Codec ID/Info : Picture based subtitle format used on BDs/HD-DVDs

  125. Duration : 1 h 45 min

  126. Bit rate : 29.0 kb/s

  127. Count of elements : 3293

  128. Stream size : 21.9 MiB (0%)

  129. Language : Chinese

  130. Default : No

  131. Forced : No

  132. Text #6

  133. ID : 9

  134. Format : PGS

  135. Muxing mode : zlib

  136. Codec ID : S_HDMV/PGS

  137. Codec ID/Info : Picture based subtitle format used on BDs/HD-DVDs

  138. Duration : 1 h 45 min

  139. Bit rate : 20.2 kb/s

  140. Count of elements : 3293

  141. Stream size : 15.3 MiB (0%)

  142. Language : Chinese

  143. Default : No

  144. Forced : No

  145. Text #7

  146. ID : 10

  147. Format : PGS

  148. Muxing mode : zlib

  149. Codec ID : S_HDMV/PGS

  150. Codec ID/Info : Picture based subtitle format used on BDs/HD-DVDs

  151. Duration : 1 h 45 min

  152. Bit rate : 29.7 kb/s

  153. Count of elements : 3293

  154. Stream size : 22.5 MiB (0%)

  155. Language : Chinese

  156. Default : No

  157. Forced : No

  158. Menu

  159. 00:00:00.000 : :Chapter 01

  160. 00:03:00.972 : :Chapter 02

  161. 00:10:44.727 : :Chapter 03

  162. 00:26:43.810 : :Chapter 04

  163. 00:32:21.481 : :Chapter 05

  164. 00:39:50.388 : :Chapter 06

  165. 00:49:39.142 : :Chapter 07

  166. 00:55:45.633 : :Chapter 08

  167. 01:12:25.716 : :Chapter 09

  168. 01:18:34.459 : :Chapter 10

  169. 01:28:14.539 : :Chapter 11

  170. 01:38:06.714 : :Chapter 12

  171. 01:44:02.778 : :Chapter 13


复制代码



文件下载


除非特别注明,本文『碟中谍[国英多音轨/中英字幕].Mission.Impossible.1996.BluRay.1080p.x265.10bit.2Audio-MiniHD 6.42GB』来源于互联网机器人自动抓取,非本站原创。 浮游电影网不对本文拥有版权,如有侵犯,请联系邮箱:fuyouu#yandex.com[#换成@]投诉。我们会在15个工作日内删除。 但烦请转载时请标明出处:“本文转载于『浮游电影网』,原文地址:https://www.fuyouu.com/22178.html

评论吧骚年!

发表你的见解   

昵称*

E-mail*(建议输入,以便收到博主回复的提示邮件)

验证码*

您可以使用eMule或eMule Mod(Windows)、aMule(Win、Linux、Mac)等软件下载eD2k链接。。
eMule收藏集(.emulecollection)文件是您选中的所有链接的列表文件。eMule可以直接下载它们。
按住SHIFT键选择可以选中多个选择框。
可用文件名和大小选择器来选择文件。
文件名选择器帮您根据文件名称或后缀来选择文件。不分大小写。
符号使用:
和:空格( )、+
不包含:-
或:|
转义:一对英文引号("");
匹配开头:^
匹配结尾:$
例如:
选中所有名称中包含有“eMule”或“0.49c”字眼,但不包含有“exe”字眼的:emule|0.49c -exe
选中所有名称的开头是“eMule”,结尾是“0.49c”的:^emule 0.49c$
选中所有名称中带有“eMule 0.49c”的(必须是“eMule 0.49c”,中间没有别的字符,不能是“eMule fake 0.49c”),需要转义:"emule 0.49c"
大小选择器帮您根据文件大小选择文件。