当前位置: 首页 >> 海外电影 >> 真爱大逃亡[中英字幕].Deadly.Circuit.1983.BluRay.1080p.x265.10bit-MiniHD 5.88GB >> 正文

真爱大逃亡[中英字幕].Deadly.Circuit.1983.BluRay.1080p.x265.10bit-MiniHD 5.88GB

2022年05月15日 22:56:54     电影发布:来源于网络     电影分类:海外电影     评论(0)    

◎译 名 真爱大逃亡 / Deadly Run / Deadly Circuit

◎片 名 Mortelle randonnée

◎年 代 1983

◎产 地 法国

◎类 别 悬疑 / 惊悚 / 犯罪

◎语 言 法语

◎上映日期 1983-03-09

◎IMDb链接 https://www.imdb.com/title/tt0084358/

◎豆瓣评分 7.1/10 (295人评价)

◎豆瓣链接 https://movie.douban.com/subject/1420127/

◎片 长 120分钟

◎导 演 克洛德·米勒 Claude Miller (id:1032644)

◎编 剧 米歇尔·奥迪亚 Michel Audiard (id:1048412)

雅克·欧迪亚 Jacques Audiard (id:1045070)

马克·贝姆 Marc Behm (id:1015308)

◎演 员 米歇尔·塞罗尔 Michel Serrault (id:1007148)

伊莎贝尔·阿佳妮 Isabelle Adjani (id:1022001)

吉·马尔尚 Guy Marchand (id:1019292)

斯特凡·奥德朗 Stéphane Audran (id:1041321)

查尔斯·加索特 Charles Gassot (id:1284607)

帕特里克·伯利奇 Patrick Bouchitey (id:1025534)

Franca Tamantini Franca Tamantini (id:1151439)

吉内瓦维·佩吉 Geneviève Page (id:1136416)

玛莎·梅赫勒 Macha Méril (id:1130996)

帕特丽夏·米拉德 Patricia Millardet (id:1115953)

Jeanne Herviale Jeanne Herviale (id:1096322)

Danièle Denie Danièle Denie (id:1082843)

Patrick Cauderlier Patrick Cauderlier (id:1069386)

Serge Berry Serge Berry (id:1066390)

Michel Such Michel Such (id:1026629)

萨米·弗雷 Sami Frey (id:1028222)

伊什尼·齐科特 Etienne Chicot (id:1048394)

吕克·贝罗 Luc Béraud (id:1042665)

让-克洛德·布里亚利 Jean-Claude Brialy (id:1002887)

查尔斯·加索特 Charles Gassot (id:1284607)

Carla Bley Carla Bley (id:1061418)

皮埃尔·洛姆 Pierre Lhomme (id:1003719)

阿尔贝·于尔根松 Albert Jurgenson (id:1287971)

Véronique Melery Véronique Melery (id:1291791)

让-皮尔·科赫特·斯维尔科 Jean-Pierre Kohut-Svelko (id:1288834)

◎简 介

本片改编自美国小说家马克贝恩的《冷眼旁观》,讲述一个孤独年迈的私家侦探,在一桩跟踪一个女强盗的过程中,在利用偷窥对她监视时,不知不觉与她发生了奇异的心灵感应。尽管他们未曾面对面,但这背后隐藏着的阴谋被逐渐揭开。

  1. ##### MediaInfo ######

  2. General

  3. Unique ID : 192039107180733597822389867256879469465 (0x907962FEDAD7C0C3930C8427DF135399)

  4. Complete name : Deadly.Circuit.1983.BluRay.1080p.x265.10bit-MiniHD.mkv

  5. Format : Matroska

  6. Format version : Version 4

  7. File size : 5.88 GiB

  8. Duration : 2 h 1 min

  9. Overall bit rate : 6 952 kb/s

  10. Encoded date : UTC 2017-01-16 06:45:15

  11. Writing application : mkvmerge v9.7.1 ('Pandemonium') 64bit

  12. Writing library : libebml v1.3.4 + libmatroska v1.4.5

  13. Video

  14. ID : 1

  15. Format : HEVC

  16. Format/Info : High Efficiency Video Coding

  17. Format profile : Main [email protected]@Main

  18. Codec ID : V_MPEGH/ISO/HEVC

  19. Duration : 2 h 1 min

  20. Bit rate : 6 494 kb/s

  21. Width : 1 800 pixels

  22. Height : 1 080 pixels

  23. Display aspect ratio : 5:3

  24. Frame rate mode : Constant

  25. Frame rate : 23.976 (24000/1001/53354) FPS

  26. Color space : YUV

  27. Chroma subsampling : 4:2:0

  28. Bit depth : 10 bits

  29. Bits/(Pixel*Frame) : 0.139

  30. Stream size : 5.49 GiB (93%)

  31. Writing library : x265 2.2+5-e40db0bdde4a:[Windows][GCC 6.2.0][64 bit] 10bit

  32. Encoding settings : cpuid=533541173503 / frame-threads=6 / numa-pools=36 / wpp / no-pmode / no-pme / no-psnr / no-ssim / log-level=2 / input-csp=1 / input-res=1800x1080 / interlace=0 / total-frames=174168 / level-idc=0 / high-tier=1 / uhd-bd=0 / ref=5 / no-allow-non-conformance / no-repeat-headers / annexb / no-aud / no-hrd / info / hash=0 / no-temporal-layers / no-open-gop / min-keyint=1 / keyint=360 / bframes=8 / b-adapt=2 / b-pyramid / bframe-bias=0 / rc-lookahead=60 / lookahead-slices=4 / NTMzNTQ=uuDQuD2mJt9fsCf / scenecut=40 / no-intra-refresh / ctu=32 / min-cu-size=8 / rect / no-amp / max-tu-size=16 / tu-inter-depth=2 / tu-intra-depth=2 / limit-tu=0 / rdoq-level=2 / signhide / no-tskip / nr-intra=0 / nr-inter=0 / no-constrained-intra / no-strong-intra-smoothing / max-merge=3 / limit-refs=3 / limit-modes / me=3 / subme=5 / merange=25 / temporal-mvp / weightp / weightb / no-analyze-src-pics / deblock=-1:-1 / no-sao / no-sao-non-deblock / rd=4 / no-early-skip / rskip / no-fast-intra / no-tskip-fast / no-cu-lossless / b-intra / rdpenalty=1 / psy-rd=2.00 / psy-rdoq=5.00 / no-rd-refine / analysis-mode=0 / no-lossless / cbqpoffs=-1 / crqpoffs=-1 / rc=crf / crf=21.0 / qcomp=0.65 / qpstep=4 / stats-write=0 / stats-read=0 / ipratio=1.40 / pbratio=1.30 / aq-mode=3 / aq-strength=0.80 / cutree / zone-count=0 / no-strict-cbr / qg-size=16 / no-rc-grain / qpmax=69 / qpmin=0 / sar=0 / overscan=0 / videoformat=5 / range=0 / colorprim=1 / transfer=2 / colormatrix=2 / chromaloc=0 / display-window=0 / max-cll=0,0 / min-luma=0 / max-luma=1023 / log2-max-poc-lsb=8 / vui-timing-info / vui-hrd-info / slices=1 / opt-qp-pps / opt-ref-list-length-pps / no-multi-pass-opt-rps / scenecut-bias=0.05 / no-opt-cu-delta-qp

  33. Default : Yes

  34. Forced : No

  35. Color range : Limited

  36. Color primaries : BT.709

  37. Audio

  38. ID : 2

  39. Format : AC-3

  40. Format/Info : Audio Coding 3

  41. Commercial name : Dolby Digital

  42. Codec ID : A_AC3

  43. Duration : 2 h 1 min

  44. Bit rate mode : Constant

  45. Bit rate : 320 kb/s

  46. Channel(s) : 2 channels

  47. Channel layout : L R

  48. Sampling rate : 48.0 kHz

  49. Frame rate : 31.250 FPS (1536 SPF)

  50. Compression mode : Lossy

  51. Stream size : 277 MiB (5%)

  52. Language : French

  53. Service kind : Complete Main

  54. Default : Yes

  55. Forced : No

  56. Text #1

  57. ID : 3

  58. Format : PGS

  59. Muxing mode : zlib

  60. Codec ID : S_HDMV/PGS

  61. Codec ID/Info : Picture based subtitle format used on BDs/HD-DVDs

  62. Language : English

  63. Default : Yes

  64. Forced : No

  65. Text #2

  66. ID : 4

  67. Format : PGS

  68. Muxing mode : zlib

  69. Codec ID : S_HDMV/PGS

  70. Codec ID/Info : Picture based subtitle format used on BDs/HD-DVDs

  71. Language : Chinese

  72. Default : No

  73. Forced : No

  74. Text #3

  75. ID : 5

  76. Format : PGS

  77. Muxing mode : zlib

  78. Codec ID : S_HDMV/PGS

  79. Codec ID/Info : Picture based subtitle format used on BDs/HD-DVDs

  80. Language : Chinese

  81. Default : No

  82. Forced : No

  83. Menu

  84. 00:00:00.000 : en:Chapter 01

  85. 00:08:28.508 : en:Chapter 02

  86. 00:21:41.383 : en:Chapter 03

  87. 00:29:57.796 : en:Chapter 04

  88. 00:40:23.254 : en:Chapter 05

  89. 00:43:42.369 : en:Chapter 06

  90. 00:55:32.620 : en:Chapter 07

  91. 01:06:58.514 : en:Chapter 08

  92. 01:14:02.104 : en:Chapter 09

  93. 01:20:01.796 : en:Chapter 10

  94. 01:30:11.948 : en:Chapter 11

  95. 01:36:09.764 : en:Chapter 12

  96. 01:40:50.419 : en:Chapter 13

  97. 01:43:40.214 : en:Chapter 14

  98. 01:56:12.340 : en:Chapter 15

  99. 01:58:12.084 : en:Chapter 16

  100. 02:01:03.256 : en:Chapter 17


复制代码



文件下载


除非特别注明,本文『真爱大逃亡[中英字幕].Deadly.Circuit.1983.BluRay.1080p.x265.10bit-MiniHD 5.88GB』来源于互联网机器人自动抓取,非本站原创。 浮游电影网不对本文拥有版权,如有侵犯,请联系邮箱:fuyouu#yandex.com[#换成@]投诉。我们会在15个工作日内删除。 但烦请转载时请标明出处:“本文转载于『浮游电影网』,原文地址:https://www.fuyouu.com/22174.html

评论吧骚年!

发表你的见解   

昵称*

E-mail*(建议输入,以便收到博主回复的提示邮件)

验证码*

您可以使用eMule或eMule Mod(Windows)、aMule(Win、Linux、Mac)等软件下载eD2k链接。。
eMule收藏集(.emulecollection)文件是您选中的所有链接的列表文件。eMule可以直接下载它们。
按住SHIFT键选择可以选中多个选择框。
可用文件名和大小选择器来选择文件。
文件名选择器帮您根据文件名称或后缀来选择文件。不分大小写。
符号使用:
和:空格( )、+
不包含:-
或:|
转义:一对英文引号("");
匹配开头:^
匹配结尾:$
例如:
选中所有名称中包含有“eMule”或“0.49c”字眼,但不包含有“exe”字眼的:emule|0.49c -exe
选中所有名称的开头是“eMule”,结尾是“0.49c”的:^emule 0.49c$
选中所有名称中带有“eMule 0.49c”的(必须是“eMule 0.49c”,中间没有别的字符,不能是“eMule fake 0.49c”),需要转义:"emule 0.49c"
大小选择器帮您根据文件大小选择文件。