当前位置: 首页 >> 欧美电影 >> 白雪公主与猎人[国英多音轨/中英字幕].Snow.White.and.the.Huntsman.2012.BluRay.1080p.x265.10bit.2Audio-MiniHD 6.40GB >> 正文

白雪公主与猎人[国英多音轨/中英字幕].Snow.White.and.the.Huntsman.2012.BluRay.1080p.x265.10bit.2Audio-MiniHD 6.40GB

2022年05月15日 22:54:39     电影发布:来源于网络     电影分类:欧美电影     评论(0)    

◎标 题 白雪公主与猎人

◎译 名 公主与狩猎者(台) / 白雪公主之魔幻复仇记(港) / Snow White & the Huntsman / Snow White

◎片 名 Snow White and the Huntsman

◎年 代 2012

◎产 地 美国 / 英国

◎类 别 动作 / 奇幻 / 冒险

◎语 言 英语

◎上映日期 2012-06-01(美国)

◎IMDb评分 6.1/10 (282017人评价)

◎IMDb链接 https://www.imdb.com/title/tt1735898/

◎豆瓣评分 5.6/10 (66887人评价)

◎豆瓣链接 https://movie.douban.com/subject/5327463/

◎片 长 127分钟 / 132分钟(加长版)

◎导 演 鲁伯特·桑德斯 Rupert Sanders

◎编 剧 埃文·达赫迪 Evan Daughterty

霍辛·阿米尼 Hossein Amini

约翰·李·汉考克 John Lee Hancock

埃文·斯彼里奥托普洛斯 Evan Spiliotopoulos

◎演 员 克里斯·海姆斯沃斯 Chris Hemsworth

克里斯汀·斯图尔特 Kristen Stewart

查理兹·塞隆 Charlize Theron

山姆·克拉弗林 Sam Claflin

萨姆·斯普卢尔 Sam Spruell

伊恩·麦柯肖恩 Ian McShane

鲍勃·霍斯金斯 Bob Hoskins

雷·温斯顿 Ray Winstone

埃迪·马森 Eddie Marsan

莉莉·科尔 Lily Cole

尼克·弗罗斯特 Nick Frost

托比·琼斯 Toby Jones

安娜贝拉·沃丽丝 Annabelle Wallis

拉菲·卡西迪 Raffey Cassidy

马特·贝里 Matt Berry

蕾切尔·斯特灵 Rachael Stirling

伊兹·米克尔-斯莫 Izzy Meikle-Small

安德鲁·郝雷 Andrew Hawley

布莱恩·格里森 Brian Gleeson

彼得·费迪南多 Peter Ferdinando

泽维尔·阿特金斯 Xavier Atkins

丽波缇·罗丝 Liberty Ross

丹·柏曼 Dan Burman

格雷格·希克斯 Greg Hicks

◎标 签 美国 / 童话 / 奇幻 / 2012 / 冒险 / 动作 / 爱情 / 童话改编

◎简 介

很久很久以前,在一个美丽华贵的国度,善良而迷人的白雪公主(克里斯汀·斯图尔特 Kristen Stewart 饰)降生到这个世上。她用有让人欣羡的家境与童年,但是好景不长,他的母亲过早去世,祖国遭遇神秘的黑色军队袭击,更为绝望的是父王将偶然相遇的绝世美女拉文娜(查理兹· 塞隆 Charlize Theron 饰)迎为新的王后。拉文娜带来了难以想象的灾难,她狂暴与黑暗的欲望使她攫取了整个国家。在得知王后将要加害自己之时,白雪公主奋力从城堡逃脱躲入黑森林。不久,肩负着残酷使命的猎人(克里斯·海姆斯沃斯 Chris Hemsworth 饰)尾随而至……

本片荣获2012年青年选择奖怒发冲冠奖(查理兹·塞隆)、最佳夏季电影女主角(克里斯汀·斯图尔特)、最佳夏季电影男主角(克里斯·海姆斯沃斯)。

  1. ##### MediaInfo ######

  2. General

  3. Unique ID : 246934685662102375342287991510937172413 (0xB9C5E3FA97072EDF952FA772EDB4F9BD)

  4. Complete name : Snow.White.and.the.Huntsman.2012.BluRay.1080p.x265.10bit.2Audio-MiniHD.mkv

  5. Format : Matroska

  6. Format version : Version 4

  7. File size : 6.40 GiB

  8. Duration : 2 h 11 min

  9. Overall bit rate : 6 963 kb/s

  10. Movie name : Almost Famous: The Bootleg Cut (2000) - Release for HDCLUB

  11. Encoded date : UTC 2016-06-29 03:53:38

  12. Writing application : mkvmerge v9.1.0 ('Little Earthquakes') 32bit

  13. Writing library : libebml v1.3.3 + libmatroska v1.4.4

  14. Video

  15. ID : 1

  16. Format : HEVC

  17. Format/Info : High Efficiency Video Coding

  18. Format profile : Main [email protected]@Main

  19. Codec ID : V_MPEGH/ISO/HEVC

  20. Duration : 2 h 11 min

  21. Bit rate : 5 736 kb/s

  22. Width : 1 920 pixels

  23. Height : 816 pixels

  24. Display aspect ratio : 2.35:1

  25. Frame rate mode : Constant

  26. Frame rate : 23.976 (24000/1001/53354) FPS

  27. Color space : YUV

  28. Chroma subsampling : 4:2:0

  29. Bit depth : 10 bits

  30. Bits/(Pixel*Frame) : 0.153

  31. Stream size : 5.27 GiB (82%)

  32. Writing library : x265 1.9+200-6098ba3e0cf16b11:[Windows][GCC 5.3.0][64 bit] 10bit

  33. Encoding settings : wpp / ctu=32 / min-cu-size=8 / max-tu-size=16 / tu-intra-depth=2 / tu-inter-depth=2 / me=3 / subme=5 / merange=21 / no-rect / no-amp / max-merge=3 / temporal-mvp / no-early-skip / no-recursion-skip / rdpenalty=1 / no-tskip / no-tskip-fast / no-strong-intra-smoothing / no-lossless / no-cu-lossless / no-constrained-intra / no-fast-intra / no-open-gop / no-temporal-layers / interlace=0 / keyint=360 / min-keyint=1 / NTMzNTQ=uuDQuD2mJt9fsCf / scenecut=40 / rc-lookahead=60 / lookahead-slices=4 / bframes=8 / bframe-bias=0 / b-adapt=2 / ref=5 / limit-refs=3 / limit-modes / weightp / weightb / aq-mode=1 / qg-size=16 / aq-strength=1.00 / cbqpoffs=0 / crqpoffs=0 / rd=4 / psy-rd=0.30 / rdoq-level=1 / psy-rdoq=5.00 / no-rd-refine / signhide / deblock=-1:-1 / no-sao / no-sao-non-deblock / b-pyramid / no-cutree / no-intra-refresh / rc=crf / crf=20.0 / qcomp=0.70 / qpmin=0 / qpmax=51 / qpstep=4 / ipratio=1.40 / pbratio=1.30

  34. Default : Yes

  35. Forced : No

  36. Color range : Limited

  37. Color primaries : BT.709

  38. Audio #1

  39. ID : 2

  40. Format : AC-3

  41. Format/Info : Audio Coding 3

  42. Commercial name : Dolby Digital

  43. Codec ID : A_AC3

  44. Duration : 2 h 11 min

  45. Bit rate mode : Constant

  46. Bit rate : 640 kb/s

  47. Channel(s) : 6 channels

  48. Channel layout : L R C LFE Ls Rs

  49. Sampling rate : 48.0 kHz

  50. Frame rate : 31.250 FPS (1536 SPF)

  51. Compression mode : Lossy

  52. Stream size : 602 MiB (9%)

  53. Language : English

  54. Service kind : Complete Main

  55. Default : Yes

  56. Forced : No

  57. Audio #2

  58. ID : 3

  59. Format : AC-3

  60. Format/Info : Audio Coding 3

  61. Commercial name : Dolby Digital

  62. Codec ID : A_AC3

  63. Duration : 2 h 11 min

  64. Bit rate mode : Constant

  65. Bit rate : 448 kb/s

  66. Channel(s) : 6 channels

  67. Channel layout : L R C LFE Ls Rs

  68. Sampling rate : 48.0 kHz

  69. Frame rate : 31.250 FPS (1536 SPF)

  70. Compression mode : Lossy

  71. Stream size : 422 MiB (6%)

  72. Language : Chinese

  73. Service kind : Complete Main

  74. Default : No

  75. Forced : No

  76. Text #1

  77. ID : 4

  78. Format : PGS

  79. Muxing mode : zlib

  80. Codec ID : S_HDMV/PGS

  81. Codec ID/Info : Picture based subtitle format used on BDs/HD-DVDs

  82. Language : English

  83. Default : Yes

  84. Forced : No

  85. Text #2

  86. ID : 5

  87. Format : PGS

  88. Muxing mode : zlib

  89. Codec ID : S_HDMV/PGS

  90. Codec ID/Info : Picture based subtitle format used on BDs/HD-DVDs

  91. Language : Chinese

  92. Default : No

  93. Forced : No

  94. Text #3

  95. ID : 6

  96. Format : PGS

  97. Muxing mode : zlib

  98. Codec ID : S_HDMV/PGS

  99. Codec ID/Info : Picture based subtitle format used on BDs/HD-DVDs

  100. Language : Chinese

  101. Default : No

  102. Forced : No

  103. Menu

  104. 00:00:00.000 : en:00:00:00.000

  105. 00:05:05.055 : en:00:05:05.055

  106. 00:10:26.793 : en:00:10:26.793

  107. 00:19:48.854 : en:00:19:48.854

  108. 00:27:46.456 : en:00:27:46.456

  109. 00:32:40.458 : en:00:32:40.458

  110. 00:38:04.490 : en:00:38:04.490

  111. 00:44:02.098 : en:00:44:02.098

  112. 00:51:08.649 : en:00:51:08.649

  113. 00:58:17.869 : en:00:58:17.869

  114. 01:02:08.558 : en:01:02:08.558

  115. 01:08:57.967 : en:01:08:57.967

  116. 01:13:36.537 : en:01:13:36.537

  117. 01:16:59.073 : en:01:16:59.073

  118. 01:26:57.003 : en:01:26:57.003

  119. 01:36:30.993 : en:01:36:30.993

  120. 01:43:37.795 : en:01:43:37.795

  121. 01:49:51.460 : en:01:49:51.460

  122. 01:53:44.734 : en:01:53:44.734

  123. 02:01:50.094 : en:02:01:50.094


复制代码



文件下载


除非特别注明,本文『白雪公主与猎人[国英多音轨/中英字幕].Snow.White.and.the.Huntsman.2012.BluRay.1080p.x265.10bit.2Audio-MiniHD 6.40GB』来源于互联网机器人自动抓取,非本站原创。 浮游电影网不对本文拥有版权,如有侵犯,请联系邮箱:fuyouu#yandex.com[#换成@]投诉。我们会在15个工作日内删除。 但烦请转载时请标明出处:“本文转载于『浮游电影网』,原文地址:https://www.fuyouu.com/22172.html

评论吧骚年!

发表你的见解   

昵称*

E-mail*(建议输入,以便收到博主回复的提示邮件)

验证码*

您可以使用eMule或eMule Mod(Windows)、aMule(Win、Linux、Mac)等软件下载eD2k链接。。
eMule收藏集(.emulecollection)文件是您选中的所有链接的列表文件。eMule可以直接下载它们。
按住SHIFT键选择可以选中多个选择框。
可用文件名和大小选择器来选择文件。
文件名选择器帮您根据文件名称或后缀来选择文件。不分大小写。
符号使用:
和:空格( )、+
不包含:-
或:|
转义:一对英文引号("");
匹配开头:^
匹配结尾:$
例如:
选中所有名称中包含有“eMule”或“0.49c”字眼,但不包含有“exe”字眼的:emule|0.49c -exe
选中所有名称的开头是“eMule”,结尾是“0.49c”的:^emule 0.49c$
选中所有名称中带有“eMule 0.49c”的(必须是“eMule 0.49c”,中间没有别的字符,不能是“eMule fake 0.49c”),需要转义:"emule 0.49c"
大小选择器帮您根据文件大小选择文件。