当前位置: 首页 >> 国产电影 >> 四大名捕[共3部合集][国粤英多音轨/繁英字幕].The.Four.Collection.2012-2014.BluRay.1080p.2Audio.TrueHD.5.1.x265.10bit-ALT >> 正文

四大名捕[共3部合集][国粤英多音轨/繁英字幕].The.Four.Collection.2012-2014.BluRay.1080p.2Audio.TrueHD.5.1.x265.10bit-ALT

2022年05月14日 23:06:49     电影发布:来源于网络     电影分类:国产电影     评论(0)    

◎译 名 四大名捕 / The Four

◎年 代 2012

◎产 地 中国大陆 / 中国香港

◎类 别 动作 / 爱情 / 悬疑 / 武侠 / 古装

◎语 言 汉语普通话 / 粤语

◎上映日期 2012-07-12(中国大陆/中国香港)

◎IMDb链接 https://www.imdb.com/title/tt2204340/

◎豆瓣评分 5.3/10 (111355人评价)

◎豆瓣链接 https://movie.douban.com/subject/6124012/

◎片 长 118分钟

◎导 演 陈嘉上 Gordon Chan (id:1274245)

秦小珍 Janet Chun (id:1274236)

◎编 剧 温瑞安 Ruian Wen (id:1321279)

陈嘉上 Gordon Chan (id:1274245)

王思敏 Sze Man Wang (id:1324934)

谭广源 Frankie Tam (id:1328638)

张小北 Xiaobei Zhang (id:1317950)

◎演 员 邓超 Chao Deng (id:1274235)

刘亦菲 Yifei Liu (id:1049732)

郑中基 Ronald Cheng (id:1032940)

邹兆龙 Collin Chou (id:1022821)

黄秋生 Anthony Wong Chau-Sang (id:1050076)

江一燕 Yiyan Jiang (id:1274286)

吴秀波 Xiubo Wu (id:1275317)

邓萃雯 Sheren Tang (id:1160170)

成泰燊 Taishen Cheng (id:1196361)

吴映洁 Gemma Wu (id:1313603)

包贝尔 Bei'er Bao (id:1315866)

木幡龙 Ryu Kohata (id:1313726)

田启文 Kai Man Tin (id:1315882)

方安娜 Anna Fang (id:1313869)

李子雄 Waise Lee (id:1037662)

苗驰 Chi Miao (id:1327729)

向恬冉 Tianran Xiang (id:1336304)

唐文龙 Michael Tong (id:1043564)

唐治平 Zhiping Tang (id:1275419)

刘长德 Changde Liu (id:1317982)

张颂文 Songwen Zhang (id:1314329)

李瑞雪 Ruixue Li (id:1357821)

李紫菻 Zilin Li (id:1390449)

李欣烨 Xinye Li (id:1356952)

李宛真 Yuki Li (id:1351244)

邱晔 Angela Qiu (id:1331015)

李奕泽 Yize Li (id:1390450)

黄泰来 Taylor Wong (id:1322476)

缪健辉 Tony Miu (id:1378532)

黎耀辉 Yiu-Fai Lai (id:1289265)

余家安 Bruce Yu (id:1301555)

蔡彦菁 Maggie Choy (id:1426247)

蒋春亮 Chunliang Jiang (id:1462605)

刘士杨 Shiyang Liu (id:1446388)

谷轩昭 Huan-Chiu Ku (id:1289063)

◎简 介

巍巍京城,气势磅礴。时有捕神(成泰燊 饰)率领的六扇门,高手云集,作风凌厉,成为朝廷只手遮天的人物。是时京城伪造铜币泛滥,六扇门头号捕快冷血(邓超 饰)策划抓捕疑犯,结果在醉月楼与另一组人马大打出手。对方是诸葛正我(黄秋生 饰)统领的神侯府,手下更有无情(刘亦菲 饰)、铁手(邹兆龙 饰)等身怀绝技的高手。捕神对神侯府的目的颇有猜疑,遂假意赶走冷血,令其潜入神侯府调查诸葛之真实目的。在此之后,冷血与无情、铁手以及江湖中人追命(郑中基 饰)组成四大名捕,声名显赫,而来自六扇门的姬遥花(江一燕 饰)似乎又暗藏不可告人的秘密与阴谋……

本片根据温瑞安同名武侠小说改编。

◎获奖情况 (共4项)

第3届豆瓣电影鑫像奖 (2013)

豆渣单元 最渣影片(华语)(提名)

豆渣单元 最渣导演(华语)(提名)

豆渣单元 最渣男演员(华语)(提名)

└──邓超 (id:1274235)

豆渣单元 最渣女演员(华语)(提名)

└──刘亦菲 (id:1049732)

  1. 合集文件列表:

  2. 1.The.Four.1.2012.BluRay.1080p.2Audio.TrueHD.5.1.x265.10bit-ALT.mkv 12.84GB

  3. 2.The.Four.2.2013.BluRay.1080p.2Audio.TrueHD.5.1.x265.10bit-ALT.mkv 14.78GB

  4. 3.The.Four.3.2014.BluRay.1080p.2Audio.TrueHD.5.1.x265.10bit-ALT.mkv 12.12GB


复制代码

  1. ##### MediaInfo ######

  2. General

  3. Unique ID : 122115099719143147383010688425940036515 (0x5BDE8341B086E2ED396070F8A2D92BA3)

  4. Complete name : The.Four.1.2012.BluRay.1080p.2Audio.TrueHD.5.1.x265.10bit-ALT.mkv

  5. Format : Matroska

  6. Format version : Version 4

  7. File size : 12.8 GiB

  8. Duration : 1 h 58 min

  9. Overall bit rate mode : Variable

  10. Overall bit rate : 15.6 Mb/s

  11. Encoded date : UTC 2021-01-29 03:26:37

  12. Writing application : mkvmerge v49.0.0 ('Sick Of Losing Soulmates') 64-bit

  13. Writing library : libebml v1.4.0 + libmatroska v1.6.1

  14. Video

  15. ID : 1

  16. Format : HEVC

  17. Format/Info : High Efficiency Video Coding

  18. Format profile : Main [email protected]@High

  19. Codec ID : V_MPEGH/ISO/HEVC

  20. Duration : 1 h 58 min

  21. Bit rate : 11.3 Mb/s

  22. Width : 1 920 pixels

  23. Height : 804 pixels

  24. Display aspect ratio : 2.40:1

  25. Frame rate mode : Constant

  26. Frame rate : 24.000 FPS

  27. Color space : YUV

  28. Chroma subsampling : 4:2:0

  29. Bit depth : 10 bits

  30. Bits/(Pixel*Frame) : 0.305

  31. Stream size : 9.33 GiB (73%)

  32. Title : HEVC, [email protected]@High, 24 fps @ 11306 kbps

  33. Writing library : x265 3.4+14-gd419c7152:[Windows][GCC 10.2.0][64 bit] 10bit

  34. Encoding settings : cpuid=533541111039 / frame-threads=5 / numa-pools=44,44 / wpp / pmode / pme / no-psnr / no-ssim / log-level=2 / input-csp=1 / input-res=1920x804 / interlace=0 / total-frames=170030 / level-idc=51 / high-tier=1 / uhd-bd=0 / ref=5 / no-allow-non-conformance / no-repeat-headers / annexb / no-aud / no-hrd / info / hash=0 / no-temporal-layers / open-gop / min-keyint=24 / keyint=240 / gop-lookahead=0 / bframes=6 / b-adapt=2 / b-pyramid / bframe-bias=0 / rc-lookahead=40 / lookahead-slices=0 / NTMzNTQ=uuDQuD2mJt9fsCf / scenecut=40 / hist-scenecut=0 / radl=0 / no-splice / no-intra-refresh / ctu=32 / min-cu-size=8 / no-rect / no-amp / max-tu-size=32 / tu-inter-depth=3 / tu-intra-depth=3 / limit-tu=4 / rdoq-level=2 / dynamic-rd=0.00 / no-ssim-rd / signhide / no-tskip / nr-intra=0 / nr-inter=0 / no-constrained-intra / no-strong-intra-smoothing / max-merge=4 / limit-refs=1 / limit-modes / me=3 / subme=4 / merange=25 / temporal-mvp / no-frame-dup / no-hme / weightp / weightb / no-analyze-src-pics / deblock=-3:-3 / no-sao / no-sao-non-deblock / rd=6 / selective-sao=0 / no-early-skip / rskip / no-fast-intra / no-tskip-fast / no-cu-lossless / b-intra / no-splitrd-skip / rdpenalty=0 / psy-rd=2.00 / psy-rdoq=1.00 / no-rd-refine / no-lossless / cbqpoffs=0 / crqpoffs=0 / rc=crf / crf=17.0 / qcomp=0.65 / qpstep=4 / stats-write=0 / stats-read=0 / vbv-maxrate=80000 / vbv-bufsize=80000 / vbv-init=0.9 / crf-max=0.0 / crf-min=0.0 / ipratio=1.40 / pbratio=1.30 / aq-mode=2 / aq-strength=0.85 / cutree / zone-count=0 / no-strict-cbr / qg-size=32 / no-rc-grain / qpmax=69 / qpmin=0 / no-const-vbv / sar=1 / overscan=0 / videoformat=5 / range=0 / colorprim=1 / transfer=1 / colormatrix=1 / chromaloc=0 / display-window=0 / cll=0,0 / min-luma=0 / max-luma=1023 / log2-max-poc-lsb=8 / vui-timing-info / vui-hrd-info / slices=1 / no-opt-qp-pps / no-opt-ref-list-length-pps / no-multi-pass-opt-rps / scenecut-bias=0.05 / hist-threshold=0.03 / no-opt-cu-delta-qp / no-aq-motion / no-hdr10 / no-hdr10-opt / no-dhdr10-opt / no-idr-recovery-sei / analysis-reuse-level=0 / analysis-save-reuse-level=0 / analysis-load-reuse-level=0 / scale-factor=0 / refine-intra=0 / refine-inter=0 / refine-mv=1 / refine-ctu-distortion=0 / no-limit-sao / ctu-info=0 / no-lowpass-dct / refine-analysis-type=0 / copy-pic=1 / max-ausize-factor=1.0 / no-dynamic-refine / no-single-sei / no-hevc-aq / no-svt / no-field / qp-adaptation-range=1.00 / no-scenecut-aware-qpconformance-window-offsets / right=0 / bottom=0 / NTMzNTQ= / decoder-max-rate=0

  35. Language : English

  36. Default : Yes

  37. Forced : No

  38. Color range : Limited

  39. Color primaries : BT.709

  40. Transfer characteristics : BT.709

  41. Matrix coefficients : BT.709

  42. Audio #1

  43. ID : 2

  44. Format : MLP FBA

  45. Format/Info : Meridian Lossless Packing FBA

  46. Commercial name : Dolby TrueHD

  47. Codec ID : A_TRUEHD

  48. Duration : 1 h 58 min

  49. Bit rate mode : Variable

  50. Bit rate : 2 865 kb/s

  51. Maximum bit rate : 4 350 kb/s

  52. Channel(s) : 6 channels

  53. Channel layout : L R C LFE Ls Rs

  54. Sampling rate : 96.0 kHz

  55. Frame rate : 1 200.000 FPS (80 SPF)

  56. Compression mode : Lossless

  57. Stream size : 2.36 GiB (18%)

  58. Title : Cantonese Dolby TrueHD Audio 5.1 @ 2865 kbps

  59. Language : Chinese

  60. Default : Yes

  61. Forced : No

  62. Audio #2

  63. ID : 3

  64. Format : AC-3

  65. Format/Info : Audio Coding 3

  66. Commercial name : Dolby Digital

  67. Codec ID : A_AC3

  68. Duration : 1 h 58 min

  69. Bit rate mode : Constant

  70. Bit rate : 640 kb/s

  71. Channel(s) : 6 channels

  72. Channel layout : L R C LFE Ls Rs

  73. Sampling rate : 48.0 kHz

  74. Frame rate : 31.250 FPS (1536 SPF)

  75. Compression mode : Lossy

  76. Stream size : 541 MiB (4%)

  77. Title : Cantonese Dolby Digital Audio 5.1 @ 640 kbps

  78. Language : Chinese

  79. Service kind : Complete Main

  80. Default : No

  81. Forced : No

  82. Audio #3

  83. ID : 4

  84. Format : AC-3

  85. Format/Info : Audio Coding 3

  86. Commercial name : Dolby Digital

  87. Codec ID : A_AC3

  88. Duration : 1 h 58 min

  89. Bit rate mode : Constant

  90. Bit rate : 640 kb/s

  91. Channel(s) : 6 channels

  92. Channel layout : L R C LFE Ls Rs

  93. Sampling rate : 48.0 kHz

  94. Frame rate : 31.250 FPS (1536 SPF)

  95. Compression mode : Lossy

  96. Stream size : 541 MiB (4%)

  97. Title : Mandarin Dolby Digital Audio 5.1 @ 640 kbps

  98. Language : Chinese

  99. Service kind : Complete Main

  100. Default : No

  101. Forced : No

  102. Text #1

  103. ID : 5

  104. Format : PGS

  105. Codec ID : S_HDMV/PGS

  106. Codec ID/Info : Picture based subtitle format used on BDs/HD-DVDs

  107. Duration : 1 h 53 min

  108. Bit rate : 20.8 kb/s

  109. Count of elements : 2146

  110. Stream size : 16.8 MiB (0%)

  111. Title : Cht/SUP 原盘繁体

  112. Language : Chinese

  113. Default : Yes

  114. Forced : No

  115. Text #2

  116. ID : 6

  117. Format : PGS

  118. Codec ID : S_HDMV/PGS

  119. Codec ID/Info : Picture based subtitle format used on BDs/HD-DVDs

  120. Duration : 1 h 53 min

  121. Bit rate : 26.2 kb/s

  122. Count of elements : 2154

  123. Stream size : 21.2 MiB (0%)

  124. Title : Eng/SUP

  125. Language : English

  126. Default : No

  127. Forced : No

  128. Menu

  129. 00:00:00.000 : :第 01 章

  130. 00:09:14.917 : :第 02 章

  131. 00:20:55.375 : :第 03 章

  132. 00:31:50.583 : :第 04 章

  133. 00:39:19.542 : :第 05 章

  134. 00:50:06.042 : :第 06 章

  135. 01:00:50.333 : :第 07 章

  136. 01:09:09.625 : :第 08 章

  137. 01:18:36.417 : :第 09 章

  138. 01:31:06.750 : :第 10 章

  139. 01:39:14.000 : :第 11 章

  140. 01:51:20.667 : :第 12 章


复制代码



文件下载


除非特别注明,本文『四大名捕[共3部合集][国粤英多音轨/繁英字幕].The.Four.Collection.2012-2014.BluRay.1080p.2Audio.TrueHD.5.1.x265.10bit-ALT』来源于互联网机器人自动抓取,非本站原创。 浮游电影网不对本文拥有版权,如有侵犯,请联系邮箱:fuyouu#yandex.com[#换成@]投诉。我们会在15个工作日内删除。 但烦请转载时请标明出处:“本文转载于『浮游电影网』,原文地址:https://www.fuyouu.com/22163.html

评论吧骚年!

发表你的见解   

昵称*

E-mail*(建议输入,以便收到博主回复的提示邮件)

验证码*

您可以使用eMule或eMule Mod(Windows)、aMule(Win、Linux、Mac)等软件下载eD2k链接。。
eMule收藏集(.emulecollection)文件是您选中的所有链接的列表文件。eMule可以直接下载它们。
按住SHIFT键选择可以选中多个选择框。
可用文件名和大小选择器来选择文件。
文件名选择器帮您根据文件名称或后缀来选择文件。不分大小写。
符号使用:
和:空格( )、+
不包含:-
或:|
转义:一对英文引号("");
匹配开头:^
匹配结尾:$
例如:
选中所有名称中包含有“eMule”或“0.49c”字眼,但不包含有“exe”字眼的:emule|0.49c -exe
选中所有名称的开头是“eMule”,结尾是“0.49c”的:^emule 0.49c$
选中所有名称中带有“eMule 0.49c”的(必须是“eMule 0.49c”,中间没有别的字符,不能是“eMule fake 0.49c”),需要转义:"emule 0.49c"
大小选择器帮您根据文件大小选择文件。