当前位置: 首页 >> 欧美电影 >> 敢死队[共3部合集][国英多音轨/简繁英字幕].The.Expendables.Collection.2010-2014.BluRay.1080p.2Audio.DTS-HD.MA.7.1.x265. >> 正文

敢死队[共3部合集][国英多音轨/简繁英字幕].The.Expendables.Collection.2010-2014.BluRay.1080p.2Audio.DTS-HD.MA.7.1.x265.

2022年05月14日 23:05:55     电影发布:来源于网络     电影分类:欧美电影     评论(0)    

敢死队[共3部合集][国英多音轨/简繁英字幕].The.Expendables.Collection.2010-2014.BluRay.1080p.2Audio.DTS-HD.MA.7.1.x265.10bit-ALT 36.92GB

◎译 名 敢死队 / 浴血任务(台) / 轰天猛将(港) / 牺牲品

◎片 名 The Expendables

◎年 代 2010

◎产 地 美国 / 保加利亚 / 西班牙 / 德国

◎类 别 动作 / 惊悚 / 冒险

◎语 言 英语 / 西班牙语

◎上映日期 2010-08-20(中国大陆) / 2010-08-13(美国)

◎IMDb链接 https://www.imdb.com/title/tt1320253/

◎豆瓣评分 6.9/10 (176046人评价)

◎豆瓣链接 https://movie.douban.com/subject/3279080/

◎片 长 103分钟

◎导 演 西尔维斯特·史泰龙 Sylvester Stallone (id:1047996)

◎编 剧 西尔维斯特·史泰龙 Sylvester Stallone (id:1047996)

◎演 员 西尔维斯特·史泰龙 Sylvester Stallone (id:1047996)

杰森·斯坦森 Jason Statham (id:1049484)

李连杰 Jet Li (id:1025146)

杜夫·龙格尔 Dolph Lundgren (id:1040508)

埃里克·罗伯茨 Eric Roberts (id:1002670)

兰迪·库卓 Randy Couture (id:1009313)

大卫·札亚斯 David Zayas (id:1274264)

史蒂夫·奥斯汀 Steve Austin (id:1036340)

米基·洛克 Mickey Rourke (id:1035646)

吉瑟勒尔·伊迪斯 Giselle Itié (id:1109696)

查瑞丝玛·卡朋特 Charisma Carpenter (id:1022583)

盖瑞·丹尼尔斯 Gary Daniels (id:1044907)

泰瑞·克鲁斯 Terry Crews (id:1022577)

阿诺·施瓦辛格 Arnold Schwarzenegger (id:1035643)

布鲁斯·威利斯 Bruce Willis (id:1010509)

卡德罗莎·奥娜·卡罗尔 (id:1459808)

布莱恩·泰勒 Brian Tyler (id:1276412)

利兹·沃尔夫 Lizz Wolf (id:1466605)

◎简 介

其貌不扬的退伍老兵巴尼·罗斯(西尔维斯特·史泰龙 Sylvester Stallone 饰)生活在城市的某个角落,事实上他却是一支特种兵的领袖,其麾下云集了李(杰森·斯坦森 Jason Statham 饰)、杨(李连杰 Jet Li 饰)等一众高手。正所谓艺高人胆大,只要酬金给足,再危险的任务也敢接。这天,来自中情局的教堂先生(布鲁斯·威利斯 Bruce Willis 饰)联系到巴尼,雇用他们前往位于南美的比莱纳岛,铲除与美国政府作对的独裁将军加尔萨(David Zayas 饰)。

由于任务艰险,巴尼和李先行探路,发现加尔萨与前中情局官员詹姆斯·门罗相互勾结,残酷压榨比莱纳岛的人民。不久巴尼和他的战友赶赴小岛,而更大的挑战正等待着这群骁勇的战士们……

◎获奖情况 (共1项)

第31届金酸莓奖 (2011)

最差导演(提名)

└──西尔维斯特·史泰龙 (id:1047996)

  1. 合集文件列表:

  2. 1.The.Expendables.2.2012.BluRay.1080p.2Audio.DTS-HD.MA.7.1.x265.10bit-ALT.mkv 14.41GB

  3. 2.The.Expendables.3.2014.Unrated.BluRay.1080p.2Audio.TrueHD.Atmos.7.1.x265.10bit-ALT.mkv 10.87GB

  4. 3.The.Expendables.2010.Extended.BluRay.1080p.2Audio.DTS-HD.MA.7.1.x265.10bit-ALT.mkv 11.64GB


复制代码

  1. ##### MediaInfo ######

  2. General

  3. Unique ID : 33793424712658192941443618006448705701 (0x196C6079BFE13A2EF335E6304EEB90A5)

  4. Complete name : The.Expendables.2.2012.BluRay.1080p.2Audio.DTS-HD.MA.7.1.x265.10bit-ALT.mkv

  5. Format : Matroska

  6. Format version : Version 4

  7. File size : 14.4 GiB

  8. Duration : 1 h 42 min

  9. Overall bit rate mode : Variable

  10. Overall bit rate : 20.1 Mb/s

  11. Movie name : Expendables.2.2012.BluRay.720p.x264.AC3.2Audios-CnSCG

  12. Encoded date : UTC 2020-01-01 03:45:56

  13. Writing application : mkvmerge v41.0.0 ('Smarra') 64-bit

  14. Writing library : libebml v1.3.9 + libmatroska v1.5.2

  15. Video

  16. ID : 1

  17. Format : HEVC

  18. Format/Info : High Efficiency Video Coding

  19. Format profile : Main [email protected]@High

  20. HDR format : SMPTE ST 2086

  21. Codec ID : V_MPEGH/ISO/HEVC

  22. Duration : 1 h 42 min

  23. Bit rate : 14.1 Mb/s

  24. Width : 1 920 pixels

  25. Height : 800 pixels

  26. Display aspect ratio : 2.40:1

  27. Frame rate mode : Constant

  28. Frame rate : 23.976 (24000/1001/53354) FPS

  29. Color space : YUV

  30. Chroma subsampling : 4:2:0

  31. Bit depth : 10 bits

  32. Bits/(Pixel*Frame) : 0.382

  33. Stream size : 10.1 GiB (70%)

  34. Title : HEVC, [email protected]@High, 24/1.001 fps @ 14072 kbps

  35. Writing library : x265 3.0_Au+4-dcbec33bfb0f:[Windows][GCC 8.2.1][64 bit] 10bit

  36. Encoding settings : cpuid=533541111039 / frame-threads=4 / numa-pools=16 / wpp / pmode / pme / no-psnr / no-ssim / log-level=2 / input-csp=1 / input-res=1920x800 / interlace=0 / total-frames=147738 / level-idc=51 / high-tier=1 / uhd-bd=0 / ref=5 / no-allow-non-conformance / repeat-headers / annexb / no-aud / no-hrd / info / hash=0 / no-temporal-layers / no-open-gop / min-keyint=24 / keyint=240 / gop-lookahead=0 / bframes=6 / b-adapt=2 / b-pyramid / bframe-bias=0 / rc-lookahead=40 / lookahead-slices=0 / NTMzNTQ=uuDQuD2mJt9fsCf / scenecut=40 / radl=0 / no-splice / no-intra-refresh / ctu=32 / min-cu-size=8 / no-rect / no-amp / max-tu-size=32 / tu-inter-depth=3 / tu-intra-depth=3 / limit-tu=4 / rdoq-level=2 / dynamic-rd=0.00 / no-ssim-rd / signhide / no-tskip / nr-intra=0 / nr-inter=0 / no-constrained-intra / no-strong-intra-smoothing / max-merge=4 / limit-refs=1 / limit-modes / me=3 / subme=4 / merange=25 / temporal-mvp / weightp / weightb / no-analyze-src-pics / deblock=-3:-3 / no-sao / no-sao-non-deblock / rd=6 / no-early-skip / rskip / no-fast-intra / no-tskip-fast / no-cu-lossless / b-intra / no-splitrd-skip / rdpenalty=0 / psy-rd=2.00 / psy-rdoq=1.00 / no-rd-refine / no-lossless / cbqpoffs=0 / crqpoffs=0 / rc=crf / crf=17.0 / qcomp=0.65 / qpstep=4 / stats-write=0 / stats-read=0 / vbv-maxrate=80000 / vbv-bufsize=80000 / vbv-init=0.9 / crf-max=0.0 / crf-min=0.0 / ipratio=1.40 / pbratio=1.30 / aq-mode=2 / aq-strength=0.85 / cutree / zone-count=0 / no-strict-cbr / qg-size=32 / no-rc-grain / qpmax=69 / qpmin=0 / no-const-vbv / sar=1 / overscan=0 / videoformat=5 / range=0 / colorprim=1 / transfer=1 / colormatrix=1 / chromaloc=0 / display-window=0 / master-display=G(15000,30000)B(7500,3000)R(32000,16500)WP(15635,16450)L(10000000,1) / max-cll=1000,1 / min-luma=0 / max-luma=1023 / log2-max-poc-lsb=8 / vui-timing-info / vui-hrd-info / slices=1 / no-opt-qp-pps / no-opt-ref-list-length-pps / no-multi-pass-opt-rps / scenecut-bias=0.05 / no-opt-cu-delta-qp / no-aq-motion / hdr / no-hdr-opt / no-dhdr10-opt / no-idr-recovery-sei / analysis-reuse-level=5 / scale-factor=0 / refine-intra=0 / refine-inter=0 / refine-mv=0 / refine-ctu-distortion=0 / no-limit-sao / ctu-info=0 / no-lowpass-dct / refine-analysis-type=0 / copy-pic=1 / max-ausize-factor=1.0 / no-dynamic-refine / no-single-sei / no-hevc-aq / qp-adaptation-range=1.00

  37. Language : English

  38. Default : Yes

  39. Forced : No

  40. Color range : Limited

  41. Color primaries : BT.709

  42. Transfer characteristics : BT.709

  43. Matrix coefficients : BT.709

  44. Mastering display color primaries : BT.709

  45. Mastering display luminance : min: 0.0001 cd/m2, max: 1000 cd/m2

  46. Maximum Content Light Level : 1000 cd/m2

  47. Maximum Frame-Average Light Level : 1 cd/m2

  48. Audio #1

  49. ID : 2

  50. Format : DTS XLL

  51. Format/Info : Digital Theater Systems

  52. Commercial name : DTS-HD Master Audio

  53. Codec ID : A_DTS

  54. Duration : 1 h 42 min

  55. Bit rate mode : Variable

  56. Bit rate : 5 515 kb/s

  57. Channel(s) : 8 channels

  58. Channel layout : C L R LFE Lb Rb Lss Rss

  59. Sampling rate : 48.0 kHz

  60. Frame rate : 93.750 FPS (512 SPF)

  61. Bit depth : 24 bits

  62. Compression mode : Lossless

  63. Stream size : 3.96 GiB (27%)

  64. Title : English DTS-HD Master Audio 7.1

  65. Language : English

  66. Default : Yes

  67. Forced : No

  68. Audio #2

  69. ID : 3

  70. Format : AC-3

  71. Format/Info : Audio Coding 3

  72. Commercial name : Dolby Digital

  73. Codec ID : A_AC3

  74. Duration : 1 h 42 min

  75. Bit rate mode : Constant

  76. Bit rate : 448 kb/s

  77. Channel(s) : 6 channels

  78. Channel layout : L R C LFE Ls Rs

  79. Sampling rate : 48.0 kHz

  80. Frame rate : 31.250 FPS (1536 SPF)

  81. Compression mode : Lossy

  82. Stream size : 329 MiB (2%)

  83. Title : Mandarin Dolby Digital Audio 5.1 @ 448 kbps

  84. Language : Chinese

  85. Service kind : Complete Main

  86. Default : No

  87. Forced : No

  88. Text #1

  89. ID : 4

  90. Format : PGS

  91. Codec ID : S_HDMV/PGS

  92. Codec ID/Info : Picture based subtitle format used on BDs/HD-DVDs

  93. Duration : 1 h 29 min

  94. Bit rate : 19.9 kb/s

  95. Count of elements : 1976

  96. Stream size : 12.8 MiB (0%)

  97. Title : Eng/SUP

  98. Language : English

  99. Default : No

  100. Forced : No

  101. Text #2

  102. ID : 5

  103. Format : PGS

  104. Codec ID : S_HDMV/PGS

  105. Codec ID/Info : Picture based subtitle format used on BDs/HD-DVDs

  106. Duration : 1 h 32 min

  107. Bit rate : 15.2 kb/s

  108. Count of elements : 2310

  109. Stream size : 10.0 MiB (0%)

  110. Title : Chs/SUP 简体

  111. Language : Chinese

  112. Default : Yes

  113. Forced : No

  114. Text #3

  115. ID : 6

  116. Format : PGS

  117. Codec ID : S_HDMV/PGS

  118. Codec ID/Info : Picture based subtitle format used on BDs/HD-DVDs

  119. Duration : 1 h 32 min

  120. Bit rate : 15.9 kb/s

  121. Count of elements : 2310

  122. Stream size : 10.5 MiB (0%)

  123. Title : Cht/SUP 繁体

  124. Language : Chinese

  125. Default : No

  126. Forced : No


复制代码



文件下载


除非特别注明,本文『敢死队[共3部合集][国英多音轨/简繁英字幕].The.Expendables.Collection.2010-2014.BluRay.1080p.2Audio.DTS-HD.MA.7.1.x265.』来源于互联网机器人自动抓取,非本站原创。 浮游电影网不对本文拥有版权,如有侵犯,请联系邮箱:fuyouu#yandex.com[#换成@]投诉。我们会在15个工作日内删除。 但烦请转载时请标明出处:“本文转载于『浮游电影网』,原文地址:https://www.fuyouu.com/22162.html

评论吧骚年!

发表你的见解   

昵称*

E-mail*(建议输入,以便收到博主回复的提示邮件)

验证码*

您可以使用eMule或eMule Mod(Windows)、aMule(Win、Linux、Mac)等软件下载eD2k链接。。
eMule收藏集(.emulecollection)文件是您选中的所有链接的列表文件。eMule可以直接下载它们。
按住SHIFT键选择可以选中多个选择框。
可用文件名和大小选择器来选择文件。
文件名选择器帮您根据文件名称或后缀来选择文件。不分大小写。
符号使用:
和:空格( )、+
不包含:-
或:|
转义:一对英文引号("");
匹配开头:^
匹配结尾:$
例如:
选中所有名称中包含有“eMule”或“0.49c”字眼,但不包含有“exe”字眼的:emule|0.49c -exe
选中所有名称的开头是“eMule”,结尾是“0.49c”的:^emule 0.49c$
选中所有名称中带有“eMule 0.49c”的(必须是“eMule 0.49c”,中间没有别的字符,不能是“eMule fake 0.49c”),需要转义:"emule 0.49c"
大小选择器帮您根据文件大小选择文件。