当前位置: 首页 >> 国产电影 >> 苏州河[国语音轨/繁英字幕].Suzhou.River.2000.BluRay.1080p.DTS-HD.MA.2.0.x265.10bit-ALT 7.42GB >> 正文

苏州河[国语音轨/繁英字幕].Suzhou.River.2000.BluRay.1080p.DTS-HD.MA.2.0.x265.10bit-ALT 7.42GB

2022年05月14日 23:02:17     电影发布:来源于网络     电影分类:国产电影     评论(0)    

◎译 名 苏州河 / Suzhou River

◎年 代 2000

◎产 地 中国大陆 / 德国

◎类 别 剧情 / 爱情

◎语 言 汉语普通话

◎上映日期 2000-09-07(中国香港)

◎IMDb链接 https://www.imdb.com/title/tt0234837/

◎豆瓣评分 8.2/10 (196186人评价)

◎豆瓣链接 https://movie.douban.com/subject/1299661/

◎片 长 83 分钟

◎导 演 娄烨 Ye Lou (id:1274263)

◎编 剧 娄烨 Ye Lou (id:1274263)

◎演 员 周迅 Xun Zhou (id:1027798)

贾宏声 Jia Hongsheng (id:1274399)

华仲凯 Zhongkai Hua (id:1398645)

姚安濂 Anlian Yao (id:1275747)

耐安 An Nai (id:1319560)

耐安 An Nai (id:1319560)

菲利普·伯拜 Philippe Bober (id:1338645)

浅井隆 Takashi Asai (id:1004229)

窦鹏 Peng Dou (id:1331830)

J?rg Lemberg J?rg Lemberg (id:1450662)

王昱 Yu Wang (id:1300412)

卡尔·里德尔 Karl Riedl (id:1417025)

李卓艺 Zhuoyi Li (id:1450663)

毛小睿 Xiaorui Mao (id:1327958)

富康 Kang Fu (id:1325306)

Peijun Xu Peijun Xu (id:1450664)

黄妍 Yan Huang (id:1444659)

◎简 介

上海苏州河上,用摩托车替人送货的马达(贾宏声)接下送接纯真少女牡丹(周迅)的活,两人相处时,牡丹爱上马达,但就在她决定把终身托付给对方时,马达财迷心窍联合黑道朋友绑架了她,令牡丹心灰意冷跳进苏州河里。临跳前,牡丹丢下会变成美人鱼再寻马达的话。

五年后,为自己行为懊悔不迭的马达疑惑牡丹又回来了,开始四处找寻。当在某酒吧里看到扮美人鱼表演的美美(周迅)时,马达认定她就是牡丹,然而美美不过是另一个痴情女子而已。

◎获奖情况 (共1项)

第1届华语电影传媒大奖 (2001)

年度十佳华语电影

  1. ##### MediaInfo ######

  2. General

  3. Unique ID : 41811602733698327818381809776868304903 (0x1F749F2C7FFC6DE4AE6A812A17E9A807)

  4. Complete name : Suzhou.River.2000.BluRay.1080p.DTS-HD.MA.2.0.x265.10bit-ALT.mkv

  5. Format : Matroska

  6. Format version : Version 4

  7. File size : 7.42 GiB

  8. Duration : 1 h 22 min

  9. Overall bit rate mode : Variable

  10. Overall bit rate : 12.8 Mb/s

  11. Encoded date : UTC 2022-05-13 13:05:23

  12. Writing application : mkvmerge v49.0.0 ('Sick Of Losing Soulmates') 64-bit

  13. Writing library : libebml v1.4.0 + libmatroska v1.6.1

  14. Video

  15. ID : 1

  16. Format : HEVC

  17. Format/Info : High Efficiency Video Coding

  18. Format profile : Main [email protected]@High

  19. Codec ID : V_MPEGH/ISO/HEVC

  20. Duration : 1 h 22 min

  21. Bit rate : 11.9 Mb/s

  22. Width : 1 920 pixels

  23. Height : 1 080 pixels

  24. Display aspect ratio : 16:9

  25. Frame rate mode : Constant

  26. Frame rate : 24.000 FPS

  27. Color space : YUV

  28. Chroma subsampling : 4:2:0

  29. Bit depth : 10 bits

  30. Bits/(Pixel*Frame) : 0.239

  31. Stream size : 6.87 GiB (93%)

  32. Title : HEVC, [email protected]@High, 24 fps @ 11901 kbps

  33. Writing library : x265 3.5+36-1f2c8da77:[Windows][GCC 11.2.0][64 bit] 10bit

  34. Encoding settings : cpuid=533541111039 / frame-threads=4 / numa-pools=20 / wpp / no-pmode / no-pme / no-psnr / no-ssim / log-level=2 / input-csp=1 / input-res=1920x1080 / interlace=0 / total-frames=119026 / level-idc=51 / high-tier=1 / uhd-bd=0 / ref=5 / no-allow-non-conformance / no-repeat-headers / annexb / no-aud / no-eob / no-eos / no-hrd / info / hash=0 / no-temporal-layers / open-gop / min-keyint=24 / keyint=240 / gop-lookahead=0 / bframes=6 / b-adapt=2 / b-pyramid / bframe-bias=0 / rc-lookahead=40 / lookahead-slices=0 / NTMzNTQ=uuDQuD2mJt9fsCf / scenecut=40 / no-hist-scenecut / radl=0 / no-splice / no-intra-refresh / ctu=32 / min-cu-size=8 / no-rect / no-amp / max-tu-size=32 / tu-inter-depth=3 / tu-intra-depth=3 / limit-tu=4 / rdoq-level=2 / dynamic-rd=0.00 / no-ssim-rd / signhide / no-tskip / nr-intra=0 / nr-inter=0 / no-constrained-intra / no-strong-intra-smoothing / max-merge=4 / limit-refs=1 / limit-modes / me=3 / subme=4 / merange=25 / temporal-mvp / no-frame-dup / no-hme / weightp / weightb / no-analyze-src-pics / deblock=-3:-3 / no-sao / no-sao-non-deblock / rd=6 / selective-sao=0 / no-early-skip / rskip / no-fast-intra / no-tskip-fast / no-cu-lossless / b-intra / no-splitrd-skip / rdpenalty=0 / psy-rd=2.00 / psy-rdoq=1.00 / no-rd-refine / no-lossless / cbqpoffs=-2 / crqpoffs=-2 / rc=crf / crf=18.5 / qcomp=0.65 / qpstep=4 / stats-write=0 / stats-read=0 / vbv-maxrate=80000 / vbv-bufsize=80000 / vbv-init=0.9 / min-vbv-fullness=50.0 / max-vbv-fullness=80.0 / crf-max=0.0 / crf-min=0.0 / ipratio=1.40 / pbratio=1.30 / aq-mode=2 / aq-strength=0.85 / cutree / zone-count=0 / no-strict-cbr / qg-size=32 / no-rc-grain / qpmax=69 / qpmin=0 / no-const-vbv / sar=1 / overscan=0 / videoformat=5 / range=0 / colorprim=1 / transfer=1 / colormatrix=1 / chromaloc=0 / display-window=0 / cll=0,0 / min-luma=0 / max-luma=1023 / log2-max-poc-lsb=8 / vui-timing-info / vui-hrd-info / slices=1 / no-opt-qp-pps / no-opt-ref-list-length-pps / no-multi-pass-opt-rps / scenecut-bias=0.05 / hist-threshold=0.03 / no-opt-cu-delta-qp / no-aq-motion / no-hdr10 / no-hdr10-opt / no-dhdr10-opt / no-idr-recovery-sei / analysis-reuse-level=0 / analysis-save-reuse-level=0 / analysis-load-reuse-level=0 / scale-factor=0 / refine-intra=0 / refine-inter=0 / refine-mv=1 / refine-ctu-distortion=0 / no-limit-sao / ctu-info=0 / no-lowpass-dct / refine-analysis-type=0 / copy-pic=1 / max-ausize-factor=1.0 / no-dynamic-refine / no-single-sei / no-hevc-aq / no-svt / no-field / qp-adaptation-range=1.00 / scenecut-aware-qp=0conformance-window-offsets / right=0 / bottom=0 / NTMzNTQ= / decoder-max-rate=0 / no-vbv-live-multi-pass

  35. Language : English

  36. Default : Yes

  37. Forced : No

  38. Color range : Limited

  39. Color primaries : BT.709

  40. Transfer characteristics : BT.709

  41. Matrix coefficients : BT.709

  42. Audio

  43. ID : 2

  44. Format : DTS XLL

  45. Format/Info : Digital Theater Systems

  46. Commercial name : DTS-HD Master Audio

  47. Codec ID : A_DTS

  48. Duration : 1 h 22 min

  49. Bit rate mode : Variable

  50. Bit rate : 901 kb/s

  51. Channel(s) : 2 channels

  52. Channel layout : L R

  53. Sampling rate : 48.0 kHz

  54. Frame rate : 93.750 FPS (512 SPF)

  55. Bit depth : 16 bits

  56. Compression mode : Lossless

  57. Stream size : 533 MiB (7%)

  58. Title : Mandarin DTS-HD Master Audio 2.0 @ 901 kbps

  59. Language : Chinese

  60. Default : Yes

  61. Forced : No

  62. Text #1

  63. ID : 3

  64. Format : PGS

  65. Codec ID : S_HDMV/PGS

  66. Codec ID/Info : Picture based subtitle format used on BDs/HD-DVDs

  67. Duration : 1 h 19 min

  68. Bit rate : 20.5 kb/s

  69. Count of elements : 1304

  70. Stream size : 11.7 MiB (0%)

  71. Title : Cht/SUP 原盘繁体

  72. Language : Chinese

  73. Default : Yes

  74. Forced : No

  75. Text #2

  76. ID : 4

  77. Format : PGS

  78. Codec ID : S_HDMV/PGS

  79. Codec ID/Info : Picture based subtitle format used on BDs/HD-DVDs

  80. Duration : 1 h 19 min

  81. Bit rate : 19.4 kb/s

  82. Count of elements : 1288

  83. Stream size : 11.0 MiB (0%)

  84. Title : Eng/SUP

  85. Language : English

  86. Default : No

  87. Forced : No

  88. Menu

  89. 00:00:00.000 : en:第 01 章

  90. 00:10:29.125 : en:第 02 章

  91. 00:21:01.542 : en:第 03 章

  92. 00:31:26.417 : en:第 04 章

  93. 00:41:31.417 : en:第 05 章

  94. 00:50:16.458 : en:第 06 章

  95. 01:02:13.500 : en:第 07 章

  96. 01:12:11.917 : en:第 08 章


复制代码



文件下载


除非特别注明,本文『苏州河[国语音轨/繁英字幕].Suzhou.River.2000.BluRay.1080p.DTS-HD.MA.2.0.x265.10bit-ALT 7.42GB』来源于互联网机器人自动抓取,非本站原创。 浮游电影网不对本文拥有版权,如有侵犯,请联系邮箱:fuyouu#yandex.com[#换成@]投诉。我们会在15个工作日内删除。 但烦请转载时请标明出处:“本文转载于『浮游电影网』,原文地址:https://www.fuyouu.com/22158.html

评论吧骚年!

发表你的见解   

昵称*

E-mail*(建议输入,以便收到博主回复的提示邮件)

验证码*

您可以使用eMule或eMule Mod(Windows)、aMule(Win、Linux、Mac)等软件下载eD2k链接。。
eMule收藏集(.emulecollection)文件是您选中的所有链接的列表文件。eMule可以直接下载它们。
按住SHIFT键选择可以选中多个选择框。
可用文件名和大小选择器来选择文件。
文件名选择器帮您根据文件名称或后缀来选择文件。不分大小写。
符号使用:
和:空格( )、+
不包含:-
或:|
转义:一对英文引号("");
匹配开头:^
匹配结尾:$
例如:
选中所有名称中包含有“eMule”或“0.49c”字眼,但不包含有“exe”字眼的:emule|0.49c -exe
选中所有名称的开头是“eMule”,结尾是“0.49c”的:^emule 0.49c$
选中所有名称中带有“eMule 0.49c”的(必须是“eMule 0.49c”,中间没有别的字符,不能是“eMule fake 0.49c”),需要转义:"emule 0.49c"
大小选择器帮您根据文件大小选择文件。