当前位置: 首页 >> 欧美电影 >> 球鞋灰姑娘[国英多音轨/简繁英字幕].Sneakerella.2022.2160p.DSNP.WEB-DL.DDP.5.1.Atmos.HDR.H.265-CTRLWEB 13.55GB >> 正文

球鞋灰姑娘[国英多音轨/简繁英字幕].Sneakerella.2022.2160p.DSNP.WEB-DL.DDP.5.1.Atmos.HDR.H.265-CTRLWEB 13.55GB

2022年05月14日 23:01:21     电影发布:来源于网络     电影分类:欧美电影     评论(0)    

◎译 名 球鞋灰姑娘 / 球鞋奇缘(台)

◎片 名 Sneakerella

◎年 代 2022

◎产 地 美国

◎类 别 喜剧 / 歌舞

◎语 言 英语

◎上映日期 2022-05-13(美国网络)

◎IMDb链接 https://www.imdb.com/title/tt10160886/

◎豆瓣链接 https://movie.douban.com/subject/35398570/

◎导 演 伊丽莎白·艾伦 Elizabeth Allen (id:1277038)

◎编 剧 戴维·莱特 David Light (id:1393681)

约瑟夫·拉索 Joseph Raso (id:1393682)

George Gore II George Gore II (id:1095568)

塔马拉·切斯特那 Tamara Chestna (id:1453139)

◎演 员 乔森·雅各布 Chosen Jacobs (id:1380978)

莱克西·安德伍德 Lexi Underwood (id:1434385)

科尔顿·斯图尔特 Kolton Stewart (id:1430831)

罗维娜·亚瓦里 Lovina Yavari (id:1409837)

约翰·萨利 John Salley (id:1146754)

塔拉·尼科迪莫 Tara Nicodemo (id:1394629)

洛根·汤普森 Logan Thompson (id:1380981)

迪文·妮科塔 Devyn Nekoda (id:1356899)

罗伯特·J·塔维纳 Robert J. Tavenor (id:1199493)

丹尼尔·基思·莫里森 Daniel Keith Morrison (id:1441662)

Qasim Khan Qasim Khan (id:1205557)

◎简 介

A modern twist on Cinderella set in New York City's Sneaker culture.

  1. ##### MediaInfo ######

  2. General

  3. Unique ID : 39727499541170720664450396763405994292 (0x1DE33CF400E1B8FD52D05AE8922CC934)

  4. Complete name : Sneakerella.2022.2160p.DSNP.WEB-DL.DDP.5.1.Atmos.HDR.H.265-CTRLWEB.mkv

  5. Format : Matroska

  6. Format version : Version 4

  7. File size : 13.5 GiB

  8. Duration : 1 h 50 min

  9. Overall bit rate : 17.5 Mb/s

  10. Encoded date : UTC 2022-05-13 08:35:31

  11. Writing application : mkvmerge v65.0.0 ('Too Much') 64-bit

  12. Writing library : libebml v1.4.2 + libmatroska v1.6.4

  13. Video

  14. ID : 1

  15. Format : HEVC

  16. Format/Info : High Efficiency Video Coding

  17. Format profile : Main [email protected]@High

  18. HDR format : SMPTE ST 2086, HDR10 compatible

  19. Codec ID : V_MPEGH/ISO/HEVC

  20. Duration : 1 h 50 min

  21. Bit rate : 16.5 Mb/s

  22. Width : 3 840 pixels

  23. Height : 2 160 pixels

  24. Display aspect ratio : 16:9

  25. Frame rate mode : Constant

  26. Frame rate : 23.976 (24000/1001/53354) FPS

  27. Color space : YUV

  28. Chroma subsampling : 4:2:0

  29. Bit depth : 10 bits

  30. Bits/(Pixel*Frame) : 0.083

  31. Stream size : 12.7 GiB (94%)

  32. Language : English

  33. Default : Yes

  34. Forced : No

  35. Color range : Limited

  36. Color primaries : BT.2020

  37. Transfer characteristics : PQ

  38. Matrix coefficients : BT.2020 non-constant

  39. Mastering display color primaries : Display P3

  40. Mastering display luminance : min: 0.0001 cd/m2, max: 1000 cd/m2

  41. Audio #1

  42. ID : 2

  43. Format : E-AC-3 JOC

  44. Format/Info : Enhanced AC-3 with Joint Object Coding

  45. Commercial name : Dolby Digital Plus with Dolby Atmos

  46. Codec ID : A_EAC3

  47. Duration : 1 h 50 min

  48. Bit rate mode : Constant

  49. Bit rate : 768 kb/s

  50. Channel(s) : 6 channels

  51. Channel layout : L R C LFE Ls Rs

  52. Sampling rate : 48.0 kHz

  53. Frame rate : 31.250 FPS (1536 SPF)

  54. Compression mode : Lossy

  55. Stream size : 609 MiB (4%)

  56. Language : English

  57. Service kind : Complete Main

  58. Default : Yes

  59. Forced : No

  60. Complexity index : 16

  61. Number of dynamic objects : 15

  62. Bed channel count : 1 channel

  63. Bed channel configuration : LFE

  64. Audio #2

  65. ID : 3

  66. Format : E-AC-3

  67. Format/Info : Enhanced AC-3

  68. Commercial name : Dolby Digital Plus

  69. Codec ID : A_EAC3

  70. Duration : 1 h 50 min

  71. Bit rate mode : Constant

  72. Bit rate : 256 kb/s

  73. Channel(s) : 6 channels

  74. Channel layout : L R C LFE Ls Rs

  75. Sampling rate : 48.0 kHz

  76. Frame rate : 31.250 FPS (1536 SPF)

  77. Compression mode : Lossy

  78. Stream size : 203 MiB (1%)

  79. Language : Chinese

  80. Service kind : Complete Main

  81. Default : No

  82. Forced : No

  83. Text #1

  84. ID : 4

  85. Format : UTF-8

  86. Codec ID : S_TEXT/UTF8

  87. Codec ID/Info : UTF-8 Plain Text

  88. Duration : 1 h 50 min

  89. Bit rate : 100 b/s

  90. Count of elements : 2185

  91. Stream size : 81.3 KiB (0%)

  92. Title : SDH

  93. Language : English

  94. Default : No

  95. Forced : No

  96. Text #2

  97. ID : 5

  98. Format : UTF-8

  99. Codec ID : S_TEXT/UTF8

  100. Codec ID/Info : UTF-8 Plain Text

  101. Duration : 1 h 50 min

  102. Bit rate : 20 b/s

  103. Count of elements : 566

  104. Stream size : 16.8 KiB (0%)

  105. Title : Forced

  106. Language : Chinese

  107. Default : No

  108. Forced : Yes

  109. Text #3

  110. ID : 6

  111. Format : UTF-8

  112. Codec ID : S_TEXT/UTF8

  113. Codec ID/Info : UTF-8 Plain Text

  114. Duration : 1 h 50 min

  115. Bit rate : 78 b/s

  116. Count of elements : 2006

  117. Stream size : 63.5 KiB (0%)

  118. Language : Czech

  119. Default : No

  120. Forced : No

  121. Text #4

  122. ID : 7

  123. Format : UTF-8

  124. Codec ID : S_TEXT/UTF8

  125. Codec ID/Info : UTF-8 Plain Text

  126. Duration : 1 h 50 min

  127. Bit rate : 82 b/s

  128. Count of elements : 1999

  129. Stream size : 66.5 KiB (0%)

  130. Language : Danish

  131. Default : No

  132. Forced : No

  133. Text #5

  134. ID : 8

  135. Format : UTF-8

  136. Codec ID : S_TEXT/UTF8

  137. Codec ID/Info : UTF-8 Plain Text

  138. Duration : 1 h 50 min

  139. Bit rate : 74 b/s

  140. Count of elements : 1927

  141. Stream size : 60.1 KiB (0%)

  142. Language : German

  143. Default : No

  144. Forced : No

  145. Text #6

  146. ID : 9

  147. Format : UTF-8

  148. Codec ID : S_TEXT/UTF8

  149. Codec ID/Info : UTF-8 Plain Text

  150. Duration : 1 h 50 min

  151. Bit rate : 136 b/s

  152. Count of elements : 1986

  153. Stream size : 111 KiB (0%)

  154. Language : Greek

  155. Default : No

  156. Forced : No

  157. Text #7

  158. ID : 10

  159. Format : UTF-8

  160. Codec ID : S_TEXT/UTF8

  161. Codec ID/Info : UTF-8 Plain Text

  162. Duration : 1 h 50 min

  163. Bit rate : 75 b/s

  164. Count of elements : 1750

  165. Stream size : 61.2 KiB (0%)

  166. Title : Latin America

  167. Language : Spanish

  168. Default : No

  169. Forced : No

  170. Text #8

  171. ID : 11

  172. Format : UTF-8

  173. Codec ID : S_TEXT/UTF8

  174. Codec ID/Info : UTF-8 Plain Text

  175. Duration : 1 h 50 min

  176. Bit rate : 72 b/s

  177. Count of elements : 1974

  178. Stream size : 58.7 KiB (0%)

  179. Language : Spanish

  180. Default : No

  181. Forced : No

  182. Text #9

  183. ID : 12

  184. Format : UTF-8

  185. Codec ID : S_TEXT/UTF8

  186. Codec ID/Info : UTF-8 Plain Text

  187. Duration : 1 h 50 min

  188. Bit rate : 55 b/s

  189. Count of elements : 1506

  190. Stream size : 45.0 KiB (0%)

  191. Language : Finnish

  192. Default : No

  193. Forced : No

  194. Text #10

  195. ID : 13

  196. Format : UTF-8

  197. Codec ID : S_TEXT/UTF8

  198. Codec ID/Info : UTF-8 Plain Text

  199. Duration : 1 h 50 min

  200. Bit rate : 79 b/s

  201. Count of elements : 1983

  202. Stream size : 64.2 KiB (0%)

  203. Language : French

  204. Default : No

  205. Forced : No

  206. Text #11

  207. ID : 14

  208. Format : UTF-8

  209. Codec ID : S_TEXT/UTF8

  210. Codec ID/Info : UTF-8 Plain Text

  211. Duration : 1 h 50 min

  212. Bit rate : 76 b/s

  213. Count of elements : 1976

  214. Stream size : 62.2 KiB (0%)

  215. Language : Hungarian

  216. Default : No

  217. Forced : No

  218. Text #12

  219. ID : 15

  220. Format : UTF-8

  221. Codec ID : S_TEXT/UTF8

  222. Codec ID/Info : UTF-8 Plain Text

  223. Duration : 1 h 50 min

  224. Bit rate : 77 b/s

  225. Count of elements : 1988

  226. Stream size : 63.0 KiB (0%)

  227. Language : Italian

  228. Default : No

  229. Forced : No

  230. Text #13

  231. ID : 16

  232. Format : UTF-8

  233. Codec ID : S_TEXT/UTF8

  234. Codec ID/Info : UTF-8 Plain Text

  235. Duration : 1 h 50 min

  236. Bit rate : 64 b/s

  237. Count of elements : 2042

  238. Stream size : 52.5 KiB (0%)

  239. Language : Japanese

  240. Default : No

  241. Forced : No

  242. Text #14

  243. ID : 17

  244. Format : UTF-8

  245. Codec ID : S_TEXT/UTF8

  246. Codec ID/Info : UTF-8 Plain Text

  247. Duration : 1 h 50 min

  248. Bit rate : 88 b/s

  249. Count of elements : 1994

  250. Stream size : 72.0 KiB (0%)

  251. Language : Korean

  252. Default : No

  253. Forced : No

  254. Text #15

  255. ID : 18

  256. Format : UTF-8

  257. Codec ID : S_TEXT/UTF8

  258. Codec ID/Info : UTF-8 Plain Text

  259. Duration : 1 h 50 min

  260. Bit rate : 75 b/s

  261. Count of elements : 1793

  262. Stream size : 61.1 KiB (0%)

  263. Language : Norwegian Bokmal

  264. Default : No

  265. Forced : No

  266. Text #16

  267. ID : 19

  268. Format : UTF-8

  269. Codec ID : S_TEXT/UTF8

  270. Codec ID/Info : UTF-8 Plain Text

  271. Duration : 1 h 50 min

  272. Bit rate : 73 b/s

  273. Count of elements : 1851

  274. Stream size : 59.4 KiB (0%)

  275. Language : Dutch

  276. Default : No

  277. Forced : No

  278. Text #17

  279. ID : 20

  280. Format : UTF-8

  281. Codec ID : S_TEXT/UTF8

  282. Codec ID/Info : UTF-8 Plain Text

  283. Duration : 1 h 50 min

  284. Bit rate : 76 b/s

  285. Count of elements : 1984

  286. Stream size : 61.7 KiB (0%)

  287. Language : Polish

  288. Default : No

  289. Forced : No

  290. Text #18

  291. ID : 21

  292. Format : UTF-8

  293. Codec ID : S_TEXT/UTF8

  294. Codec ID/Info : UTF-8 Plain Text

  295. Duration : 1 h 50 min

  296. Bit rate : 72 b/s

  297. Count of elements : 1989

  298. Stream size : 59.0 KiB (0%)

  299. Title : Brazil

  300. Language : Portuguese

  301. Default : No

  302. Forced : No

  303. Text #19

  304. ID : 22

  305. Format : UTF-8

  306. Codec ID : S_TEXT/UTF8

  307. Codec ID/Info : UTF-8 Plain Text

  308. Duration : 1 h 50 min

  309. Bit rate : 77 b/s

  310. Count of elements : 1989

  311. Stream size : 62.8 KiB (0%)

  312. Language : Portuguese

  313. Default : No

  314. Forced : No

  315. Text #20

  316. ID : 23

  317. Format : UTF-8

  318. Codec ID : S_TEXT/UTF8

  319. Codec ID/Info : UTF-8 Plain Text

  320. Duration : 1 h 50 min

  321. Bit rate : 72 b/s

  322. Count of elements : 1772

  323. Stream size : 58.8 KiB (0%)

  324. Language : Romanian

  325. Default : No

  326. Forced : No

  327. Text #21

  328. ID : 24

  329. Format : UTF-8

  330. Codec ID : S_TEXT/UTF8

  331. Codec ID/Info : UTF-8 Plain Text

  332. Duration : 1 h 50 min

  333. Bit rate : 79 b/s

  334. Count of elements : 1970

  335. Stream size : 64.8 KiB (0%)

  336. Language : Slovak

  337. Default : No

  338. Forced : No

  339. Text #22

  340. ID : 25

  341. Format : UTF-8

  342. Codec ID : S_TEXT/UTF8

  343. Codec ID/Info : UTF-8 Plain Text

  344. Duration : 1 h 50 min

  345. Bit rate : 78 b/s

  346. Count of elements : 1944

  347. Stream size : 63.4 KiB (0%)

  348. Language : Swedish

  349. Default : No

  350. Forced : No

  351. Text #23

  352. ID : 26

  353. Format : UTF-8

  354. Codec ID : S_TEXT/UTF8

  355. Codec ID/Info : UTF-8 Plain Text

  356. Duration : 1 h 50 min

  357. Bit rate : 83 b/s

  358. Count of elements : 1995

  359. Stream size : 67.4 KiB (0%)

  360. Language : Turkish

  361. Default : No

  362. Forced : No

  363. Text #24

  364. ID : 27

  365. Format : UTF-8

  366. Codec ID : S_TEXT/UTF8

  367. Codec ID/Info : UTF-8 Plain Text

  368. Duration : 1 h 50 min

  369. Bit rate : 76 b/s

  370. Count of elements : 2025

  371. Stream size : 62.0 KiB (0%)

  372. Title : Simplified

  373. Language : Chinese

  374. Default : No

  375. Forced : No

  376. Text #25

  377. ID : 28

  378. Format : UTF-8

  379. Codec ID : S_TEXT/UTF8

  380. Codec ID/Info : UTF-8 Plain Text

  381. Duration : 1 h 50 min

  382. Bit rate : 84 b/s

  383. Count of elements : 2012

  384. Stream size : 68.3 KiB (0%)

  385. Title : Traditional

  386. Language : Chinese

  387. Default : No

  388. Forced : No

  389. Text #26

  390. ID : 29

  391. Format : UTF-8

  392. Codec ID : S_TEXT/UTF8

  393. Codec ID/Info : UTF-8 Plain Text

  394. Duration : 1 h 50 min

  395. Bit rate : 74 b/s

  396. Count of elements : 2019

  397. Stream size : 60.7 KiB (0%)

  398. Title : Traditional, Hong Kong

  399. Language : Chinese

  400. Default : No

  401. Forced : No


复制代码



文件下载


除非特别注明,本文『球鞋灰姑娘[国英多音轨/简繁英字幕].Sneakerella.2022.2160p.DSNP.WEB-DL.DDP.5.1.Atmos.HDR.H.265-CTRLWEB 13.55GB』来源于互联网机器人自动抓取,非本站原创。 浮游电影网不对本文拥有版权,如有侵犯,请联系邮箱:fuyouu#yandex.com[#换成@]投诉。我们会在15个工作日内删除。 但烦请转载时请标明出处:“本文转载于『浮游电影网』,原文地址:https://www.fuyouu.com/22157.html

评论吧骚年!

发表你的见解   

昵称*

E-mail*(建议输入,以便收到博主回复的提示邮件)

验证码*

您可以使用eMule或eMule Mod(Windows)、aMule(Win、Linux、Mac)等软件下载eD2k链接。。
eMule收藏集(.emulecollection)文件是您选中的所有链接的列表文件。eMule可以直接下载它们。
按住SHIFT键选择可以选中多个选择框。
可用文件名和大小选择器来选择文件。
文件名选择器帮您根据文件名称或后缀来选择文件。不分大小写。
符号使用:
和:空格( )、+
不包含:-
或:|
转义:一对英文引号("");
匹配开头:^
匹配结尾:$
例如:
选中所有名称中包含有“eMule”或“0.49c”字眼,但不包含有“exe”字眼的:emule|0.49c -exe
选中所有名称的开头是“eMule”,结尾是“0.49c”的:^emule 0.49c$
选中所有名称中带有“eMule 0.49c”的(必须是“eMule 0.49c”,中间没有别的字符,不能是“eMule fake 0.49c”),需要转义:"emule 0.49c"
大小选择器帮您根据文件大小选择文件。