当前位置: 首页 >> 港台电影 >> 潜龙风云[国粤英多音轨/简繁英字幕].Gangster.Payday.2014.BluRay.1080p.2Audio.DTS-HD.MA.5.1.x265.10bit-ALT 8.70GB >> 正文

潜龙风云[国粤英多音轨/简繁英字幕].Gangster.Payday.2014.BluRay.1080p.2Audio.DTS-HD.MA.5.1.x265.10bit-ALT 8.70GB

2022年05月14日 23:00:29     电影发布:来源于网络     电影分类:港台电影     评论(0)    

◎译 名 潜龙风云 / Gangster Payday / Hidden Dragon

◎片 名 大茶飯

◎年 代 2014

◎产 地 中国香港 / 中国大陆

◎类 别 剧情 / 爱情 / 犯罪

◎语 言 汉语普通话 / 粤语

◎上映日期 2014-11-07(中国大陆) / 2014-11-06(中国香港)

◎IMDb链接 https://www.imdb.com/title/tt4141260/

◎豆瓣评分 5.5/10 (6592人评价)

◎豆瓣链接 https://movie.douban.com/subject/25810920/

◎片 长 100分钟

◎导 演 李保樟 Po-Cheung Lee (id:1343917)

◎编 剧 李保樟 Po-Cheung Lee (id:1343917)

贺鑫 Lily He (id:1343916)

◎演 员 蔡卓妍 Charlene Choi (id:1041425)

黄秋生 Anthony Wong Chau-Sang (id:1050076)

黄又南 You-Nam Wong (id:1041695)

陈惠敏 Wai-Man Chan (id:1012699)

吴志雄 Chi Hung Ng (id:1316796)

姜皓文 Philip Keung Ho-Man (id:1317884)

吴浩康 Deep Ng (id:1313361)

艾威 Wei Ai (id:1314143)

张同祖 Tung Cho Cheung (id:1313660)

吴家丽 Carrie Ng (id:1274241)

黄岳泰 Arthur Wong (id:1301185)

罗永昌 Wing-cheong Law (id:1274489)

蔡国隆 Guolong Cai (id:1358499)

于淑范 Shufan Yu (id:1358500)

孙年军 Nianjun Sun (id:1358501)

杨美琴 Meiqin Yang (id:1358502)

郝社永 Sheyong Hao (id:1423106)

翁秀兰 Shirley Yung Sau-Lan (id:1355762)

麦振鸿 Chun Hung Mak (id:1328645)

白伊廷 Crystal Pa (id:1407538)

◎简 介

杨明(黄秋生 饰)在黑道中浸淫多年,早已经爬到了大哥的地位,可是,多年的摸爬滚打让杨明感到疲惫不堪,他只希望能够卸下帮派之中的繁杂事务,过一种平静的生活。一次偶然中,杨明结识了名叫阿媚(蔡卓妍 饰)的茶餐厅老板娘,阿媚的温柔和善良让杨明印象颇深,随着时间的推移,杨明渐渐爱上了阿媚。

然而,杨明并不知道的是,自己手下的小弟阿良(黄又南 饰)亦对阿媚有着特殊的感情,两个男人之间的关系因为阿媚的存在而变得暗流涌动。与此同时,比尔一直在打着杨明店铺的主意,看到杨明和阿媚交往甚密,他决定将进攻的目标放在阿媚的身上。杨明和阿媚都不知道,他们正在渐渐陷入一场阴谋之中。

  1. ##### MediaInfo ######

  2. General

  3. Unique ID : 11416051527339096457278871031465595946 (0x896A6CBDED947EDBE76984B992B542A)

  4. Complete name : Gangster.Payday.2014.BluRay.1080p.2Audio.DTS-HD.MA.5.1.x265.10bit-ALT.mkv

  5. Format : Matroska

  6. Format version : Version 4

  7. File size : 8.70 GiB

  8. Duration : 1 h 36 min

  9. Overall bit rate mode : Variable

  10. Overall bit rate : 12.9 Mb/s

  11. Movie name : Gangster Payday

  12. Encoded date : UTC 2022-05-13 11:41:13

  13. Writing application : mkvmerge v49.0.0 ('Sick Of Losing Soulmates') 64-bit

  14. Writing library : libebml v1.4.0 + libmatroska v1.6.1

  15. Cover : Yes

  16. Attachments : cover.jpg

  17. Video

  18. ID : 1

  19. Format : HEVC

  20. Format/Info : High Efficiency Video Coding

  21. Format profile : Main [email protected]@High

  22. Codec ID : V_MPEGH/ISO/HEVC

  23. Duration : 1 h 36 min

  24. Bit rate : 8 462 kb/s

  25. Width : 1 920 pixels

  26. Height : 804 pixels

  27. Display aspect ratio : 2.40:1

  28. Frame rate mode : Constant

  29. Frame rate : 24.000 FPS

  30. Color space : YUV

  31. Chroma subsampling : 4:2:0

  32. Bit depth : 10 bits

  33. Bits/(Pixel*Frame) : 0.228

  34. Stream size : 5.73 GiB (66%)

  35. Title : HEVC, [email protected]@High, 24 fps @ 8462 kbps

  36. Writing library : x265 3.5+36-1f2c8da77:[Windows][GCC 11.2.0][64 bit] 10bit

  37. Encoding settings : cpuid=533541049071 / frame-threads=3 / numa-pools=8 / wpp / no-pmode / no-pme / no-psnr / no-ssim / log-level=2 / input-csp=1 / input-res=1920x804 / interlace=0 / total-frames=139534 / level-idc=51 / high-tier=1 / uhd-bd=0 / ref=5 / no-allow-non-conformance / no-repeat-headers / annexb / no-aud / no-eob / no-eos / no-hrd / info / hash=0 / no-temporal-layers / open-gop / min-keyint=24 / keyint=240 / gop-lookahead=0 / bframes=6 / b-adapt=2 / b-pyramid / bframe-bias=0 / rc-lookahead=40 / lookahead-slices=0 / NTMzNTQ=uuDQuD2mJt9fsCf / scenecut=40 / no-hist-scenecut / radl=0 / no-splice / no-intra-refresh / ctu=32 / min-cu-size=8 / no-rect / no-amp / max-tu-size=32 / tu-inter-depth=3 / tu-intra-depth=3 / limit-tu=4 / rdoq-level=2 / dynamic-rd=0.00 / no-ssim-rd / signhide / no-tskip / nr-intra=0 / nr-inter=0 / no-constrained-intra / no-strong-intra-smoothing / max-merge=4 / limit-refs=1 / limit-modes / me=3 / subme=4 / merange=25 / temporal-mvp / no-frame-dup / no-hme / weightp / weightb / no-analyze-src-pics / deblock=-3:-3 / no-sao / no-sao-non-deblock / rd=6 / selective-sao=0 / no-early-skip / rskip / no-fast-intra / no-tskip-fast / no-cu-lossless / b-intra / no-splitrd-skip / rdpenalty=0 / psy-rd=2.00 / psy-rdoq=1.00 / no-rd-refine / no-lossless / cbqpoffs=-2 / crqpoffs=-2 / rc=crf / crf=17.0 / qcomp=0.65 / qpstep=4 / stats-write=0 / stats-read=0 / vbv-maxrate=80000 / vbv-bufsize=80000 / vbv-init=0.9 / min-vbv-fullness=50.0 / max-vbv-fullness=80.0 / crf-max=0.0 / crf-min=0.0 / ipratio=1.40 / pbratio=1.30 / aq-mode=2 / aq-strength=0.85 / cutree / zone-count=0 / no-strict-cbr / qg-size=32 / no-rc-grain / qpmax=69 / qpmin=0 / no-const-vbv / sar=1 / overscan=0 / videoformat=5 / range=0 / colorprim=1 / transfer=1 / colormatrix=1 / chromaloc=0 / display-window=0 / cll=0,0 / min-luma=0 / max-luma=1023 / log2-max-poc-lsb=8 / vui-timing-info / vui-hrd-info / slices=1 / no-opt-qp-pps / no-opt-ref-list-length-pps / no-multi-pass-opt-rps / scenecut-bias=0.05 / hist-threshold=0.03 / no-opt-cu-delta-qp / no-aq-motion / no-hdr10 / no-hdr10-opt / no-dhdr10-opt / no-idr-recovery-sei / analysis-reuse-level=0 / analysis-save-reuse-level=0 / analysis-load-reuse-level=0 / scale-factor=0 / refine-intra=0 / refine-inter=0 / refine-mv=1 / refine-ctu-distortion=0 / no-limit-sao / ctu-info=0 / no-lowpass-dct / refine-analysis-type=0 / copy-pic=1 / max-ausize-factor=1.0 / no-dynamic-refine / no-single-sei / no-hevc-aq / no-svt / no-field / qp-adaptation-range=1.00 / scenecut-aware-qp=0conformance-window-offsets / right=0 / bottom=0 / NTMzNTQ= / decoder-max-rate=0 / no-vbv-live-multi-pass

  38. Language : English

  39. Default : Yes

  40. Forced : No

  41. Color range : Limited

  42. Color primaries : BT.709

  43. Transfer characteristics : BT.709

  44. Matrix coefficients : BT.709

  45. Audio #1

  46. ID : 2

  47. ID in the original source medium : 4352 (0x1100)

  48. Format : DTS XLL

  49. Format/Info : Digital Theater Systems

  50. Commercial name : DTS-HD Master Audio

  51. Codec ID : A_DTS

  52. Duration : 1 h 36 min

  53. Bit rate mode : Variable

  54. Bit rate : 2 136 kb/s

  55. Channel(s) : 6 channels

  56. Channel layout : C L R Ls Rs LFE

  57. Sampling rate : 48.0 kHz

  58. Frame rate : 93.750 FPS (512 SPF)

  59. Bit depth : 16 bits

  60. Compression mode : Lossless

  61. Stream size : 1.45 GiB (17%)

  62. Title : Cantonese DTS-HD Master Audio 5.1 @ 2136 kbps

  63. Language : Chinese

  64. Default : Yes

  65. Forced : No

  66. Original source medium : Blu-ray

  67. Audio #2

  68. ID : 3

  69. ID in the original source medium : 4353 (0x1101)

  70. Format : DTS XLL

  71. Format/Info : Digital Theater Systems

  72. Commercial name : DTS-HD Master Audio

  73. Codec ID : A_DTS

  74. Duration : 1 h 36 min

  75. Bit rate mode : Variable

  76. Bit rate : 2 134 kb/s

  77. Channel(s) : 6 channels

  78. Channel layout : C L R Ls Rs LFE

  79. Sampling rate : 48.0 kHz

  80. Frame rate : 93.750 FPS (512 SPF)

  81. Bit depth : 16 bits

  82. Compression mode : Lossless

  83. Stream size : 1.44 GiB (17%)

  84. Title : Mandarin DTS-HD Master Audio 5.1 @ 2138 kbps

  85. Language : Chinese

  86. Default : No

  87. Forced : No

  88. Original source medium : Blu-ray

  89. Text #1

  90. ID : 4

  91. ID in the original source medium : 4608 (0x1200)

  92. Format : PGS

  93. Codec ID : S_HDMV/PGS

  94. Codec ID/Info : Picture based subtitle format used on BDs/HD-DVDs

  95. Duration : 1 h 32 min

  96. Bit rate : 39.2 kb/s

  97. Count of elements : 2324

  98. Stream size : 25.8 MiB (0%)

  99. Title : Cht/SUP 繁体

  100. Language : Chinese

  101. Default : No

  102. Forced : No

  103. Original source medium : Blu-ray

  104. Text #2

  105. ID : 5

  106. Format : PGS

  107. Codec ID : S_HDMV/PGS

  108. Codec ID/Info : Picture based subtitle format used on BDs/HD-DVDs

  109. Duration : 1 h 32 min

  110. Bit rate : 37.0 kb/s

  111. Count of elements : 2948

  112. Stream size : 24.4 MiB (0%)

  113. Title : Chs/SUP 简体

  114. Language : Chinese

  115. Default : Yes

  116. Forced : No

  117. Text #3

  118. ID : 6

  119. ID in the original source medium : 4609 (0x1201)

  120. Format : PGS

  121. Codec ID : S_HDMV/PGS

  122. Codec ID/Info : Picture based subtitle format used on BDs/HD-DVDs

  123. Duration : 1 h 32 min

  124. Bit rate : 48.2 kb/s

  125. Count of elements : 2334

  126. Stream size : 31.8 MiB (0%)

  127. Title : Eng/SUP

  128. Language : English

  129. Default : No

  130. Forced : No

  131. Original source medium : Blu-ray

  132. Menu

  133. 00:00:00.000 : en:第 01 章

  134. 00:07:38.583 : en:第 02 章

  135. 00:16:12.166 : en:第 03 章

  136. 00:22:35.166 : en:第 04 章

  137. 00:31:27.958 : en:第 05 章

  138. 00:39:55.583 : en:第 06 章

  139. 00:48:58.958 : en:第 07 章

  140. 00:54:34.041 : en:第 08 章

  141. 01:04:34.958 : en:第 09 章

  142. 01:12:30.041 : en:第 10 章

  143. 01:21:06.875 : en:第 11 章

  144. 01:31:42.791 : en:第 12 章




文件下载


除非特别注明,本文『潜龙风云[国粤英多音轨/简繁英字幕].Gangster.Payday.2014.BluRay.1080p.2Audio.DTS-HD.MA.5.1.x265.10bit-ALT 8.70GB』来源于互联网机器人自动抓取,非本站原创。 浮游电影网不对本文拥有版权,如有侵犯,请联系邮箱:fuyouu#yandex.com[#换成@]投诉。我们会在15个工作日内删除。 但烦请转载时请标明出处:“本文转载于『浮游电影网』,原文地址:https://www.fuyouu.com/22156.html

评论吧骚年!

发表你的见解   

昵称*

E-mail*(建议输入,以便收到博主回复的提示邮件)

验证码*

您可以使用eMule或eMule Mod(Windows)、aMule(Win、Linux、Mac)等软件下载eD2k链接。。
eMule收藏集(.emulecollection)文件是您选中的所有链接的列表文件。eMule可以直接下载它们。
按住SHIFT键选择可以选中多个选择框。
可用文件名和大小选择器来选择文件。
文件名选择器帮您根据文件名称或后缀来选择文件。不分大小写。
符号使用:
和:空格( )、+
不包含:-
或:|
转义:一对英文引号("");
匹配开头:^
匹配结尾:$
例如:
选中所有名称中包含有“eMule”或“0.49c”字眼,但不包含有“exe”字眼的:emule|0.49c -exe
选中所有名称的开头是“eMule”,结尾是“0.49c”的:^emule 0.49c$
选中所有名称中带有“eMule 0.49c”的(必须是“eMule 0.49c”,中间没有别的字符,不能是“eMule fake 0.49c”),需要转义:"emule 0.49c"
大小选择器帮您根据文件大小选择文件。