当前位置: 首页 >> 海外电影 >> 蜂巢幽灵[中文字幕].El.espiritu.de.la.colmena.1973.BluRay.1080p.AC3.x265.10bit-CTRLHD 5.73GB >> 正文

蜂巢幽灵[中文字幕].El.espiritu.de.la.colmena.1973.BluRay.1080p.AC3.x265.10bit-CTRLHD 5.73GB

2022年05月14日 22:58:48     电影发布:来源于网络     电影分类:海外电影     评论(0)    

◎译 名 蜂巢幽灵 / 蜂巢的幽灵 / 蜂巢精灵 / The Spirit of the Beehive

◎片 名 El espíritu de la colmena

◎年 代 1973

◎产 地 西班牙

◎类 别 剧情

◎语 言 西班牙语

◎上映日期 1973-09(圣塞巴斯蒂安电影节)

◎IMDb链接 https://www.imdb.com/title/tt0070040/

◎豆瓣评分 8.6/10 (7265人评价)

◎豆瓣链接 https://movie.douban.com/subject/1401900/

◎片 长 97 分钟

◎导 演 维克多·艾里斯 Víctor Erice (id:1090815)

◎编 剧 维克多·艾里斯 Víctor Erice (id:1090815)

◎演 员 安娜·托伦特 Ana Torrent (id:1009617)

费尔南多·费尔南·戈麦斯 Fernando Fernán Gómez (id:1054370)

特雷莎·希梅拉 Teresa Gimpera (id:1050502)

胡安·马加略 Juan Margallo (id:1381436)

拉莉·索尔德维拉 Laly Soldevila (id:1151864)

米格尔·皮卡佐 Miguel Picazo (id:1294485)

伊莎贝尔·泰勒利亚 Isabel Tellería (id:1417111)

Pablo González del Amo Pablo González del Amo (id:1282167)

ángel Luis De Diego ángel Luis De Diego (id:1281997)

Pablo Nú?ez Pablo Nú?ez (id:1293358)

Paco Lucio Paco Lucio (id:1380313)

◎简 介

1940年,一辆放映车驶入卡斯蒂利亚高原的某个村子,孩子们马上围拢了上去。放映的电影是《科学怪人》,座位上有女童安娜(Ana Torrent 饰)和她的小姐姐伊莎贝尔(Isabel Tellería 饰)。放映室外,父亲痴迷于自己的新蜂房,他掏出怀表,结束了今天的工作。母亲正在写一封信,尽管对方收到信的可能渺茫,母亲在信纸上倾诉思念之情,在火车站将信投递。安娜久久不能忘记科学怪人,伊莎贝尔向她虚构出荒原上一座孤立的砖房是怪人的出没之地。安娜惊慌逃开,但从此不时返回砖房查看。伊莎贝尔似乎洞悉了某种秘密,她装死、跳过火堆,诸如此类。不久一名受伤军人躲进砖房被安娜发现,当晚军人中枪死亡。父亲来到村公所拿走军人的物品,包括一只怀表。安娜独自一个跑出村子,夜里她在湖边遇到了科学怪人……

本片获1973年圣塞巴斯蒂安国际电影节金贝壳奖等多项褒奖。

  1. ##### MediaInfo ######

  2. General

  3. Unique ID : 188385208456272163227564773238926977702 (0x8DB9ABE12B45045C11F451A53A6FAAA6)

  4. Complete name : El.espiritu.de.la.colmena.1973.BluRay.1080p.AC3.x265.10bit-CTRLHD.mkv

  5. Format : Matroska

  6. Format version : Version 4

  7. File size : 5.73 GiB

  8. Duration : 1 h 38 min

  9. Overall bit rate : 8 324 kb/s

  10. Encoded date : UTC 2022-05-13 05:11:43

  11. Writing application : mkvmerge v64.0.0 ('Willows') 64-bit

  12. Writing library : libebml v1.4.2 + libmatroska v1.6.4

  13. Video

  14. ID : 1

  15. Format : HEVC

  16. Format/Info : High Efficiency Video Coding

  17. Format profile : Main [email protected]@High

  18. Codec ID : V_MPEGH/ISO/HEVC

  19. Duration : 1 h 38 min

  20. Bit rate : 7 672 kb/s

  21. Width : 1 920 pixels

  22. Height : 1 080 pixels

  23. Display aspect ratio : 16:9

  24. Frame rate mode : Constant

  25. Frame rate : 24.000 FPS

  26. Color space : YUV

  27. Chroma subsampling : 4:2:0

  28. Bit depth : 10 bits

  29. Bits/(Pixel*Frame) : 0.154

  30. Stream size : 5.28 GiB (92%)

  31. Writing library : x265 3.5+20-17839cc0d:[Windows][MSVC 1930][64 bit] 10bit

  32. Encoding settings : cpuid=533541111039 / frame-threads=4 / numa-pools=24 / wpp / no-pmode / no-pme / no-psnr / no-ssim / log-level=2 / input-csp=1 / input-res=1920x1080 / interlace=0 / total-frames=0 / level-idc=51 / high-tier=1 / uhd-bd=0 / ref=6 / no-allow-non-conformance / repeat-headers / annexb / no-aud / no-eob / no-eos / no-hrd / info / hash=0 / no-temporal-layers / no-open-gop / min-keyint=24 / keyint=250 / gop-lookahead=0 / bframes=8 / b-adapt=2 / b-pyramid / bframe-bias=0 / rc-lookahead=24 / lookahead-slices=6 / NTMzNTQ=uuDQuD2mJt9fsCf / scenecut=40 / no-hist-scenecut / radl=0 / no-splice / no-intra-refresh / ctu=64 / min-cu-size=8 / no-rect / no-amp / max-tu-size=32 / tu-inter-depth=1 / tu-intra-depth=1 / limit-tu=0 / rdoq-level=0 / dynamic-rd=0.00 / no-ssim-rd / signhide / no-tskip / nr-intra=0 / nr-inter=0 / no-constrained-intra / no-strong-intra-smoothing / max-merge=3 / limit-refs=1 / no-limit-modes / me=2 / subme=7 / merange=48 / temporal-mvp / no-frame-dup / no-hme / weightp / weightb / no-analyze-src-pics / deblock=0:0 / sao / no-sao-non-deblock / rd=4 / selective-sao=4 / early-skip / rskip / no-fast-intra / no-tskip-fast / no-cu-lossless / b-intra / no-splitrd-skip / rdpenalty=0 / psy-rd=2.00 / psy-rdoq=0.00 / no-rd-refine / no-lossless / cbqpoffs=0 / crqpoffs=0 / rc=crf / crf=18.0 / qcomp=0.60 / qpstep=4 / stats-write=0 / stats-read=0 / vbv-maxrate=160000 / vbv-bufsize=160000 / vbv-init=0.9 / min-vbv-fullness=50.0 / max-vbv-fullness=80.0 / crf-max=0.0 / crf-min=0.0 / ipratio=1.40 / pbratio=1.30 / aq-mode=3 / aq-strength=1.00 / cutree / zone-count=0 / no-strict-cbr / qg-size=32 / no-rc-grain / qpmax=69 / qpmin=0 / no-const-vbv / sar=0 / overscan=0 / videoformat=5 / range=0 / colorprim=2 / transfer=2 / colormatrix=2 / chromaloc=0 / display-window=0 / cll=0,0 / min-luma=0 / max-luma=1023 / log2-max-poc-lsb=8 / vui-timing-info / vui-hrd-info / slices=1 / no-opt-qp-pps / no-opt-ref-list-length-pps / no-multi-pass-opt-rps / scenecut-bias=0.05 / hist-threshold=0.03 / no-opt-cu-delta-qp / aq-motion / no-hdr10 / no-hdr10-opt / no-dhdr10-opt / no-idr-recovery-sei / analysis-reuse-level=0 / analysis-save-reuse-level=0 / analysis-load-reuse-level=0 / scale-factor=0 / refine-intra=0 / refine-inter=0 / refine-mv=1 / refine-ctu-distortion=0 / no-limit-sao / ctu-info=0 / no-lowpass-dct / refine-analysis-type=0 / copy-pic=1 / max-ausize-factor=1.0 / no-dynamic-refine / no-single-sei / no-hevc-aq / no-svt / no-field / qp-adaptation-range=1.00 / scenecut-aware-qp=0conformance-window-offsets / right=0 / bottom=0 / NTMzNTQ= / decoder-max-rate=0 / no-vbv-live-multi-pass

  33. Language : Spanish

  34. Default : Yes

  35. Forced : No

  36. Audio

  37. ID : 2

  38. Format : AC-3

  39. Format/Info : Audio Coding 3

  40. Commercial name : Dolby Digital

  41. Codec ID : A_AC3

  42. Duration : 1 h 38 min

  43. Bit rate mode : Constant

  44. Bit rate : 640 kb/s

  45. Channel(s) : 2 channels

  46. Channel layout : L R

  47. Sampling rate : 48.0 kHz

  48. Frame rate : 31.250 FPS (1536 SPF)

  49. Compression mode : Lossy

  50. Stream size : 451 MiB (8%)

  51. Language : Spanish

  52. Service kind : Complete Main

  53. Default : Yes

  54. Forced : No

  55. Text #1

  56. ID : 3

  57. Format : PGS

  58. Muxing mode : zlib

  59. Codec ID : S_HDMV/PGS

  60. Codec ID/Info : Picture based subtitle format used on BDs/HD-DVDs

  61. Duration : 1 h 36 min

  62. Bit rate : 7 136 b/s

  63. Count of elements : 790

  64. Stream size : 4.92 MiB (0%)

  65. Language : Chinese

  66. Default : Yes

  67. Forced : No

  68. Text #2

  69. ID : 4

  70. Format : PGS

  71. Muxing mode : zlib

  72. Codec ID : S_HDMV/PGS

  73. Codec ID/Info : Picture based subtitle format used on BDs/HD-DVDs

  74. Duration : 1 h 36 min

  75. Bit rate : 12.2 kb/s

  76. Count of elements : 792

  77. Stream size : 8.42 MiB (0%)

  78. Language : Chinese

  79. Default : Yes

  80. Forced : No

  81. Menu

  82. 00:00:00.000 : es:Chapter 01

  83. 00:05:20.792 : es:Chapter 02

  84. 00:14:01.458 : es:Chapter 03

  85. 00:23:55.750 : es:Chapter 04

  86. 00:30:30.000 : es:Chapter 05

  87. 00:40:01.000 : es:Chapter 06

  88. 00:49:32.917 : es:Chapter 07

  89. 00:57:41.958 : es:Chapter 08

  90. 01:05:55.000 : es:Chapter 09

  91. 01:13:49.000 : es:Chapter 10

  92. 01:21:00.000 : es:Chapter 11

  93. 01:27:49.000 : es:Chapter 12


复制代码



文件下载


除非特别注明,本文『蜂巢幽灵[中文字幕].El.espiritu.de.la.colmena.1973.BluRay.1080p.AC3.x265.10bit-CTRLHD 5.73GB』来源于互联网机器人自动抓取,非本站原创。 浮游电影网不对本文拥有版权,如有侵犯,请联系邮箱:fuyouu#yandex.com[#换成@]投诉。我们会在15个工作日内删除。 但烦请转载时请标明出处:“本文转载于『浮游电影网』,原文地址:https://www.fuyouu.com/22154.html

评论吧骚年!

发表你的见解   

昵称*

E-mail*(建议输入,以便收到博主回复的提示邮件)

验证码*

您可以使用eMule或eMule Mod(Windows)、aMule(Win、Linux、Mac)等软件下载eD2k链接。。
eMule收藏集(.emulecollection)文件是您选中的所有链接的列表文件。eMule可以直接下载它们。
按住SHIFT键选择可以选中多个选择框。
可用文件名和大小选择器来选择文件。
文件名选择器帮您根据文件名称或后缀来选择文件。不分大小写。
符号使用:
和:空格( )、+
不包含:-
或:|
转义:一对英文引号("");
匹配开头:^
匹配结尾:$
例如:
选中所有名称中包含有“eMule”或“0.49c”字眼,但不包含有“exe”字眼的:emule|0.49c -exe
选中所有名称的开头是“eMule”,结尾是“0.49c”的:^emule 0.49c$
选中所有名称中带有“eMule 0.49c”的(必须是“eMule 0.49c”,中间没有别的字符,不能是“eMule fake 0.49c”),需要转义:"emule 0.49c"
大小选择器帮您根据文件大小选择文件。