当前位置: 首页 >> 欧美电影 >> 战斧骨[简繁英字幕].Bone.Tomahawk.2015.BluRay.1080p.DTS-HD.MA5.1.x265.10bit-ALT 9.73GB >> 正文

战斧骨[简繁英字幕].Bone.Tomahawk.2015.BluRay.1080p.DTS-HD.MA5.1.x265.10bit-ALT 9.73GB

2022年05月14日 22:57:56     电影发布:来源于网络     电影分类:欧美电影     评论(0)    

◎译 名 战斧骨

◎片 名 Bone Tomahawk

◎年 代 2015

◎产 地 美国

◎类 别 恐怖 / 西部

◎语 言 英语

◎上映日期 2015-10-23(美国)

◎IMDb链接 https://www.imdb.com/title/tt2494362/

◎豆瓣评分 7.0/10 (8605人评价)

◎豆瓣链接 https://movie.douban.com/subject/22522269/

◎片 长 133分钟

◎导 演 S·克雷格·扎勒 S. Craig Zahler (id:1353299)

◎编 剧 S·克雷格·扎勒 S. Craig Zahler (id:1353299)

◎演 员 帕特里克·威尔森 Patrick Wilson (id:1006919)

库尔特·拉塞尔 Kurt Russell (id:1031814)

莉莉·西蒙斯 Lili Simmons (id:1326637)

肖恩·杨 Sean Young (id:1041118)

扎恩·迈克拉农 Zahn McClarnon (id:1041640)

马修·福克斯 Matthew Fox (id:1009255)

大卫·阿奎特 David Arquette (id:1049510)

凯瑟琳·莫里斯 Kathryn Morris (id:1007010)

希德·黑格 Sid Haig (id:1010637)

理查德·詹金斯 Richard Jenkins (id:1048145)

迈克尔·帕尔 Michael Paré (id:1027873)

杰米·埃克托 Jamie Hector (id:1027423)

詹姆斯·托根 James Tolkan (id:1155350)

弗雷德·迈拉麦德 Fred Melamed (id:1045154)

伊万·乔尼凯特 Evan Jonigkeit (id:1340192)

Marem Hassler Marem Hassler (id:1451280)

S·克雷格·扎勒 S. Craig Zahler (id:1353299)

◎简 介

美国西部某个小镇,警长富兰克林·亨特(库尔特·拉塞尔 Kurt Russell 饰)夜晚射伤了一名可疑的流浪汉,随后他请来小镇医生萨曼莎(莉莉·西蒙斯 Lili Simmons 饰)为嫌疑人治疗。夜深人静,一名马夫遭到神秘入侵者残忍杀害,而嫌疑人和萨曼莎也消失无踪。富兰克林深感事态严重,他召集萨曼莎的丈夫亚瑟·欧·德怀尔(帕特里克·威尔森 Patrick Wilson 饰)以及其他村们在当地酒馆开会,进而得知昨晚的事可能是一个神秘的穴居人所为。这群野蛮人近亲通婚,甚至会吃掉包括亲生母亲在内的人类。

虽然凶险无比,富兰克林以及其他勇士决心勇闯穴居人的老巢,就会被绑架的村民,这次征程凶多吉少……

◎获奖情况 (共2项)

第31届美国独立精神奖 (2016)

最佳男配角(提名)

└──理查德·詹金斯 (id:1048145)

最佳剧本(提名)

└──S·克雷格·扎勒 (id:1353299)

  1. ##### MediaInfo ######

  2. General

  3. Unique ID : 133754140032961655380071477899043610235 (0x64A01C3FBC40A9D06EA9F33BB2991E7B)

  4. Complete name : Bone.Tomahawk.2015.BluRay.1080p.DTS-HD.MA5.1.x265.10bit-ALT.mkv

  5. Format : Matroska

  6. Format version : Version 4

  7. File size : 9.73 GiB

  8. Duration : 2 h 12 min

  9. Overall bit rate mode : Variable

  10. Overall bit rate : 10.5 Mb/s

  11. Encoded date : UTC 2022-05-13 10:44:22

  12. Writing application : mkvmerge v49.0.0 ('Sick Of Losing Soulmates') 64-bit

  13. Writing library : libebml v1.4.0 + libmatroska v1.6.1

  14. Video

  15. ID : 1

  16. Format : HEVC

  17. Format/Info : High Efficiency Video Coding

  18. Format profile : Main [email protected]@High

  19. Codec ID : V_MPEGH/ISO/HEVC

  20. Duration : 2 h 12 min

  21. Bit rate : 6 710 kb/s

  22. Width : 1 920 pixels

  23. Height : 804 pixels

  24. Display aspect ratio : 2.40:1

  25. Frame rate mode : Constant

  26. Frame rate : 23.976 (24000/1001/53354) FPS

  27. Color space : YUV

  28. Chroma subsampling : 4:2:0

  29. Bit depth : 10 bits

  30. Bits/(Pixel*Frame) : 0.181

  31. Stream size : 6.19 GiB (64%)

  32. Title : HEVC, [email protected]@High, 24/1.001 fps @ 6709 kbps

  33. Writing library : x265 3.5+36-1f2c8da77:[Windows][GCC 11.2.0][64 bit] 10bit

  34. Encoding settings : cpuid=533541111039 / frame-threads=4 / numa-pools=20 / wpp / no-pmode / no-pme / no-psnr / no-ssim / log-level=2 / input-csp=1 / input-res=1920x804 / interlace=0 / total-frames=190008 / level-idc=51 / high-tier=1 / uhd-bd=0 / ref=5 / no-allow-non-conformance / no-repeat-headers / annexb / no-aud / no-eob / no-eos / no-hrd / info / hash=0 / no-temporal-layers / open-gop / min-keyint=24 / keyint=240 / gop-lookahead=0 / bframes=6 / b-adapt=2 / b-pyramid / bframe-bias=0 / rc-lookahead=40 / lookahead-slices=0 / NTMzNTQ=uuDQuD2mJt9fsCf / scenecut=40 / no-hist-scenecut / radl=0 / no-splice / no-intra-refresh / ctu=32 / min-cu-size=8 / no-rect / no-amp / max-tu-size=32 / tu-inter-depth=3 / tu-intra-depth=3 / limit-tu=4 / rdoq-level=2 / dynamic-rd=0.00 / no-ssim-rd / signhide / no-tskip / nr-intra=0 / nr-inter=0 / no-constrained-intra / no-strong-intra-smoothing / max-merge=4 / limit-refs=1 / limit-modes / me=3 / subme=4 / merange=25 / temporal-mvp / no-frame-dup / no-hme / weightp / weightb / no-analyze-src-pics / deblock=-3:-3 / no-sao / no-sao-non-deblock / rd=6 / selective-sao=0 / no-early-skip / rskip / no-fast-intra / no-tskip-fast / no-cu-lossless / b-intra / no-splitrd-skip / rdpenalty=0 / psy-rd=2.00 / psy-rdoq=1.00 / no-rd-refine / no-lossless / cbqpoffs=-2 / crqpoffs=-2 / rc=crf / crf=17.0 / qcomp=0.65 / qpstep=4 / stats-write=0 / stats-read=0 / vbv-maxrate=80000 / vbv-bufsize=80000 / vbv-init=0.9 / min-vbv-fullness=50.0 / max-vbv-fullness=80.0 / crf-max=0.0 / crf-min=0.0 / ipratio=1.40 / pbratio=1.30 / aq-mode=2 / aq-strength=0.85 / cutree / zone-count=0 / no-strict-cbr / qg-size=32 / no-rc-grain / qpmax=69 / qpmin=0 / no-const-vbv / sar=1 / overscan=0 / videoformat=5 / range=0 / colorprim=1 / transfer=1 / colormatrix=1 / chromaloc=0 / display-window=0 / cll=0,0 / min-luma=0 / max-luma=1023 / log2-max-poc-lsb=8 / vui-timing-info / vui-hrd-info / slices=1 / no-opt-qp-pps / no-opt-ref-list-length-pps / no-multi-pass-opt-rps / scenecut-bias=0.05 / hist-threshold=0.03 / no-opt-cu-delta-qp / no-aq-motion / no-hdr10 / no-hdr10-opt / no-dhdr10-opt / no-idr-recovery-sei / analysis-reuse-level=0 / analysis-save-reuse-level=0 / analysis-load-reuse-level=0 / scale-factor=0 / refine-intra=0 / refine-inter=0 / refine-mv=1 / refine-ctu-distortion=0 / no-limit-sao / ctu-info=0 / no-lowpass-dct / refine-analysis-type=0 / copy-pic=1 / max-ausize-factor=1.0 / no-dynamic-refine / no-single-sei / no-hevc-aq / no-svt / no-field / qp-adaptation-range=1.00 / scenecut-aware-qp=0conformance-window-offsets / right=0 / bottom=0 / NTMzNTQ= / decoder-max-rate=0 / no-vbv-live-multi-pass

  35. Language : English

  36. Default : Yes

  37. Forced : No

  38. Color range : Limited

  39. Color primaries : BT.709

  40. Transfer characteristics : BT.709

  41. Matrix coefficients : BT.709

  42. Audio

  43. ID : 2

  44. Format : DTS XLL

  45. Format/Info : Digital Theater Systems

  46. Commercial name : DTS-HD Master Audio

  47. Codec ID : A_DTS

  48. Duration : 2 h 12 min

  49. Bit rate mode : Variable

  50. Bit rate : 3 684 kb/s

  51. Channel(s) : 6 channels

  52. Channel layout : C L R Ls Rs LFE

  53. Sampling rate : 48.0 kHz

  54. Frame rate : 93.750 FPS (512 SPF)

  55. Bit depth : 24 bits

  56. Compression mode : Lossless

  57. Stream size : 3.40 GiB (35%)

  58. Title : English DTS-HD Master Audio 5.1 @ 3684 kbps

  59. Language : English

  60. Default : Yes

  61. Forced : No

  62. Text #1

  63. ID : 3

  64. Format : PGS

  65. Codec ID : S_HDMV/PGS

  66. Codec ID/Info : Picture based subtitle format used on BDs/HD-DVDs

  67. Duration : 2 h 11 min

  68. Bit rate : 47.3 kb/s

  69. Count of elements : 2962

  70. Stream size : 44.5 MiB (0%)

  71. Title : Eng/SUP

  72. Language : English

  73. Default : No

  74. Forced : No

  75. Text #2

  76. ID : 4

  77. Format : PGS

  78. Codec ID : S_HDMV/PGS

  79. Codec ID/Info : Picture based subtitle format used on BDs/HD-DVDs

  80. Duration : 2 h 3 min

  81. Bit rate : 18.4 kb/s

  82. Count of elements : 2222

  83. Stream size : 16.2 MiB (0%)

  84. Title : Chs/SUP 简体

  85. Language : Chinese

  86. Default : Yes

  87. Forced : No

  88. Text #3

  89. ID : 5

  90. Format : PGS

  91. Codec ID : S_HDMV/PGS

  92. Codec ID/Info : Picture based subtitle format used on BDs/HD-DVDs

  93. Duration : 2 h 3 min

  94. Bit rate : 19.2 kb/s

  95. Count of elements : 2222

  96. Stream size : 17.0 MiB (0%)

  97. Title : Cht/SUP 繁体

  98. Language : Chinese

  99. Default : No

  100. Forced : No

  101. Text #4

  102. ID : 6

  103. Format : PGS

  104. Codec ID : S_HDMV/PGS

  105. Codec ID/Info : Picture based subtitle format used on BDs/HD-DVDs

  106. Duration : 2 h 3 min

  107. Bit rate : 33.2 kb/s

  108. Count of elements : 2223

  109. Stream size : 29.3 MiB (0%)

  110. Title : Chs/SUP 简英双语

  111. Language : Chinese

  112. Default : No

  113. Forced : No

  114. Text #5

  115. ID : 7

  116. Format : PGS

  117. Codec ID : S_HDMV/PGS

  118. Codec ID/Info : Picture based subtitle format used on BDs/HD-DVDs

  119. Duration : 2 h 3 min

  120. Bit rate : 34.1 kb/s

  121. Count of elements : 2223

  122. Stream size : 30.1 MiB (0%)

  123. Title : Cht/SUP 繁英双语

  124. Language : Chinese

  125. Default : No

  126. Forced : No

  127. Menu

  128. 00:00:00.000 : en:第 01 章

  129. 00:09:52.926 : en:第 02 章

  130. 00:24:26.340 : en:第 03 章

  131. 00:34:52.382 : en:第 04 章

  132. 00:46:55.271 : en:第 05 章

  133. 01:02:34.793 : en:第 06 章

  134. 01:12:38.646 : en:第 07 章

  135. 01:27:47.512 : en:第 08 章

  136. 01:34:12.772 : en:第 09 章

  137. 01:46:46.025 : en:第 10 章

  138. 01:56:19.389 : en:第 11 章

  139. 02:04:48.398 : en:第 12 章


复制代码



文件下载


除非特别注明,本文『战斧骨[简繁英字幕].Bone.Tomahawk.2015.BluRay.1080p.DTS-HD.MA5.1.x265.10bit-ALT 9.73GB』来源于互联网机器人自动抓取,非本站原创。 浮游电影网不对本文拥有版权,如有侵犯,请联系邮箱:fuyouu#yandex.com[#换成@]投诉。我们会在15个工作日内删除。 但烦请转载时请标明出处:“本文转载于『浮游电影网』,原文地址:https://www.fuyouu.com/22153.html

评论吧骚年!

发表你的见解   

昵称*

E-mail*(建议输入,以便收到博主回复的提示邮件)

验证码*

您可以使用eMule或eMule Mod(Windows)、aMule(Win、Linux、Mac)等软件下载eD2k链接。。
eMule收藏集(.emulecollection)文件是您选中的所有链接的列表文件。eMule可以直接下载它们。
按住SHIFT键选择可以选中多个选择框。
可用文件名和大小选择器来选择文件。
文件名选择器帮您根据文件名称或后缀来选择文件。不分大小写。
符号使用:
和:空格( )、+
不包含:-
或:|
转义:一对英文引号("");
匹配开头:^
匹配结尾:$
例如:
选中所有名称中包含有“eMule”或“0.49c”字眼,但不包含有“exe”字眼的:emule|0.49c -exe
选中所有名称的开头是“eMule”,结尾是“0.49c”的:^emule 0.49c$
选中所有名称中带有“eMule 0.49c”的(必须是“eMule 0.49c”,中间没有别的字符,不能是“eMule fake 0.49c”),需要转义:"emule 0.49c"
大小选择器帮您根据文件大小选择文件。