当前位置: 首页 >> 欧美电影 >> 爱在日落黄昏时[中英字幕].Before.Sunset.2004.BluRay.1080p.x265.10bit-MiniHD 3.74GB >> 正文

爱在日落黄昏时[中英字幕].Before.Sunset.2004.BluRay.1080p.x265.10bit-MiniHD 3.74GB

2022年05月14日 22:57:04     电影发布:来源于网络     电影分类:欧美电影     评论(0)    

◎译 名 爱在日落黄昏时 / 日落巴黎(港) / 爱在日落巴黎时(台) / 日落之前 / 情留相逢时 / 爱在日落余晖时 / 爱在日落黄昏前

◎片 名 Before Sunset

◎年 代 2004

◎产 地 美国 / 法国

◎类 别 剧情 / 爱情

◎语 言 英语 / 法语

◎上映日期 2004-02-10(柏林电影节) / 2004-07-30(美国)

◎IMDb链接 https://www.imdb.com/title/tt0381681/

◎豆瓣评分 8.9/10 (489822人评价)

◎豆瓣链接 https://movie.douban.com/subject/1291990/

◎片 长 80 分钟

◎导 演 理查德·林克莱特 Richard Linklater (id:1025246)

◎编 剧 理查德·林克莱特 Richard Linklater (id:1025246)

朱莉·德尔佩 Julie Delpy (id:1036420)

伊桑·霍克 Ethan Hawke (id:1018984)

金·克里桑 Kim Krizan (id:1041345)

◎演 员 伊桑·霍克 Ethan Hawke (id:1018984)

朱莉·德尔佩 Julie Delpy (id:1036420)

弗农·多布切夫 Vernon Dobtcheff (id:1022603)

路易丝·勒莫瓦纳·托雷斯 Louise Lemoine Torrès (id:1353032)

罗多尔·保利 Rodolphe Pauly (id:1274999)

玛丽安·普莱施泰格 Mariane Plasteig (id:1414859)

迪亚博洛 Diabolo (id:1414860)

丹尼·弗拉 Denis Evrard (id:1414861)

艾伯特·德尔佩 Albert Delpy (id:1080736)

玛丽·佩里 Marie Pillet (id:1012636)

理查德·林克莱特 Richard Linklater (id:1025246)

安妮·沃克-麦克贝 Anne Walker-McBay (id:1300321)

约翰·斯洛斯 John Sloss (id:1297794)

桑德拉·阿代尔 Sandra Adair (id:1276818)

Thierry Delettre Thierry Delettre (id:1458011)

◎简 介

九年前,杰西(伊桑·霍克 Ethan Hawke 饰)与席琳(朱莉·德尔佩 Julie Delpy 饰)在火车上不期而遇,怦然心动。在维也纳渡过疯狂而又浪漫的一夜后,他们在日出前分手,并相约在维也纳重逢。

九年之后,杰西已成为畅销书作家,而席琳则是法国环保组织成员。杰西在新书里娓娓道来的,正是九年前的浪漫夜晚。在巴黎促销新书时,杰西与席琳在书店相遇,然而他们只有一下午的时光相处,日落之前,杰西要乘飞机赶回美国。两人在午后的巴黎街头散步,在美丽的护城河上泛舟,无所不谈,兴致勃勃。可是就像命运的捉弄,快乐的时光像烟花一样醉人却短暂。

杰西对席琳一送再送,难以忘情;席琳用吉他和歌声,怀念着内心深处的爱恋。太阳就快落下去了,杰西就要误了飞机,又或许他更不想错过的,是命里注定的缘分。

◎获奖情况 (共2项)

第77届奥斯卡金像奖 (2005)

最佳改编剧本(提名)

第54届柏林国际电影节 (2004)

金熊奖 最佳影片(提名)

└──理查德·林克莱特 (id:1025246)

  1. ##### MediaInfo ######

  2. General

  3. Unique ID : 174168836280340767766636460061508214426 (0x8307B29D97244433A34EB5133A839E9A)

  4. Complete name : Before.Sunset.2004.BluRay.1080p.x265.10bit-MiniHD.mkv

  5. Format : Matroska

  6. Format version : Version 4

  7. File size : 3.74 GiB

  8. Duration : 1 h 20 min

  9. Overall bit rate : 6 653 kb/s

  10. Encoded date : UTC 2017-03-04 11:30:09

  11. Writing application : mkvmerge v9.7.1 ('Pandemonium') 64bit

  12. Writing library : libebml v1.3.4 + libmatroska v1.4.5

  13. Video

  14. ID : 1

  15. Format : HEVC

  16. Format/Info : High Efficiency Video Coding

  17. Format profile : Main [email protected]@Main

  18. Codec ID : V_MPEGH/ISO/HEVC

  19. Duration : 1 h 20 min

  20. Bit rate : 5 880 kb/s

  21. Width : 1 920 pixels

  22. Height : 1 038 pixels

  23. Display aspect ratio : 1.85:1

  24. Frame rate mode : Constant

  25. Frame rate : 23.976 (24000/1001/53354) FPS

  26. Color space : YUV

  27. Chroma subsampling : 4:2:0

  28. Bit depth : 10 bits

  29. Bits/(Pixel*Frame) : 0.123

  30. Stream size : 3.31 GiB (88%)

  31. Writing library : x265 2.3+7-c15f8bce9f4b:[Windows][GCC 6.3.0][64 bit] 10bit

  32. Encoding settings : cpuid=533541173503 / frame-threads=6 / numa-pools=36 / wpp / no-pmode / no-pme / no-psnr / no-ssim / log-level=2 / input-csp=1 / input-res=1920x1038 / interlace=0 / total-frames=115849 / level-idc=0 / high-tier=1 / uhd-bd=0 / ref=5 / no-allow-non-conformance / no-repeat-headers / annexb / no-aud / no-hrd / info / hash=0 / no-temporal-layers / no-open-gop / min-keyint=1 / keyint=360 / bframes=8 / b-adapt=2 / b-pyramid / bframe-bias=0 / rc-lookahead=60 / lookahead-slices=4 / NTMzNTQ=uuDQuD2mJt9fsCf / scenecut=40 / no-intra-refresh / ctu=32 / min-cu-size=8 / rect / no-amp / max-tu-size=16 / tu-inter-depth=2 / tu-intra-depth=2 / limit-tu=0 / rdoq-level=2 / dynamic-rd=0.00 / signhide / no-tskip / nr-intra=0 / nr-inter=0 / no-constrained-intra / no-strong-intra-smoothing / max-merge=3 / limit-refs=2 / limit-modes / me=3 / subme=5 / merange=25 / temporal-mvp / weightp / weightb / no-analyze-src-pics / deblock=-1:-1 / no-sao / no-sao-non-deblock / rd=4 / no-early-skip / rskip / no-fast-intra / no-tskip-fast / no-cu-lossless / b-intra / rdpenalty=1 / psy-rd=0.00 / psy-rdoq=5.00 / no-rd-refine / analysis-mode=0 / no-lossless / cbqpoffs=-2 / crqpoffs=-2 / rc=crf / crf=20.0 / qcomp=0.65 / qpstep=4 / stats-write=0 / stats-read=0 / ipratio=1.40 / pbratio=1.30 / aq-mode=3 / aq-strength=0.80 / cutree / zone-count=0 / no-strict-cbr / qg-size=16 / no-rc-grain / qpmax=69 / qpmin=0 / sar=0 / overscan=0 / videoformat=5 / range=0 / colorprim=1 / transfer=2 / colormatrix=2 / chromaloc=0 / display-window=0 / max-cll=0,0 / min-luma=0 / max-luma=1023 / log2-max-poc-lsb=8 / vui-timing-info / vui-hrd-info / slices=1 / opt-qp-pps / opt-ref-list-length-pps / no-multi-pass-opt-rps / scenecut-bias=0.05 / no-opt-cu-delta-qp / no-aq-motion / no-hdr / no-hdr-opt / Capture-colorprim=3

  33. Default : Yes

  34. Forced : No

  35. Color range : Limited

  36. Color primaries : BT.709

  37. Audio

  38. ID : 2

  39. Format : AC-3

  40. Format/Info : Audio Coding 3

  41. Commercial name : Dolby Digital

  42. Codec ID : A_AC3

  43. Duration : 1 h 20 min

  44. Bit rate mode : Constant

  45. Bit rate : 640 kb/s

  46. Channel(s) : 6 channels

  47. Channel layout : L R C LFE Ls Rs

  48. Sampling rate : 48.0 kHz

  49. Frame rate : 31.250 FPS (1536 SPF)

  50. Compression mode : Lossy

  51. Stream size : 369 MiB (10%)

  52. Language : English

  53. Service kind : Complete Main

  54. Default : Yes

  55. Forced : No

  56. Text #1

  57. ID : 3

  58. Format : PGS

  59. Muxing mode : zlib

  60. Codec ID : S_HDMV/PGS

  61. Codec ID/Info : Picture based subtitle format used on BDs/HD-DVDs

  62. Language : English

  63. Default : Yes

  64. Forced : No

  65. Text #2

  66. ID : 4

  67. Format : PGS

  68. Muxing mode : zlib

  69. Codec ID : S_HDMV/PGS

  70. Codec ID/Info : Picture based subtitle format used on BDs/HD-DVDs

  71. Language : Chinese

  72. Default : No

  73. Forced : No

  74. Text #3

  75. ID : 5

  76. Format : PGS

  77. Muxing mode : zlib

  78. Codec ID : S_HDMV/PGS

  79. Codec ID/Info : Picture based subtitle format used on BDs/HD-DVDs

  80. Language : Chinese

  81. Default : No

  82. Forced : No

  83. Text #4

  84. ID : 6

  85. Format : PGS

  86. Muxing mode : zlib

  87. Codec ID : S_HDMV/PGS

  88. Codec ID/Info : Picture based subtitle format used on BDs/HD-DVDs

  89. Language : Chinese

  90. Default : No

  91. Forced : No

  92. Text #5

  93. ID : 7

  94. Format : PGS

  95. Muxing mode : zlib

  96. Codec ID : S_HDMV/PGS

  97. Codec ID/Info : Picture based subtitle format used on BDs/HD-DVDs

  98. Language : Chinese

  99. Default : No

  100. Forced : No

  101. Menu

  102. 00:00:00.000 : en:Chapter 01

  103. 00:08:14.911 : en:Chapter 02

  104. 00:17:30.841 : en:Chapter 03

  105. 00:31:35.143 : en:Chapter 04

  106. 00:43:15.301 : en:Chapter 05

  107. 00:55:57.354 : en:Chapter 06

  108. 01:07:15.322 : en:Chapter 07


复制代码



文件下载


除非特别注明,本文『爱在日落黄昏时[中英字幕].Before.Sunset.2004.BluRay.1080p.x265.10bit-MiniHD 3.74GB』来源于互联网机器人自动抓取,非本站原创。 浮游电影网不对本文拥有版权,如有侵犯,请联系邮箱:fuyouu#yandex.com[#换成@]投诉。我们会在15个工作日内删除。 但烦请转载时请标明出处:“本文转载于『浮游电影网』,原文地址:https://www.fuyouu.com/22152.html

评论吧骚年!

发表你的见解   

昵称*

E-mail*(建议输入,以便收到博主回复的提示邮件)

验证码*

您可以使用eMule或eMule Mod(Windows)、aMule(Win、Linux、Mac)等软件下载eD2k链接。。
eMule收藏集(.emulecollection)文件是您选中的所有链接的列表文件。eMule可以直接下载它们。
按住SHIFT键选择可以选中多个选择框。
可用文件名和大小选择器来选择文件。
文件名选择器帮您根据文件名称或后缀来选择文件。不分大小写。
符号使用:
和:空格( )、+
不包含:-
或:|
转义:一对英文引号("");
匹配开头:^
匹配结尾:$
例如:
选中所有名称中包含有“eMule”或“0.49c”字眼,但不包含有“exe”字眼的:emule|0.49c -exe
选中所有名称的开头是“eMule”,结尾是“0.49c”的:^emule 0.49c$
选中所有名称中带有“eMule 0.49c”的(必须是“eMule 0.49c”,中间没有别的字符,不能是“eMule fake 0.49c”),需要转义:"emule 0.49c"
大小选择器帮您根据文件大小选择文件。