当前位置: 首页 >> 欧美电影 >> 爱国者游戏[国英多音轨/中英字幕].Patriot.Games.1992.BluRay.1080p.x265.10bit.2Audio-MiniHD 6.64GB >> 正文

爱国者游戏[国英多音轨/中英字幕].Patriot.Games.1992.BluRay.1080p.x265.10bit.2Audio-MiniHD 6.64GB

2022年05月14日 22:56:16     电影发布:来源于网络     电影分类:欧美电影     评论(0)    

◎译 名 爱国者游戏 / 天网追击

◎片 名 Patriot Games

◎年 代 1992

◎产 地 美国

◎类 别 剧情 / 动作 / 惊悚 / 犯罪

◎语 言 英语

◎上映日期 1992-06-05(美国)

◎IMDb链接 https://www.imdb.com/title/tt0105112/

◎豆瓣评分 6.7/10 (5356人评价)

◎豆瓣链接 https://movie.douban.com/subject/1294559/

◎片 长 117分钟

◎导 演 菲利普·诺伊斯 Phillip Noyce (id:1045031)

◎编 剧 汤姆·克兰西 Tom Clancy (id:1055015)

W·彼得·伊利夫 W. Peter Iliff (id:1324299)

唐纳德·斯图尔特 Donald Stewart (id:1006001)

◎演 员 哈里森·福特 Harrison Ford (id:1009238)

安妮·阿彻 Anne Archer (id:1049622)

肖恩·宾 Sean Bean (id:1002683)

帕特里克·博金 Patrick Bergin (id:1007082)

索拉·伯奇 Thora Birch (id:1031804)

詹姆斯·福克斯 James Fox (id:1080877)

塞缪尔·杰克逊 Samuel L. Jackson (id:1054408)

波利·沃克 Polly Walker (id:1044939)

J·E·弗里曼 J.E. Freeman (id:1087142)

詹姆斯·厄尔·琼斯 James Earl Jones (id:1013800)

理查德·哈里斯 Richard Harris (id:1027172)

亚力克斯·诺顿 Alex Norton (id:1007169)

休·弗拉瑟 Hugh Fraser (id:1080762)

大卫·斯瑞弗 David Threlfall (id:1027449)

艾伦·阿姆斯特朗 Alun Armstrong (id:1010692)

贝琳达·托尔伯特 Berlinda Tolbert (id:1157886)

休·罗斯 Hugh Ross (id:1379595)

杰拉尔·德西姆 Gerald Sim (id:1146354)

皮普·托伦斯 Pip Torrens (id:1336328)

乔纳森·瑞安 Jonathan Ryan (id:1438530)

Karl Hayden Karl Hayden (id:1092380)

汤姆·瓦特 Tom Watt (id:1167551)

P.H.莫里亚蒂 P.H. Moriarty (id:1136911)

蒂姆·达顿 Tim Dutton (id:1421516)

艾伦·戈尔 Ellen Geer (id:1098536)

肖恩·杜克 Shaun Duke (id:1135460)

Fritz Sperberg Fritz Sperberg (id:1152160)

泰德·雷米 Ted Raimi (id:1036535)

约翰·谢泼德 John Shepard (id:1145412)

鲍勃·冈顿 Bob Gunton (id:1041179)

基思·坎贝尔 Keith Campbell (id:1070981)

Jeff Gardner Jeff Gardner (id:1011294)

鲁本·加菲亚斯 Ruben Garfias (id:1341891)

罗伊·贝克 Roy Beck (id:1373101)

萨沙·本奈特 Sacha Bennett (id:1045596)

Bret Culpepper Bret Culpepper (id:1074760)

Lucia Noyce Lucia Noyce (id:1201104)

Gary Rodriguez Gary Rodriguez (id:1145032)

唐纳德·麦卡尔平 Donald McAlpine (id:1276558)

尼尔·特拉维斯 Neil Travis (id:1299480)

凯茜·桑德里奇 Cathy Sandrich (id:1296638)

Amanda Mackey Johnson Amanda Mackey Johnson (id:1290650)

约瑟夫·C·内梅克三世 Joseph C. Nemec III (id:1293045)

约翰·M·德维尔 John M. Dwyer (id:1282892)

Norma Moriceau Norma Moriceau (id:1292511)

彼得·罗勃-金 Peter Robb-King (id:1295741)

Pat Gerhardt Pat Gerhardt (id:1284738)

安妮·摩根 Anne Morgan (id:1292487)

大卫·R·艾里斯 David R. Ellis (id:1050082)

Dennis Maguire Dennis Maguire (id:1290727)

理查德·E·霍兰德尔 Richard E. Hollander (id:1286808)

拉塞尔·厄尔 Russell Earl (id:1282937)

Rhonda C. Gunner Rhonda C. Gunner (id:1285640)

◎简 介

杰克(哈里森·福特 Harrison Ford 饰)曾是中情局的一名情报员,在一次度假中,他偶然目睹了一场以北爱尔兰国务大臣霍姆斯(詹姆斯·福克斯 James Fox 饰)为目标的恐怖活动,职业习惯让他无法对此坐视不管,在杰克的协助下,恐怖份子米勒(肖恩·宾 Sean Bean 饰)被捉拿归案,杰克也得到了赢得的奖赏。

虽然行动失败了,但恐怖分子们并没就就此罢休,而是决定再干一票,此时已经越狱成功的米勒主动请缨加入行动,他的脑中只有一个念头,那就是向杰克寻仇。很快,敏感的杰克就发现自己和家人正处于极度危险之中,为了捍卫国家和平,更为了保护自己的家人,杰克回到中情局,重操旧业。

  1. ##### MediaInfo ######

  2. General

  3. Unique ID : 251596950696320751739898585502557068576 (0xBD47CF646F3080918B6134B6BD46DD20)

  4. Complete name : Patriot.Games.1992.BluRay.1080p.x265.10bit.2Audio-MiniHD.mkv

  5. Format : Matroska

  6. Format version : Version 4

  7. File size : 6.64 GiB

  8. Duration : 1 h 56 min

  9. Overall bit rate : 8 141 kb/s

  10. Encoded date : UTC 2016-05-16 11:32:52

  11. Writing application : mkvmerge v9.1.0 ('Little Earthquakes') 32bit

  12. Writing library : libebml v1.3.3 + libmatroska v1.4.4

  13. Video

  14. ID : 1

  15. Format : HEVC

  16. Format/Info : High Efficiency Video Coding

  17. Format profile : Main [email protected]@Main

  18. Codec ID : V_MPEGH/ISO/HEVC

  19. Duration : 1 h 56 min

  20. Bit rate : 6 891 kb/s

  21. Width : 1 920 pixels

  22. Height : 828 pixels

  23. Display aspect ratio : 2.35:1

  24. Frame rate mode : Constant

  25. Frame rate : 23.976 (24000/1001/53354) FPS

  26. Color space : YUV

  27. Chroma subsampling : 4:2:0

  28. Bit depth : 10 bits

  29. Bits/(Pixel*Frame) : 0.181

  30. Stream size : 5.62 GiB (85%)

  31. Writing library : x265 1.9+96-b09998b1256e:[Windows][GCC 5.3.0][64 bit] 10bit

  32. Encoding settings : wpp / ctu=32 / min-cu-size=8 / max-tu-size=16 / tu-intra-depth=2 / tu-inter-depth=2 / me=2 / subme=5 / merange=21 / no-rect / no-amp / max-merge=3 / temporal-mvp / no-early-skip / rdpenalty=1 / no-tskip / no-tskip-fast / no-strong-intra-smoothing / no-lossless / no-cu-lossless / no-constrained-intra / no-fast-intra / no-open-gop / no-temporal-layers / interlace=0 / keyint=360 / min-keyint=1 / NTMzNTQ=uuDQuD2mJt9fsCf / scenecut=40 / rc-lookahead=60 / lookahead-slices=4 / bframes=8 / bframe-bias=0 / b-adapt=2 / ref=5 / limit-refs=3 / limit-modes / weightp / weightb / aq-mode=1 / qg-size=16 / aq-strength=1.00 / cbqpoffs=0 / crqpoffs=0 / rd=4 / psy-rd=0.30 / rdoq-level=1 / psy-rdoq=5.00 / no-rd-refine / signhide / deblock / no-sao / no-sao-non-deblock / b-pyramid / cutree / no-intra-refresh / rc=crf / crf=20.0 / qcomp=0.70 / qpmin=0 / qpmax=51 / qpstep=4 / ipratio=1.40 / pbratio=1.30

  33. Default : Yes

  34. Forced : No

  35. Color range : Limited

  36. Color primaries : BT.709

  37. Audio #1

  38. ID : 2

  39. Format : AC-3

  40. Format/Info : Audio Coding 3

  41. Commercial name : Dolby Digital

  42. Codec ID : A_AC3

  43. Duration : 1 h 56 min

  44. Bit rate mode : Constant

  45. Bit rate : 640 kb/s

  46. Channel(s) : 6 channels

  47. Channel layout : L R C LFE Ls Rs

  48. Sampling rate : 48.0 kHz

  49. Frame rate : 31.250 FPS (1536 SPF)

  50. Compression mode : Lossy

  51. Stream size : 534 MiB (8%)

  52. Language : English

  53. Service kind : Complete Main

  54. Default : Yes

  55. Forced : No

  56. Audio #2

  57. ID : 3

  58. Format : AC-3

  59. Format/Info : Audio Coding 3

  60. Commercial name : Dolby Digital

  61. Codec ID : A_AC3

  62. Duration : 1 h 56 min

  63. Bit rate mode : Constant

  64. Bit rate : 448 kb/s

  65. Channel(s) : 6 channels

  66. Channel layout : L R C LFE Ls Rs

  67. Sampling rate : 48.0 kHz

  68. Frame rate : 31.250 FPS (1536 SPF)

  69. Compression mode : Lossy

  70. Stream size : 374 MiB (6%)

  71. Language : Chinese

  72. Service kind : Complete Main

  73. Default : No

  74. Forced : No

  75. Text #1

  76. ID : 4

  77. Format : PGS

  78. Muxing mode : zlib

  79. Codec ID : S_HDMV/PGS

  80. Codec ID/Info : Picture based subtitle format used on BDs/HD-DVDs

  81. Language : English

  82. Default : Yes

  83. Forced : No

  84. Text #2

  85. ID : 5

  86. Format : PGS

  87. Muxing mode : zlib

  88. Codec ID : S_HDMV/PGS

  89. Codec ID/Info : Picture based subtitle format used on BDs/HD-DVDs

  90. Language : Chinese

  91. Default : No

  92. Forced : No

  93. Text #3

  94. ID : 6

  95. Format : PGS

  96. Muxing mode : zlib

  97. Codec ID : S_HDMV/PGS

  98. Codec ID/Info : Picture based subtitle format used on BDs/HD-DVDs

  99. Language : Chinese

  100. Default : No

  101. Forced : No

  102. Text #4

  103. ID : 7

  104. Format : PGS

  105. Muxing mode : zlib

  106. Codec ID : S_HDMV/PGS

  107. Codec ID/Info : Picture based subtitle format used on BDs/HD-DVDs

  108. Language : Chinese

  109. Default : No

  110. Forced : No

  111. Text #5

  112. ID : 8

  113. Format : PGS

  114. Muxing mode : zlib

  115. Codec ID : S_HDMV/PGS

  116. Codec ID/Info : Picture based subtitle format used on BDs/HD-DVDs

  117. Language : Chinese

  118. Default : No

  119. Forced : No

  120. Text #6

  121. ID : 9

  122. Format : PGS

  123. Muxing mode : zlib

  124. Codec ID : S_HDMV/PGS

  125. Codec ID/Info : Picture based subtitle format used on BDs/HD-DVDs

  126. Language : Chinese

  127. Default : No

  128. Forced : No

  129. Text #7

  130. ID : 10

  131. Format : PGS

  132. Muxing mode : zlib

  133. Codec ID : S_HDMV/PGS

  134. Codec ID/Info : Picture based subtitle format used on BDs/HD-DVDs

  135. Language : Chinese

  136. Default : No

  137. Forced : No

  138. Menu

  139. 00:00:00.000 : en:Chapter 01

  140. 00:02:36.447 : en:Chapter 02

  141. 00:05:47.721 : en:Chapter 03

  142. 00:11:47.038 : en:Chapter 04

  143. 00:13:28.557 : en:Chapter 05

  144. 00:19:57.194 : en:Chapter 06

  145. 00:24:59.873 : en:Chapter 07

  146. 00:27:54.297 : en:Chapter 08

  147. 00:33:56.491 : en:Chapter 09

  148. 00:38:00.734 : en:Chapter 10

  149. 00:40:04.274 : en:Chapter 11

  150. 00:51:17.323 : en:Chapter 12

  151. 00:57:09.341 : en:Chapter 13

  152. 01:04:10.095 : en:Chapter 14

  153. 01:10:52.081 : en:Chapter 15

  154. 01:15:46.832 : en:Chapter 16

  155. 01:19:18.127 : en:Chapter 17

  156. 01:27:10.432 : en:Chapter 18

  157. 01:31:42.662 : en:Chapter 19

  158. 01:44:04.904 : en:Chapter 20

  159. 01:51:14.501 : en:Chapter 21

  160. 01:52:45.175 : en:Chapter 22


复制代码



文件下载


除非特别注明,本文『爱国者游戏[国英多音轨/中英字幕].Patriot.Games.1992.BluRay.1080p.x265.10bit.2Audio-MiniHD 6.64GB』来源于互联网机器人自动抓取,非本站原创。 浮游电影网不对本文拥有版权,如有侵犯,请联系邮箱:fuyouu#yandex.com[#换成@]投诉。我们会在15个工作日内删除。 但烦请转载时请标明出处:“本文转载于『浮游电影网』,原文地址:https://www.fuyouu.com/22151.html

评论吧骚年!

发表你的见解   

昵称*

E-mail*(建议输入,以便收到博主回复的提示邮件)

验证码*

您可以使用eMule或eMule Mod(Windows)、aMule(Win、Linux、Mac)等软件下载eD2k链接。。
eMule收藏集(.emulecollection)文件是您选中的所有链接的列表文件。eMule可以直接下载它们。
按住SHIFT键选择可以选中多个选择框。
可用文件名和大小选择器来选择文件。
文件名选择器帮您根据文件名称或后缀来选择文件。不分大小写。
符号使用:
和:空格( )、+
不包含:-
或:|
转义:一对英文引号("");
匹配开头:^
匹配结尾:$
例如:
选中所有名称中包含有“eMule”或“0.49c”字眼,但不包含有“exe”字眼的:emule|0.49c -exe
选中所有名称的开头是“eMule”,结尾是“0.49c”的:^emule 0.49c$
选中所有名称中带有“eMule 0.49c”的(必须是“eMule 0.49c”,中间没有别的字符,不能是“eMule fake 0.49c”),需要转义:"emule 0.49c"
大小选择器帮您根据文件大小选择文件。