当前位置: 首页 >> 欧美电影 >> 燃情岁月[国英多音轨/中英字幕].Legends.of.the.Fall.1995.BluRay.1080p.x265.10bit.2Audio-MiniHD 4.98GB >> 正文

燃情岁月[国英多音轨/中英字幕].Legends.of.the.Fall.1995.BluRay.1080p.x265.10bit.2Audio-MiniHD 4.98GB

2022年05月14日 22:53:38     电影发布:来源于网络     电影分类:欧美电影     评论(0)    

◎译 名 燃情岁月 / 秋日传奇 / 真爱一世情(台) / Legends of the Autumn

◎片 名 Legends of the Fall

◎年 代 1994

◎产 地 美国

◎类 别 剧情 / 爱情 / 战争 / 西部

◎语 言 英语 / 科尼什语

◎上映日期 1994-12-16(美国)

◎IMDb链接 https://www.imdb.com/title/tt0110322/

◎豆瓣评分 8.8/10 (262728人评价)

◎豆瓣链接 https://movie.douban.com/subject/1295865/

◎片 长 133分钟

◎导 演 爱德华·兹威克 Edward Zwick (id:1027877)

◎编 剧 威廉·D·威特利夫 William D. Wittliff (id:1301130)

吉姆·哈里森 Jim Harrison (id:1286127)

苏珊·希利迪 Susan Shilliday (id:1297463)

◎演 员 布拉德·皮特 Brad Pitt (id:1054452)

安东尼·霍普金斯 Anthony Hopkins (id:1054434)

艾丹·奎因 Aidan Quinn (id:1031890)

朱莉娅·奥蒙德 Julia Ormond (id:1013855)

亨利·托马斯 Henry Thomas (id:1055549)

卡琳娜·隆巴德 Karina Lombard (id:1004671)

坦图·卡丁诺 Tantoo Cardinal (id:1010753)

高登·图托西斯 Gordon Tootoosis (id:1315452)

克里斯蒂娜·皮克勒斯 Christina Pickles (id:1127040)

约翰·诺瓦克 John Novak (id:1126956)

肯尼斯·威尔什 Kenneth Welsh (id:1000382)

尼格尔·本内特 Nigel Bennett (id:1041373)

基根·麦金托什 Keegan MacIntosh (id:1122811)

埃里克·约翰逊 Eric Johnson (id:1104646)

兰德尔·斯莱文 Randall Slavin (id:1154026)

大卫·卡耶 David Kaye (id:1108772)

查尔斯·安德烈 Charles Andre (id:1277249)

肯·科齐格 Ken Kirzinger (id:1040687)

温妮·孔 Winnie Hung (id:1106558)

巴特熊 Bart the Bear (id:1206098)

格雷格·福西特 Greg Fawcett (id:1054891)

加里·A·赫克 Gary A. Hecker (id:1286338)

马修·罗伯特·凯利 Matthew Robert Kelly (id:1037214)

道格·休斯 Doug Hughes (id:1444292)

Sekwan Auger Sekwan Auger (id:1435138)

爱德华·兹威克 Edward Zwick (id:1027877)

威廉·D·威特利夫 William D. Wittliff (id:1301130)

帕特里克·克劳利 Patrick Crowley (id:1382980)

詹姆斯·霍纳 James Horner (id:1025277)

约翰·托尔 John Toll (id:1276189)

斯蒂夫·罗森布朗 Steven Rosenblum (id:1296094)

Mary Colquhoun Mary Colquhoun (id:1281092)

多里·库珀 Dorree Cooper (id:1281223)

莉莉·基尔弗特 Lilly Kilvert (id:1288534)

德博拉·林恩·斯科特 Deborah Lynn Scott (id:1297071)

琼·安·布兰克 Jean Ann Black (id:1278717)

Suzanne Stokes-Munton Suzanne Stokes-Munton (id:1298477)

克丝缇·碧芙丽绮 Christine Beveridge (id:1278568)

戈登·J·史密斯 Gordon J. Smith (id:1297881)

Iloe Flewelling Iloe Flewelling (id:1283862)

Gail Kennedy Gail Kennedy (id:1288394)

Andrew Price Andrew Price (id:1294883)

Alan Munro Alan Munro (id:1292711)

◎简 介

辽阔的西部草原住着一位父亲和他的三个儿子——父亲是退了休的骑兵上校,三个儿子个性鲜明:大儿子艾尔弗莱德(艾丹?奎因 Aidan Quinn 饰)忠厚老实,二儿子特里斯坦(布拉德?皮特 Brad Pitt 饰)狂放不羁,最小的儿子塞缪尔(亨瑞?托马斯Henry Thomas饰)温文尔雅。

父子在大草原的生活随着塞缪尔未婚妻苏珊娜(朱莉娅?奥蒙德 Julia Ormond 饰)的到来而改变。苏珊娜年轻漂亮,给艾尔弗莱德带来了内心的震动。他暗恋她,然而苏珊娜心里却不由自主的迷恋上豪放粗犷的特里斯坦。出于道德的坚守,他们一直压抑着内心的感情。

直到塞缪尔壮烈牺牲在前线,事情有了变化。特里斯坦非常爱戴哥哥,无法面对已经爱上苏珊娜的现实,于是离家出走。而苏珊娜万念俱灰,答应嫁给了艾尔弗莱德,而特里斯坦在草原之外也已结婚生子。事情好像趋于了平静,但特里斯坦妻子...

◎获奖情况 (共7项)

第67届奥斯卡金像奖 (1995)

最佳摄影

└──约翰·托尔 (id:1276189)

最佳音响(提名)

最佳艺术指导(提名)

第52届金球奖 (1995)

电影类 最佳剧情片(提名)

电影类 最佳导演(提名)

└──爱德华·兹威克 (id:1027877)

电影类 剧情片最佳男主角(提名)

└──布拉德·皮特 (id:1054452)

电影类 最佳原创配乐(提名)

└──詹姆斯·霍纳 (id:1025277)

  1. ##### MediaInfo ######

  2. General

  3. Unique ID : 181476251090621046314407048159112674242 (0x88870DFB6226F946BA19A57C10CB3BC2)

  4. Complete name : Legends.of.the.Fall.1995.BluRay.1080p.x265.10bit.2Audio-MiniHD.mkv

  5. Format : Matroska

  6. Format version : Version 4

  7. File size : 4.98 GiB

  8. Duration : 2 h 12 min

  9. Overall bit rate : 5 364 kb/s

  10. Encoded date : UTC 2017-03-04 13:54:05

  11. Writing application : mkvmerge v9.7.1 ('Pandemonium') 64bit

  12. Writing library : libebml v1.3.4 + libmatroska v1.4.5

  13. Video

  14. ID : 1

  15. Format : HEVC

  16. Format/Info : High Efficiency Video Coding

  17. Format profile : Main [email protected]@Main

  18. Codec ID : V_MPEGH/ISO/HEVC

  19. Duration : 2 h 12 min

  20. Bit rate : 4 169 kb/s

  21. Width : 1 920 pixels

  22. Height : 1 040 pixels

  23. Display aspect ratio : 1.85:1

  24. Frame rate mode : Constant

  25. Frame rate : 23.976 (24000/1001/53354) FPS

  26. Color space : YUV

  27. Chroma subsampling : 4:2:0

  28. Bit depth : 10 bits

  29. Bits/(Pixel*Frame) : 0.087

  30. Stream size : 3.87 GiB (78%)

  31. Writing library : x265 2.3+7-c15f8bce9f4b:[Windows][GCC 6.3.0][64 bit] 10bit

  32. Encoding settings : cpuid=533541173503 / frame-threads=6 / numa-pools=36 / wpp / no-pmode / no-pme / no-psnr / no-ssim / log-level=2 / input-csp=1 / input-res=1920x1040 / interlace=0 / total-frames=191089 / level-idc=0 / high-tier=1 / uhd-bd=0 / ref=5 / no-allow-non-conformance / no-repeat-headers / annexb / no-aud / no-hrd / info / hash=0 / no-temporal-layers / no-open-gop / min-keyint=1 / keyint=360 / bframes=8 / b-adapt=2 / b-pyramid / bframe-bias=0 / rc-lookahead=60 / lookahead-slices=4 / NTMzNTQ=uuDQuD2mJt9fsCf / scenecut=40 / no-intra-refresh / ctu=32 / min-cu-size=8 / rect / no-amp / max-tu-size=16 / tu-inter-depth=2 / tu-intra-depth=2 / limit-tu=0 / rdoq-level=2 / dynamic-rd=0.00 / signhide / no-tskip / nr-intra=0 / nr-inter=0 / no-constrained-intra / no-strong-intra-smoothing / max-merge=3 / limit-refs=2 / limit-modes / me=3 / subme=5 / merange=25 / temporal-mvp / weightp / weightb / no-analyze-src-pics / deblock=-1:-1 / no-sao / no-sao-non-deblock / rd=4 / no-early-skip / rskip / no-fast-intra / no-tskip-fast / no-cu-lossless / b-intra / rdpenalty=1 / psy-rd=0.00 / psy-rdoq=5.00 / no-rd-refine / analysis-mode=0 / no-lossless / cbqpoffs=-2 / crqpoffs=-2 / rc=crf / crf=21.0 / qcomp=0.70 / qpstep=4 / stats-write=0 / stats-read=0 / ipratio=1.40 / pbratio=1.30 / aq-mode=1 / aq-strength=0.70 / cutree / zone-count=0 / no-strict-cbr / qg-size=16 / no-rc-grain / qpmax=69 / qpmin=0 / sar=0 / overscan=0 / videoformat=5 / range=0 / colorprim=1 / transfer=2 / colormatrix=2 / chromaloc=0 / display-window=0 / max-cll=0,0 / min-luma=0 / max-luma=1023 / log2-max-poc-lsb=8 / vui-timing-info / vui-hrd-info / slices=1 / opt-qp-pps / opt-ref-list-length-pps / no-multi-pass-opt-rps / scenecut-bias=0.05 / no-opt-cu-delta-qp / no-aq-motion / no-hdr / no-hdr-opt / Capture-colorprim=3

  33. Default : Yes

  34. Forced : No

  35. Color range : Limited

  36. Color primaries : BT.709

  37. Audio #1

  38. ID : 2

  39. Format : AC-3

  40. Format/Info : Audio Coding 3

  41. Commercial name : Dolby Digital

  42. Codec ID : A_AC3

  43. Duration : 2 h 12 min

  44. Bit rate mode : Constant

  45. Bit rate : 640 kb/s

  46. Channel(s) : 6 channels

  47. Channel layout : L R C LFE Ls Rs

  48. Sampling rate : 48.0 kHz

  49. Frame rate : 31.250 FPS (1536 SPF)

  50. Compression mode : Lossy

  51. Stream size : 608 MiB (12%)

  52. Language : English

  53. Service kind : Complete Main

  54. Default : Yes

  55. Forced : No

  56. Audio #2

  57. ID : 3

  58. Format : AC-3

  59. Format/Info : Audio Coding 3

  60. Commercial name : Dolby Digital

  61. Codec ID : A_AC3

  62. Duration : 2 h 12 min

  63. Bit rate mode : Constant

  64. Bit rate : 448 kb/s

  65. Channel(s) : 6 channels

  66. Channel layout : L R C LFE Ls Rs

  67. Sampling rate : 48.0 kHz

  68. Frame rate : 31.250 FPS (1536 SPF)

  69. Compression mode : Lossy

  70. Stream size : 426 MiB (8%)

  71. Language : Chinese

  72. Service kind : Complete Main

  73. Default : No

  74. Forced : No

  75. Text #1

  76. ID : 4

  77. Format : PGS

  78. Muxing mode : zlib

  79. Codec ID : S_HDMV/PGS

  80. Codec ID/Info : Picture based subtitle format used on BDs/HD-DVDs

  81. Language : English

  82. Default : Yes

  83. Forced : No

  84. Text #2

  85. ID : 5

  86. Format : PGS

  87. Muxing mode : zlib

  88. Codec ID : S_HDMV/PGS

  89. Codec ID/Info : Picture based subtitle format used on BDs/HD-DVDs

  90. Language : Chinese

  91. Default : No

  92. Forced : No

  93. Text #3

  94. ID : 6

  95. Format : PGS

  96. Muxing mode : zlib

  97. Codec ID : S_HDMV/PGS

  98. Codec ID/Info : Picture based subtitle format used on BDs/HD-DVDs

  99. Language : Chinese

  100. Default : No

  101. Forced : No

  102. Menu

  103. 00:00:00.000 : en:Chapter 01

  104. 00:07:11.263 : en:Chapter 02

  105. 00:14:03.425 : en:Chapter 03

  106. 00:20:53.460 : en:Chapter 04

  107. 00:24:06.570 : en:Chapter 05

  108. 00:29:10.457 : en:Chapter 06

  109. 00:35:56.571 : en:Chapter 07

  110. 00:43:26.687 : en:Chapter 08

  111. 00:49:12.532 : en:Chapter 09

  112. 00:55:56.936 : en:Chapter 10

  113. 01:03:12.121 : en:Chapter 11

  114. 01:09:42.011 : en:Chapter 12

  115. 01:15:24.269 : en:Chapter 13

  116. 01:20:52.180 : en:Chapter 14

  117. 01:27:14.103 : en:Chapter 15

  118. 01:33:04.787 : en:Chapter 16

  119. 01:38:31.906 : en:Chapter 17

  120. 01:43:16.648 : en:Chapter 18

  121. 01:51:09.412 : en:Chapter 19


复制代码



文件下载


除非特别注明,本文『燃情岁月[国英多音轨/中英字幕].Legends.of.the.Fall.1995.BluRay.1080p.x265.10bit.2Audio-MiniHD 4.98GB』来源于互联网机器人自动抓取,非本站原创。 浮游电影网不对本文拥有版权,如有侵犯,请联系邮箱:fuyouu#yandex.com[#换成@]投诉。我们会在15个工作日内删除。 但烦请转载时请标明出处:“本文转载于『浮游电影网』,原文地址:https://www.fuyouu.com/22148.html

评论吧骚年!

发表你的见解   

昵称*

E-mail*(建议输入,以便收到博主回复的提示邮件)

验证码*

您可以使用eMule或eMule Mod(Windows)、aMule(Win、Linux、Mac)等软件下载eD2k链接。。
eMule收藏集(.emulecollection)文件是您选中的所有链接的列表文件。eMule可以直接下载它们。
按住SHIFT键选择可以选中多个选择框。
可用文件名和大小选择器来选择文件。
文件名选择器帮您根据文件名称或后缀来选择文件。不分大小写。
符号使用:
和:空格( )、+
不包含:-
或:|
转义:一对英文引号("");
匹配开头:^
匹配结尾:$
例如:
选中所有名称中包含有“eMule”或“0.49c”字眼,但不包含有“exe”字眼的:emule|0.49c -exe
选中所有名称的开头是“eMule”,结尾是“0.49c”的:^emule 0.49c$
选中所有名称中带有“eMule 0.49c”的(必须是“eMule 0.49c”,中间没有别的字符,不能是“eMule fake 0.49c”),需要转义:"emule 0.49c"
大小选择器帮您根据文件大小选择文件。