当前位置: 首页 >> 海外电影 >> 澳洲乱世情[国英多音轨/中英字幕].Australia.2008.BluRay.1080p.x265.10bit.2Audio-MiniHD 7.60GB >> 正文

澳洲乱世情[国英多音轨/中英字幕].Australia.2008.BluRay.1080p.x265.10bit.2Audio-MiniHD 7.60GB

2022年05月14日 22:48:06     电影发布:来源于网络     电影分类:海外电影     评论(0)    

◎译 名 澳洲乱世情 / 澳大利亚

◎片 名 Australia

◎年 代 2008

◎产 地 澳大利亚 / 美国

◎类 别 剧情 / 爱情 / 历史 / 战争 / 冒险

◎语 言 英语 / 土著语 / 汉语普通话 / 日语

◎上映日期 2009-01-28(中国大陆) / 2008-11-26(澳大利亚)

◎IMDb链接 https://www.imdb.com/title/tt0455824/

◎豆瓣评分 7.3/10 (51202人评价)

◎豆瓣链接 https://movie.douban.com/subject/2010975/

◎片 长 165分钟

◎导 演 巴兹·鲁赫曼 Baz Luhrmann (id:1049725)

◎编 剧 斯图尔特·贝亚蒂耶 Stuart Beattie (id:1278161)

巴兹·鲁赫曼 Baz Luhrmann (id:1049725)

罗纳德·哈伍德 Ronald Harwood (id:1041483)

理查德·弗拉纳根 Richard Flanagan (id:1283847)

◎演 员 妮可·基德曼 Nicole Kidman (id:1054442)

休·杰克曼 Hugh Jackman (id:1010508)

布兰登·沃特斯 Brandon Walters (id:1323562)

大卫·文翰 David Wenham (id:1049573)

大卫·古皮利 David Gulpilil (id:1009593)

杰克·汤普森 Jack Thompson (id:1152253)

元华 Wah Yuen (id:1050240)

布莱恩·布朗 Bryan Brown (id:1013730)

谢伊·亚当斯 Shea Adams (id:1276826)

亚采克·科曼 Jacek Koman (id:1022942)

本·门德尔森 Ben Mendelsohn (id:1000248)

Crusoe Kurddal Crusoe Kurddal (id:1309639)

John Martin John Martin (id:1366157)

约翰·贾瑞特 John Jarratt (id:1025310)

比尔·亨特 Bill Hunter (id:1032404)

埃茜·戴维斯 Essie Davis (id:1281902)

巴里·奥托 Barry Otto (id:1293727)

克里·沃克 Kerry Walker (id:1166989)

马修·惠德特 Matthew Whittet (id:1162078)

大卫·古布吉拉 David Ngoombujarra (id:1134259)

Sandy Gore Sandy Gore (id:1100771)

马克斯·库伦 Max Cullen (id:1070535)

雷·巴雷特 Ray Barrett (id:1061685)

Eddie Baroo Eddie Baroo (id:1171275)

布鲁斯·斯宾斯 Bruce Spence (id:1049682)

婕达 Jedda (id:1460350)

凯瑟琳·马丁 Catherine Martin (id:1005365)

巴兹·鲁赫曼 Baz Luhrmann (id:1049725)

大卫·赫希费尔德 David Hirschfelder (id:1286688)

曼迪·沃克 Mandy Walker (id:1300305)

迈克尔·麦卡斯克 Michael McCusker (id:1291536)

多迪·道恩 Dody Dorn (id:1002946)

罗纳·克雷斯 Ronna Kress (id:1055276)

伊恩·格雷西 Ian Gracie (id:1285259)

凯瑟琳·马丁 Catherine Martin (id:1005365)

凯伦·墨菲 Karen Murphy (id:1292754)

凯瑟琳·马丁 Catherine Martin (id:1005365)

莱斯利·范德沃尔特 Lesley Vanderwalt (id:1299835)

阿什利·约翰逊 Ashley Johnson (id:1287767)

莫里齐奥·西尔维 Maurizio Silvi (id:1297604)

威兹·莫利诺 Wizzy Molineaux (id:1170575)

Lynn Wheeler Lynn Wheeler (id:1300779)

安吉拉·康特 Angela Conte (id:1281178)

Kelly Johanson Kelly Johanson (id:1180531)

Guy Campbell Guy Campbell (id:1279963)

Michael Horvath (id:1250885)

Luke Harris(I) Luke Harris(I) (id:1204341)

Hayley McInerney Hayley McInerney (id:1194486)

Jaume Arteman Jaume Arteman (id:1194297)

Carsten Kolve Carsten Kolve (id:1192366)

安东尼·史密斯 Anthony Smith (id:1186232)

Dale Duguid Dale Duguid (id:1282791)

Keith Meure Keith Meure (id:1171174)

Kevin Spruce Kevin Spruce (id:1298193)

Marco Checa Garcia Marco Checa Garcia (id:1170382)

Martin Wiseman Martin Wiseman (id:1167158)

彼得·韦伯 Peter Webb (id:1300555)

Trevor Strand Trevor Strand (id:1153655)

Simon Alberry Simon Alberry (id:1207180)

Clark Parkhurst (id:1228742)

艾玛·克利夫顿 Emma Clifton (id:1231204)

容.格瑞斯 Ron Gress (id:1285436)

布鲁斯·尼科尔森 Bruce Nicholson (id:1293146)

安迪·布朗 Andy Brown (id:1279427)

大卫·布斯 David Booth (id:1278973)

克里斯·加德弗雷 Chris Godfrey (id:1284999)

Jason Bath Jason Bath (id:1278074)

詹姆斯·罗杰斯 James Rogers (id:1295920)

Chris Dwyer (id:1271308)

Adam Azmy (id:1266734)

Matthias Bjarnason (id:1265138)

格罗弗·理查森 Grover Richardson (id:1257679)

詹姆斯·D·弗莱明 James D. Fleming (id:1239779)

安德鲁·M·柯林斯 Andrew M. Collins (id:1235116)

埃里克·布鲁威勒 Erik Bruhwiler (id:1308923)

David Scott David Scott (id:1138519)

Matt Perry Matt Perry (id:1035161)

菲尔·斯图尔特-琼斯 Phil Stuart-Jones (id:1305855)

塞尔丘克·埃尔根 Selcuk Ergen (id:1250925)

Gareth Dinneen Gareth Dinneen (id:1306880)

Andrew Hellen Andrew Hellen (id:1308416)

丹尼尔·P·罗森 Daniel P. Rosen (id:1022069)

Daniel Chavez Daniel Chavez (id:1021465)

凯西·艾伦 Casey Allen (id:1020582)

Grant Adam Grant Adam (id:1310277)

Suzette Barnett Suzette Barnett (id:1310350)

Jan Adamczyk Jan Adamczyk (id:1310806)

Brett Margules Brett Margules (id:1311351)

Dominic Bean Dominic Bean (id:1311497)

盖·格里菲斯 Guy Griffiths (id:1325004)

Mark Tremble Mark Tremble (id:1026349)

埃德森·威廉姆斯 Edson Williams (id:1043237)

戴夫·莫利 Dave Morley (id:1305668)

Kate Windibank Kate Windibank (id:1301071)

Chad Malbon Chad Malbon (id:1122527)

克里斯·英格索尔 Chris Ingersoll (id:1102738)

Kim Stevenson Kim Stevenson (id:1302796)

杰弗里·哈维 Geoffrey Harvey (id:1099941)

保罗·巴克利 Paul Buckley (id:1304290)

Jeremy Howdin Jeremy Howdin (id:1304658)

伊万·莫兰 Ivan Moran (id:1305218)

Sean Samuels Sean Samuels (id:1305394)

Tania Richard Tania Richard (id:1305650)

Avi Goodman Avi Goodman (id:1305525)

◎简 介

英国贵族小姐萨拉?阿什莉(妮可?基德曼 Nicole Kidman 饰)孤身飞跃重洋打算说服丈夫卖掉牧澳洲场重返英伦。在澳大利亚北部港口城市达尔文,萨拉相遇牧牛者卓(休?杰克曼 Hugh Jackman 饰)。卓开车带萨拉长途跋涉前往牧场,没曾想只见到萨拉新亡丈夫的尸体。悲痛的萨拉本欲迅速卖掉牧场,可又为了保护初谋面的土著小孩诺拉(布兰登?沃特斯 Brandon Walters 饰)与地头蛇的农场经理尼尔?弗莱彻(大卫?温汉姆 David Wenham 饰)闹翻。一千五百头公牛要赶去达尔文港装船,萨拉只好求卓帮忙。牧牛之旅让萨拉与卓情定澳大利亚。婚后二人耳鬓厮磨不久,卓的流浪个性使其离开萨拉继续牧牛;而本该进行澳洲土著成人出走礼的诺拉则与其他混血儿童一起被抓入教士岛,祖父“乔治王”(大卫?盖尔菲利 David Gulpilil 饰)也入狱。与此同时二...

◎获奖情况 (共4项)

第81届奥斯卡金像奖 (2009)

最佳服装设计(提名)

└──凯瑟琳·马丁 (id:1005365)

第11届美国青少年选择奖 (2009)

最佳剧情片男演员(提名)

└──休·杰克曼 (id:1010508)

最佳剧情片女演员(提名)

└──妮可·基德曼 (id:1054442)

最佳爱情片(提名)

  1. ##### MediaInfo ######

  2. General

  3. Unique ID : 238454125979509760918835889198752396271 (0xB364981AC837B6DFB0FA15D4EBD0F3EF)

  4. Complete name : Australia.2008.BluRay.1080p.x265.10bit.2Audio-MiniHD.mkv

  5. Format : Matroska

  6. Format version : Version 4

  7. File size : 7.60 GiB

  8. Duration : 2 h 45 min

  9. Overall bit rate : 6 574 kb/s

  10. Encoded date : UTC 2016-09-19 07:42:56

  11. Writing application : mkvmerge v9.2.0 ('Photograph') 32bit

  12. Writing library : libebml v1.3.3 + libmatroska v1.4.4

  13. Video

  14. ID : 1

  15. Format : HEVC

  16. Format/Info : High Efficiency Video Coding

  17. Format profile : Main [email protected]@Main

  18. Codec ID : V_MPEGH/ISO/HEVC

  19. Duration : 2 h 45 min

  20. Bit rate : 5 419 kb/s

  21. Width : 1 920 pixels

  22. Height : 816 pixels

  23. Display aspect ratio : 2.35:1

  24. Frame rate mode : Constant

  25. Frame rate : 23.976 (24000/1001/53354) FPS

  26. Color space : YUV

  27. Chroma subsampling : 4:2:0

  28. Bit depth : 10 bits

  29. Bits/(Pixel*Frame) : 0.144

  30. Stream size : 6.26 GiB (82%)

  31. Writing library : x265 2.0+10-5a0e139e2938:[Windows][GCC 6.1.0][64 bit] 10bit

  32. Encoding settings : wpp / ctu=32 / min-cu-size=8 / max-tu-size=16 / tu-intra-depth=2 / tu-inter-depth=2 / me=3 / subme=5 / merange=25 / rect / no-amp / max-merge=3 / temporal-mvp / no-early-skip / rskip / rdpenalty=1 / no-tskip / no-tskip-fast / no-strong-intra-smoothing / no-lossless / no-cu-lossless / no-constrained-intra / no-fast-intra / no-open-gop / no-temporal-layers / interlace=0 / keyint=360 / min-keyint=1 / NTMzNTQ=uuDQuD2mJt9fsCf / scenecut=40 / rc-lookahead=60 / lookahead-slices=4 / bframes=8 / bframe-bias=0 / b-adapt=2 / ref=5 / limit-refs=3 / limit-modes / weightp / weightb / aq-mode=3 / qg-size=16 / aq-strength=0.90 / cbqpoffs=-3 / crqpoffs=-3 / rd=4 / psy-rd=1.00 / rdoq-level=2 / psy-rdoq=5.00 / no-rd-refine / signhide / deblock=-1:-1 / no-sao / no-sao-non-deblock / b-pyramid / cutree / no-intra-refresh / rc=crf / crf=21.0 / qcomp=0.65 / qpmin=0 / qpmax=69 / qpstep=4 / ipratio=1.40 / pbratio=1.30

  33. Default : Yes

  34. Forced : No

  35. Color range : Limited

  36. Color primaries : BT.709

  37. Audio #1

  38. ID : 2

  39. Format : AC-3

  40. Format/Info : Audio Coding 3

  41. Commercial name : Dolby Digital

  42. Codec ID : A_AC3

  43. Duration : 2 h 45 min

  44. Bit rate mode : Constant

  45. Bit rate : 640 kb/s

  46. Channel(s) : 6 channels

  47. Channel layout : L R C LFE Ls Rs

  48. Sampling rate : 48.0 kHz

  49. Frame rate : 31.250 FPS (1536 SPF)

  50. Compression mode : Lossy

  51. Stream size : 758 MiB (10%)

  52. Language : English

  53. Service kind : Complete Main

  54. Default : Yes

  55. Forced : No

  56. Audio #2

  57. ID : 3

  58. Format : AC-3

  59. Format/Info : Audio Coding 3

  60. Commercial name : Dolby Digital

  61. Codec ID : A_AC3

  62. Duration : 2 h 45 min

  63. Bit rate mode : Constant

  64. Bit rate : 384 kb/s

  65. Channel(s) : 6 channels

  66. Channel layout : L R C LFE Ls Rs

  67. Sampling rate : 48.0 kHz

  68. Frame rate : 31.250 FPS (1536 SPF)

  69. Compression mode : Lossy

  70. Delay relative to video : 1 s 200 ms

  71. Stream size : 455 MiB (6%)

  72. Language : Chinese

  73. Service kind : Complete Main

  74. Default : No

  75. Forced : No

  76. Text #1

  77. ID : 4

  78. Format : PGS

  79. Muxing mode : zlib

  80. Codec ID : S_HDMV/PGS

  81. Codec ID/Info : Picture based subtitle format used on BDs/HD-DVDs

  82. Language : English

  83. Default : Yes

  84. Forced : No

  85. Text #2

  86. ID : 5

  87. Format : PGS

  88. Muxing mode : zlib

  89. Codec ID : S_HDMV/PGS

  90. Codec ID/Info : Picture based subtitle format used on BDs/HD-DVDs

  91. Language : Chinese

  92. Default : No

  93. Forced : No

  94. Menu

  95. 00:00:00.000 : en:Chapter 01

  96. 00:05:04.886 : en:Chapter 02

  97. 00:06:09.785 : en:Chapter 03

  98. 00:16:18.894 : en:Chapter 04

  99. 00:22:31.558 : en:Chapter 05

  100. 00:27:00.118 : en:Chapter 06

  101. 00:32:41.334 : en:Chapter 07

  102. 00:41:31.614 : en:Chapter 08

  103. 00:52:24.015 : en:Chapter 09

  104. 00:57:30.321 : en:Chapter 10

  105. 01:00:08.521 : en:Chapter 11

  106. 01:09:49.894 : en:Chapter 12

  107. 01:14:58.410 : en:Chapter 13

  108. 01:18:08.100 : en:Chapter 14

  109. 01:29:33.451 : en:Chapter 15

  110. 01:38:20.227 : en:Chapter 16

  111. 01:44:47.656 : en:Chapter 17

  112. 01:47:33.321 : en:Chapter 18

  113. 01:54:34.075 : en:Chapter 19

  114. 01:56:06.584 : en:Chapter 20

  115. 02:03:38.661 : en:Chapter 21

  116. 02:08:32.370 : en:Chapter 22

  117. 02:14:36.109 : en:Chapter 23

  118. 02:23:17.839 : en:Chapter 24

  119. 02:34:00.564 : en:Chapter 25

  120. 02:37:47.415 : en:Chapter 26


复制代码



文件下载


除非特别注明,本文『澳洲乱世情[国英多音轨/中英字幕].Australia.2008.BluRay.1080p.x265.10bit.2Audio-MiniHD 7.60GB』来源于互联网机器人自动抓取,非本站原创。 浮游电影网不对本文拥有版权,如有侵犯,请联系邮箱:fuyouu#yandex.com[#换成@]投诉。我们会在15个工作日内删除。 但烦请转载时请标明出处:“本文转载于『浮游电影网』,原文地址:https://www.fuyouu.com/22142.html

评论吧骚年!

发表你的见解   

昵称*

E-mail*(建议输入,以便收到博主回复的提示邮件)

验证码*

您可以使用eMule或eMule Mod(Windows)、aMule(Win、Linux、Mac)等软件下载eD2k链接。。
eMule收藏集(.emulecollection)文件是您选中的所有链接的列表文件。eMule可以直接下载它们。
按住SHIFT键选择可以选中多个选择框。
可用文件名和大小选择器来选择文件。
文件名选择器帮您根据文件名称或后缀来选择文件。不分大小写。
符号使用:
和:空格( )、+
不包含:-
或:|
转义:一对英文引号("");
匹配开头:^
匹配结尾:$
例如:
选中所有名称中包含有“eMule”或“0.49c”字眼,但不包含有“exe”字眼的:emule|0.49c -exe
选中所有名称的开头是“eMule”,结尾是“0.49c”的:^emule 0.49c$
选中所有名称中带有“eMule 0.49c”的(必须是“eMule 0.49c”,中间没有别的字符,不能是“eMule fake 0.49c”),需要转义:"emule 0.49c"
大小选择器帮您根据文件大小选择文件。