当前位置: 首页 >> 海外电影 >> 潘神的迷宫[国语音轨/中英字幕].Pan's.Labyrinth.2006.BluRay.1080p.x265.10bit.2Audio-MiniHD 4.58GB >> 正文

潘神的迷宫[国语音轨/中英字幕].Pan's.Labyrinth.2006.BluRay.1080p.x265.10bit.2Audio-MiniHD 4.58GB

2022年05月14日 22:47:03     电影发布:来源于网络     电影分类:海外电影     评论(0)    

◎译 名 潘神的迷宫 / 魔间迷宫(港) / 羊男的迷宫(台) / 潘的迷宫 / 奇幻迷宫 / Pan's Labyrinth

◎片 名 El laberinto del fauno

◎年 代 2006

◎产 地 西班牙 / 墨西哥 / 美国

◎类 别 剧情 / 战争 / 奇幻

◎语 言 西班牙语

◎上映日期 2006-10-11(西班牙)

◎IMDb链接 https://www.imdb.com/title/tt0457430/

◎豆瓣评分 7.9/10 (212553人评价)

◎豆瓣链接 https://movie.douban.com/subject/1767042/

◎片 长 118分钟(英国)

◎导 演 吉尔莫·德尔·托罗 Guillermo del Toro (id:1027182)

◎编 剧 吉尔莫·德尔·托罗 Guillermo del Toro (id:1027182)

◎演 员 伊万娜·巴克罗 Ivana Baquero (id:1017932)

塞尔希·洛佩斯 Sergi López (id:1036753)

玛丽维尔·贝尔杜 Maribel Verdú (id:1027896)

道格·琼斯 Doug Jones (id:1019031)

阿里亚德娜·希尔 Ariadna Gil (id:1004938)

亚历克斯·安克吕罗 álex Angulo (id:1000798)

曼诺罗·索洛 Manolo Solo (id:1365968)

罗杰·卡萨马杰 Roger Casamajor (id:1076217)

伊万·马萨格 Iván Massagué (id:1345178)

干沙路·乌里亚特 Gonzalo Uriarte (id:1420748)

塞巴斯蒂安·哈罗 Sebastián Haro (id:1204630)

Mila Espiga Mila Espiga (id:1180988)

Pepa Pedroche Pepa Pedroche (id:1133304)

查尼·马丁 Chani Martín (id:1374047)

米洛·塔波阿达 Milo Taboada (id:1431156)

费尔南多·阿尔比祖 Fernando Albizu (id:1060953)

乔斯·路易斯·托里霍 José Luis Torrijo (id:1334380)

因尼哥·加塞斯 í?igo Garcés (id:1014775)

费尔南多·提尔弗 Fernando Tielve (id:1009770)

费德里科·路皮 Federico Luppi (id:1032480)

Eduardo Aránega (id:1241878)

Eusebio Lázaro Eusebio Lázaro (id:1367763)

阿方索·卡隆 Alfonso Cuarón (id:1036409)

吉尔莫·德尔·托罗 Guillermo del Toro (id:1027182)

Frida Torresblanco Frida Torresblanco (id:1299420)

Bertha Navarro Bertha Navarro (id:1292945)

Víctor Albarrán Víctor Albarrán (id:1276634)

阿尔瓦罗·安古斯丁 álvaro Augustín (id:1312604)

哈维尔·纳瓦雷特 Javier Navarrete (id:1292951)

吉列尔莫·纳瓦罗 Guillermo Navarro (id:1292948)

Bernat Vilaplana Bernat Vilaplana (id:1305123)

Sara Bilbatúa Sara Bilbatúa (id:1061952)

尤吉尼奥·卡巴莱罗 Eugenio Caballero (id:1279810)

Lala Huete Lala Huete (id:1287100)

Mar Paradela Mar Paradela (id:1293933)

Blanca Sánchez Blanca Sánchez (id:1309293)

大卫·马尔蒂 David Martí (id:1291170)

何塞·奎特格拉斯 José Quetglás (id:1295062)

阿因·图腾 Arjen Tuiten (id:1215170)

豪尔赫·卡尔沃 Jorge Calvo (id:1068564)

罗伯特·斯特罗姆伯格 Robert Stromberg (id:1298560)

格尔泽格茨·扬卡蒂斯 Grzegorz Jonkajtys (id:1308932)

大卫·埃布纳 David Ebner (id:1302384)

菲利普·摩西 Phillip Moses (id:1292593)

Tommy Williamson Tommy Williamson (id:1017162)

Edward Irastorza Edward Irastorza (id:1039025)

Chris LeDoux Chris LeDoux (id:1037852)

Robert Tesdahl Robert Tesdahl (id:1184677)

折笠明 Akira Orikasa (id:1198934)

Krishnamurti Costa (id:1224110)

Ryan Bozajian (id:1256063)

Kirk Cadrette Kirk Cadrette (id:1279848)

Paul Griffin Paul Griffin (id:1098022)

埃弗雷特·伯勒尔 Everett Burrell (id:1012845)

Emilio Ruiz del Río Emilio Ruiz del Río (id:1003672)

W. Kale Whorton W. Kale Whorton (id:1168405)

◎简 介

12岁女孩子奥菲丽娅(伊万娜?巴克尔洛 饰)有一个凶暴的法西斯军官继父维达(塞吉?洛佩兹 饰),维达的任务就是镇压反抗者,研究各种刑具来折磨残害被抓来的异见人士,奥菲丽娅每天都目睹让人不愉快的事件。眼看着冷酷的继父和其党羽每日作恶还以此为乐,母亲又身怀六甲患病在床,被孤独感和目睹暴行的痛苦困扰的奥菲丽娅开始沉浸在自己的幻想中聊以自慰。

一天,奥菲丽娅遇到了迷宫的守护者,潘神(道格?琼斯 饰)。潘神告诉她,她其实是奇幻王国失踪的公主,要想恢复身份,必须通过三个危险的考验。

◎获奖情况 (共8项)

第79届奥斯卡金像奖 (2007)

最佳原创剧本(提名)

└──吉尔莫·德尔·托罗 (id:1027182)

最佳外语片(提名)

└──吉尔莫·德尔·托罗 (id:1027182)

最佳摄影

└──吉列尔莫·纳瓦罗 (id:1292948)

最佳艺术指导

最佳化妆

最佳原创配乐(提名)

└──哈维尔·纳瓦雷特 (id:1292951)

第59届戛纳电影节 (2006)

主竞赛单元 金棕榈奖(提名)

└──吉尔莫·德尔·托罗 (id:1027182)

第64届金球奖 (2007)

电影类 最佳外语片(提名)

  1. ##### MediaInfo ######

  2. General

  3. Unique ID : 249865616311267524582860956151393653425 (0xBBFA5E0445460DE68BDC1D59E2D992B1)

  4. Complete name : Pan's.Labyrinth.2006.BluRay.1080p.x265.10bit.2Audio-MiniHD.mkv

  5. Format : Matroska

  6. Format version : Version 4

  7. File size : 4.58 GiB

  8. Duration : 1 h 59 min

  9. Overall bit rate : 5 489 kb/s

  10. Encoded date : UTC 2016-12-02 16:09:54

  11. Writing application : mkvmerge v9.2.0 ('Photograph') 32bit

  12. Writing library : libebml v1.3.3 + libmatroska v1.4.4

  13. Video

  14. ID : 1

  15. Format : HEVC

  16. Format/Info : High Efficiency Video Coding

  17. Format profile : Main [email protected]@Main

  18. Codec ID : V_MPEGH/ISO/HEVC

  19. Duration : 1 h 59 min

  20. Bit rate : 4 099 kb/s

  21. Width : 1 920 pixels

  22. Height : 1 038 pixels

  23. Display aspect ratio : 1.85:1

  24. Frame rate mode : Constant

  25. Frame rate : 23.976 (24000/1001/53354) FPS

  26. Color space : YUV

  27. Chroma subsampling : 4:2:0

  28. Bit depth : 10 bits

  29. Bits/(Pixel*Frame) : 0.086

  30. Stream size : 3.42 GiB (75%)

  31. Writing library : x265 2.1+36-d216cb9b3b47:[Windows][GCC 6.2.0][64 bit] 10bit

  32. Encoding settings : wpp / ctu=32 / min-cu-size=8 / max-tu-size=16 / tu-intra-depth=2 / tu-inter-depth=2 / me=3 / subme=5 / merange=25 / rect / no-amp / max-merge=3 / temporal-mvp / no-early-skip / rskip / rdpenalty=1 / no-tskip / no-tskip-fast / no-strong-intra-smoothing / no-lossless / no-cu-lossless / no-constrained-intra / no-fast-intra / no-open-gop / no-temporal-layers / interlace=0 / keyint=360 / min-keyint=1 / NTMzNTQ=uuDQuD2mJt9fsCf / scenecut=40 / bias-for-scenecut=0.05 / rc-lookahead=60 / lookahead-slices=4 / bframes=8 / bframe-bias=0 / b-adapt=2 / ref=5 / limit-refs=3 / limit-modes / weightp / weightb / aq-mode=3 / qg-size=16 / aq-strength=0.90 / cbqpoffs=-2 / crqpoffs=-2 / rd=4 / psy-rd=1.00 / rdoq-level=2 / psy-rdoq=5.00 / log2-max-poc-lsb=8 / limit-tu=0 / no-rd-refine / signhide / deblock=-1:-1 / no-sao / no-sao-non-deblock / b-pyramid / cutree / no-intra-refresh / rc=crf / crf=21.0 / qcomp=0.65 / qpmin=0 / qpmax=69 / qpstep=4 / ipratio=1.40 / pbratio=1.30

  33. Default : Yes

  34. Forced : No

  35. Color range : Limited

  36. Color primaries : BT.709

  37. Audio #1

  38. ID : 2

  39. Format : AC-3

  40. Format/Info : Audio Coding 3

  41. Commercial name : Dolby Digital

  42. Codec ID : A_AC3

  43. Duration : 1 h 59 min

  44. Bit rate mode : Constant

  45. Bit rate : 640 kb/s

  46. Channel(s) : 6 channels

  47. Channel layout : L R C LFE Ls Rs

  48. Sampling rate : 48.0 kHz

  49. Frame rate : 31.250 FPS (1536 SPF)

  50. Compression mode : Lossy

  51. Stream size : 546 MiB (12%)

  52. Language : Spanish

  53. Service kind : Complete Main

  54. Default : Yes

  55. Forced : No

  56. Audio #2

  57. ID : 3

  58. Format : AC-3

  59. Format/Info : Audio Coding 3

  60. Commercial name : Dolby Digital

  61. Codec ID : A_AC3

  62. Duration : 1 h 59 min

  63. Bit rate mode : Constant

  64. Bit rate : 640 kb/s

  65. Channel(s) : 6 channels

  66. Channel layout : L R C LFE Ls Rs

  67. Sampling rate : 48.0 kHz

  68. Frame rate : 31.250 FPS (1536 SPF)

  69. Compression mode : Lossy

  70. Stream size : 546 MiB (12%)

  71. Language : Chinese

  72. Service kind : Complete Main

  73. Default : No

  74. Forced : No

  75. Text #1

  76. ID : 4

  77. Format : PGS

  78. Muxing mode : zlib

  79. Codec ID : S_HDMV/PGS

  80. Codec ID/Info : Picture based subtitle format used on BDs/HD-DVDs

  81. Language : English

  82. Default : Yes

  83. Forced : No

  84. Text #2

  85. ID : 5

  86. Format : PGS

  87. Muxing mode : zlib

  88. Codec ID : S_HDMV/PGS

  89. Codec ID/Info : Picture based subtitle format used on BDs/HD-DVDs

  90. Language : Chinese

  91. Default : No

  92. Forced : No

  93. Text #3

  94. ID : 6

  95. Format : PGS

  96. Muxing mode : zlib

  97. Codec ID : S_HDMV/PGS

  98. Codec ID/Info : Picture based subtitle format used on BDs/HD-DVDs

  99. Language : Chinese

  100. Default : No

  101. Forced : No

  102. Text #4

  103. ID : 7

  104. Format : PGS

  105. Muxing mode : zlib

  106. Codec ID : S_HDMV/PGS

  107. Codec ID/Info : Picture based subtitle format used on BDs/HD-DVDs

  108. Language : Chinese

  109. Default : No

  110. Forced : No

  111. Text #5

  112. ID : 8

  113. Format : PGS

  114. Muxing mode : zlib

  115. Codec ID : S_HDMV/PGS

  116. Codec ID/Info : Picture based subtitle format used on BDs/HD-DVDs

  117. Language : Chinese

  118. Default : No

  119. Forced : No

  120. Text #6

  121. ID : 9

  122. Format : PGS

  123. Muxing mode : zlib

  124. Codec ID : S_HDMV/PGS

  125. Codec ID/Info : Picture based subtitle format used on BDs/HD-DVDs

  126. Language : Chinese

  127. Default : No

  128. Forced : No

  129. Text #7

  130. ID : 10

  131. Format : PGS

  132. Muxing mode : zlib

  133. Codec ID : S_HDMV/PGS

  134. Codec ID/Info : Picture based subtitle format used on BDs/HD-DVDs

  135. Language : Chinese

  136. Default : No

  137. Forced : No

  138. Menu

  139. 00:00:00.000 : en:Chapter 01

  140. 00:06:03.112 : en:Chapter 02

  141. 00:09:43.332 : en:Chapter 03

  142. 00:11:42.034 : en:Chapter 04

  143. 00:14:44.174 : en:Chapter 05

  144. 00:18:21.892 : en:Chapter 06

  145. 00:25:04.085 : en:Chapter 07

  146. 00:31:24.674 : en:Chapter 08

  147. 00:38:45.698 : en:Chapter 09

  148. 00:43:08.586 : en:Chapter 10

  149. 00:46:29.161 : en:Chapter 11

  150. 00:48:58.769 : en:Chapter 12

  151. 00:52:22.722 : en:Chapter 13

  152. 00:55:50.472 : en:Chapter 14

  153. 01:02:48.222 : en:Chapter 15

  154. 01:04:52.054 : en:Chapter 16

  155. 01:08:09.460 : en:Chapter 17

  156. 01:13:08.342 : en:Chapter 18

  157. 01:16:56.737 : en:Chapter 19

  158. 01:21:33.179 : en:Chapter 20

  159. 01:27:10.058 : en:Chapter 21

  160. 01:31:40.328 : en:Chapter 22

  161. 01:36:39.001 : en:Chapter 23

  162. 01:41:23.368 : en:Chapter 24

  163. 01:42:02.032 : en:Chapter 25

  164. 01:44:10.285 : en:Chapter 26

  165. 01:52:31.494 : en:Chapter 27


复制代码



文件下载


除非特别注明,本文『潘神的迷宫[国语音轨/中英字幕].Pan's.Labyrinth.2006.BluRay.1080p.x265.10bit.2Audio-MiniHD 4.58GB』来源于互联网机器人自动抓取,非本站原创。 浮游电影网不对本文拥有版权,如有侵犯,请联系邮箱:fuyouu#yandex.com[#换成@]投诉。我们会在15个工作日内删除。 但烦请转载时请标明出处:“本文转载于『浮游电影网』,原文地址:https://www.fuyouu.com/22141.html

评论吧骚年!

发表你的见解   

昵称*

E-mail*(建议输入,以便收到博主回复的提示邮件)

验证码*

您可以使用eMule或eMule Mod(Windows)、aMule(Win、Linux、Mac)等软件下载eD2k链接。。
eMule收藏集(.emulecollection)文件是您选中的所有链接的列表文件。eMule可以直接下载它们。
按住SHIFT键选择可以选中多个选择框。
可用文件名和大小选择器来选择文件。
文件名选择器帮您根据文件名称或后缀来选择文件。不分大小写。
符号使用:
和:空格( )、+
不包含:-
或:|
转义:一对英文引号("");
匹配开头:^
匹配结尾:$
例如:
选中所有名称中包含有“eMule”或“0.49c”字眼,但不包含有“exe”字眼的:emule|0.49c -exe
选中所有名称的开头是“eMule”,结尾是“0.49c”的:^emule 0.49c$
选中所有名称中带有“eMule 0.49c”的(必须是“eMule 0.49c”,中间没有别的字符,不能是“eMule fake 0.49c”),需要转义:"emule 0.49c"
大小选择器帮您根据文件大小选择文件。