当前位置: 首页 >> 欧美电影 >> 桂河大桥[国语音轨/中文字幕].The.Bridge.on.the.River.Kwai.1957.1080p.BluRay.REMUX.AVC.DTS-HD.MA.TrueHD.7.1.Atmos- >> 正文

桂河大桥[国语音轨/中文字幕].The.Bridge.on.the.River.Kwai.1957.1080p.BluRay.REMUX.AVC.DTS-HD.MA.TrueHD.7.1.Atmos-

2022年05月14日 14:05:23     电影发布:来源于网络     电影分类:欧美电影     评论(0)    

桂河大桥[国语音轨/中文字幕].The.Bridge.on.the.River.Kwai.1957.1080p.BluRay.REMUX.AVC.DTS HD.MA.TrueHD.7.1.Atmos   欧美电影  第1张

桂河大桥[国语音轨/中文字幕].The.Bridge.on.the.River.Kwai.1957.1080p.BluRay.REMUX.AVC.DTS HD.MA.TrueHD.7.1.Atmos   欧美电影  第2张

◎译 名 桂河大桥 / 桂河桥

◎片 名 The Bridge on the River Kwai

◎年 代 1957

◎产 地 英国 / 美国

◎类 别 剧情 / 历史 / 战争

◎语 言 英语 / 日语 / 泰语

◎上映日期 1957-10-02(英国)

◎IMDb链接 https://www.imdb.com/title/tt0050212/

◎豆瓣评分 8.4/10 (22881人评价)

◎豆瓣链接 https://movie.douban.com/subject/1294958/

◎片 长 161分钟

◎导 演 大卫·里恩 David Lean (id:1002783)

◎编 剧 迈克尔·威尔逊 Michael Wilson (id:1160972)

卡尔·福尔曼 Carl Foreman (id:1023370)

◎演 员 威廉·霍尔登 William Holden (id:1002737)

亚历克·吉尼斯 Alec Guinness (id:1000109)

杰克·霍金斯 Jack Hawkins (id:1049902)

早川雪洲 Sessue Hayakawa (id:1019196)

詹姆斯·唐纳德 James Donald (id:1089546)

杰弗里·霍尔内 Geoffrey Horne (id:1100732)

特德·斯特吉斯 Ted Sturgis (id:1298585)

Gus Agosti Gus Agosti (id:1276854)

◎简 介

二战期间,日军占领了缅甸边境的一个战俘营。出于战略需要,日军将在缅甸与泰国交界修建一条大桥,同时希望战俘营里战俘出力,但英军战俘代表尼科森上校(亚利克·基尼斯 Alec Guinness 饰)认为这违反日内瓦公约拒不执行。于是尼科森等人被关了禁闭,但是没了尼科森的带领, 战俘们表现消极,而且因日本设计方面的不足,建桥工作陷入了停滞。日军无奈只好放出了尼科森等人,获释后尼科森感到在破坏一切的战争里何不做点建设,于是开始投入到建桥的工作。与此同时,逃出去的美军俘虏希尔兹(威廉?霍尔登 William Holden 饰)接受盟军一个特别任务,就是大桥建成之日将它炸毁。

◎获奖情况 (共12项)

第30届奥斯卡金像奖 (1958)

最佳影片

└──萨姆·斯皮格尔 (id:1041774)

最佳导演

└──大卫·里恩 (id:1002783)

最佳男主角

└──亚历克·吉尼斯 (id:1000109)

最佳男配角(提名)

└──早川雪洲 (id:1019196)

最佳改编剧本

最佳摄影

└──杰克·希尔德亚德 (id:1033673)

最佳剪辑

└──彼得·泰勒 (id:1153387)

最佳配乐

└──马尔科姆·阿诺德 (id:1028893)

第15届金球奖 (1958)

电影类 最佳剧情片

电影类 最佳导演

└──大卫·里恩 (id:1002783)

电影类 剧情片最佳男主角

└──亚历克·吉尼斯 (id:1000109)

电影类 最佳男配角(提名)

└──早川雪洲 (id:1019196)

  1. Video

  2. ID : 1

  3. ID in the original source medium : 4113 (0x1011)

  4. Format : AVC

  5. Format/Info : Advanced Video Codec

  6. Format profile : [email protected]

  7. Format settings : CABAC / 2 Ref Frames

  8. Format settings, CABAC : Yes

  9. Format settings, Reference frames : 2 frames

  10. Codec ID : V_MPEG4/ISO/AVC

  11. Duration : 2 h 41 min

  12. Bit rate mode : Variable

  13. Bit rate : 24.0 Mb/s

  14. Width : 1 920 pixels

  15. Height : 1 080 pixels

  16. Display aspect ratio : 16:9

  17. Frame rate mode : Constant

  18. Frame rate : 23.976 (24000/1001/53354) FPS

  19. Color space : YUV

  20. Chroma subsampling : 4:2:0

  21. Bit depth : 8 bits

  22. Scan type : Progressive

  23. Bits/(Pixel*Frame) : 0.482

  24. Stream size : 27.0 GiB (55%)

  25. Language : English

  26. Default : No

  27. Forced : No

  28. Original source medium : Blu-ray


  29. Audio #1

  30. ID : 2

  31. Format : MLP FBA 16-ch

  32. Format/Info : Meridian Lossless Packing FBA with 16-channel presentation

  33. Commercial name : Dolby TrueHD with Dolby Atmos

  34. Codec ID : A_TRUEHD

  35. Duration : 2 h 41 min

  36. Bit rate mode : Variable

  37. Bit rate : 4 718 kb/s

  38. Maximum bit rate : 7 050 kb/s

  39. Channel(s) : 8 channels

  40. Channel layout : L R C LFE Ls Rs Lb Rb

  41. Sampling rate : 48.0 kHz

  42. Frame rate : 1 200.000 FPS (40 SPF)

  43. Compression mode : Lossless

  44. Stream size : 5.32 GiB (11%)

  45. Title : TrueHD 7.1 Atmos

  46. Language : English

  47. Default : Yes

  48. Forced : No

  49. Number of dynamic objects : 11

  50. Bed channel count : 1 channel

  51. Bed channel configuration : LFE


  52. Audio #2

  53. ID : 3

  54. Format : DTS XLL

  55. Format/Info : Digital Theater Systems

  56. Commercial name : DTS-HD Master Audio

  57. Codec ID : A_DTS

  58. Duration : 2 h 41 min

  59. Bit rate mode : Variable

  60. Bit rate : 3 773 kb/s

  61. Channel(s) : 8 channels

  62. Channel layout : C L R LFE Lb Rb Lss Rss

  63. Sampling rate : 48.0 kHz

  64. Frame rate : 93.750 FPS (512 SPF)

  65. Bit depth : 24 bits

  66. Compression mode : Lossless

  67. Stream size : 4.26 GiB (9%)

  68. Title : DTS-HD MA 7.1

  69. Language : English

  70. Default : No

  71. Forced : No


  72. Audio #3

  73. ID : 4

  74. Format : AC-3

  75. Format/Info : Audio Coding 3

  76. Commercial name : Dolby Digital

  77. Codec ID : A_AC3

  78. Duration : 2 h 41 min

  79. Bit rate mode : Constant

  80. Bit rate : 640 kb/s

  81. Channel(s) : 6 channels

  82. Channel layout : L R C LFE Ls Rs

  83. Sampling rate : 48.0 kHz

  84. Frame rate : 31.250 FPS (1536 SPF)

  85. Compression mode : Lossy

  86. Stream size : 739 MiB (1%)

  87. Title : DD 5.1

  88. Language : English

  89. Service kind : Complete Main

  90. Default : No

  91. Forced : No


  92. Audio #4

  93. ID : 5

  94. ID in the original source medium : 4353 (0x1101)

  95. Format : DTS XLL

  96. Format/Info : Digital Theater Systems

  97. Commercial name : DTS-HD Master Audio

  98. Codec ID : A_DTS

  99. Duration : 2 h 41 min

  100. Bit rate mode : Variable

  101. Bit rate : 2 578 kb/s

  102. Channel(s) : 6 channels

  103. Channel layout : C L R Ls Rs LFE

  104. Sampling rate : 48.0 kHz

  105. Frame rate : 93.750 FPS (512 SPF)

  106. Bit depth : 24 bits

  107. Compression mode : Lossless

  108. Stream size : 2.91 GiB (6%)

  109. Title : DTS-HD MA 5.1

  110. Language : Japanese

  111. Default : No

  112. Forced : No

  113. Original source medium : Blu-ray


  114. Audio #5

  115. ID : 6

  116. ID in the original source medium : 4354 (0x1102)

  117. Format : AC-3

  118. Format/Info : Audio Coding 3

  119. Commercial name : Dolby Digital

  120. Codec ID : A_AC3

  121. Duration : 2 h 41 min

  122. Bit rate mode : Constant

  123. Bit rate : 640 kb/s

  124. Channel(s) : 6 channels

  125. Channel layout : L R C LFE Ls Rs

  126. Sampling rate : 48.0 kHz

  127. Frame rate : 31.250 FPS (1536 SPF)

  128. Compression mode : Lossy

  129. Stream size : 739 MiB (1%)

  130. Title : DD 5.1

  131. Language : Czech

  132. Service kind : Complete Main

  133. Default : No

  134. Forced : No

  135. Original source medium : Blu-ray


  136. Audio #6

  137. ID : 7

  138. ID in the original source medium : 4355 (0x1103)

  139. Format : AC-3

  140. Format/Info : Audio Coding 3

  141. Commercial name : Dolby Digital

  142. Codec ID : A_AC3

  143. Duration : 2 h 41 min

  144. Bit rate mode : Constant

  145. Bit rate : 640 kb/s

  146. Channel(s) : 6 channels

  147. Channel layout : L R C LFE Ls Rs

  148. Sampling rate : 48.0 kHz

  149. Frame rate : 31.250 FPS (1536 SPF)

  150. Compression mode : Lossy

  151. Stream size : 739 MiB (1%)

  152. Title : DD 5.1

  153. Language : Hungarian

  154. Service kind : Complete Main

  155. Default : No

  156. Forced : No

  157. Original source medium : Blu-ray


  158. Audio #7

  159. ID : 8

  160. ID in the original source medium : 4356 (0x1104)

  161. Format : AC-3

  162. Format/Info : Audio Coding 3

  163. Commercial name : Dolby Digital

  164. Codec ID : A_AC3

  165. Duration : 2 h 41 min

  166. Bit rate mode : Constant

  167. Bit rate : 640 kb/s

  168. Channel(s) : 6 channels

  169. Channel layout : L R C LFE Ls Rs

  170. Sampling rate : 48.0 kHz

  171. Frame rate : 31.250 FPS (1536 SPF)

  172. Compression mode : Lossy

  173. Stream size : 739 MiB (1%)

  174. Title : DD 5.1

  175. Language : Polish

  176. Service kind : Complete Main

  177. Default : No

  178. Forced : No

  179. Original source medium : Blu-ray


  180. Audio #8

  181. ID : 9

  182. ID in the original source medium : 4357 (0x1105)

  183. Format : AC-3

  184. Format/Info : Audio Coding 3

  185. Commercial name : Dolby Digital

  186. Codec ID : A_AC3

  187. Duration : 2 h 41 min

  188. Bit rate mode : Constant

  189. Bit rate : 640 kb/s

  190. Channel(s) : 6 channels

  191. Channel layout : L R C LFE Ls Rs

  192. Sampling rate : 48.0 kHz

  193. Frame rate : 31.250 FPS (1536 SPF)

  194. Compression mode : Lossy

  195. Stream size : 739 MiB (1%)

  196. Title : DD 5.1

  197. Language : Russian

  198. Service kind : Complete Main

  199. Default : No

  200. Forced : No

  201. Original source medium : Blu-ray


  202. Audio #9

  203. ID : 10

  204. ID in the original source medium : 4358 (0x1106)

  205. Format : AC-3

  206. Format/Info : Audio Coding 3

  207. Commercial name : Dolby Digital

  208. Codec ID : A_AC3

  209. Duration : 2 h 41 min

  210. Bit rate mode : Constant

  211. Bit rate : 448 kb/s

  212. Channel(s) : 6 channels

  213. Channel layout : L R C LFE Ls Rs

  214. Sampling rate : 48.0 kHz

  215. Frame rate : 31.250 FPS (1536 SPF)

  216. Compression mode : Lossy

  217. Stream size : 517 MiB (1%)

  218. Title : DD 5.1

  219. Language : Chinese

  220. Service kind : Complete Main

  221. Default : No

  222. Forced : No

  223. Original source medium : Blu-ray


  224. Audio #10

  225. ID : 11

  226. Format : AC-3

  227. Format/Info : Audio Coding 3

  228. Commercial name : Dolby Digital

  229. Codec ID : A_AC3

  230. Duration : 2 h 41 min

  231. Bit rate mode : Constant

  232. Bit rate : 640 kb/s

  233. Channel(s) : 6 channels

  234. Channel layout : L R C LFE Ls Rs

  235. Sampling rate : 48.0 kHz

  236. Frame rate : 31.250 FPS (1536 SPF)

  237. Compression mode : Lossy

  238. Delay relative to video : 15 ms

  239. Stream size : 739 MiB (1%)

  240. Title : DD 5.1

  241. Language : French

  242. Service kind : Complete Main

  243. Default : No

  244. Forced : No


  245. Audio #11

  246. ID : 12

  247. Format : AC-3

  248. Format/Info : Audio Coding 3

  249. Commercial name : Dolby Digital

  250. Codec ID : A_AC3

  251. Duration : 2 h 41 min

  252. Bit rate mode : Constant

  253. Bit rate : 640 kb/s

  254. Channel(s) : 6 channels

  255. Channel layout : L R C LFE Ls Rs

  256. Sampling rate : 48.0 kHz

  257. Frame rate : 31.250 FPS (1536 SPF)

  258. Compression mode : Lossy

  259. Delay relative to video : 15 ms

  260. Stream size : 739 MiB (1%)

  261. Title : DD 5.1

  262. Language : German

  263. Service kind : Complete Main

  264. Default : No

  265. Forced : No


  266. Audio #12

  267. ID : 13

  268. Format : AC-3

  269. Format/Info : Audio Coding 3

  270. Commercial name : Dolby Digital

  271. Codec ID : A_AC3

  272. Duration : 2 h 41 min

  273. Bit rate mode : Constant

  274. Bit rate : 640 kb/s

  275. Channel(s) : 6 channels

  276. Channel layout : L R C LFE Ls Rs

  277. Sampling rate : 48.0 kHz

  278. Frame rate : 31.250 FPS (1536 SPF)

  279. Compression mode : Lossy

  280. Delay relative to video : 15 ms

  281. Stream size : 739 MiB (1%)

  282. Title : DD 5.1

  283. Language : Italian

  284. Service kind : Complete Main

  285. Default : No

  286. Forced : No


  287. Audio #13

  288. ID : 14

  289. Format : AC-3

  290. Format/Info : Audio Coding 3

  291. Commercial name : Dolby Digital

  292. Codec ID : A_AC3

  293. Duration : 2 h 41 min

  294. Bit rate mode : Constant

  295. Bit rate : 640 kb/s

  296. Channel(s) : 6 channels

  297. Channel layout : L R C LFE Ls Rs

  298. Sampling rate : 48.0 kHz

  299. Frame rate : 31.250 FPS (1536 SPF)

  300. Compression mode : Lossy

  301. Delay relative to video : 15 ms

  302. Stream size : 739 MiB (1%)

  303. Title : DD 5.1

  304. Language : Japanese

  305. Service kind : Complete Main

  306. Default : No

  307. Forced : No


  308. Audio #14

  309. ID : 15

  310. Format : AC-3

  311. Format/Info : Audio Coding 3

  312. Commercial name : Dolby Digital

  313. Codec ID : A_AC3

  314. Duration : 2 h 41 min

  315. Bit rate mode : Constant

  316. Bit rate : 640 kb/s

  317. Channel(s) : 6 channels

  318. Channel layout : L R C LFE Ls Rs

  319. Sampling rate : 48.0 kHz

  320. Frame rate : 31.250 FPS (1536 SPF)

  321. Compression mode : Lossy

  322. Delay relative to video : 15 ms

  323. Stream size : 739 MiB (1%)

  324. Title : DD 5.1

  325. Language : Portuguese

  326. Service kind : Complete Main

  327. Default : No

  328. Forced : No


  329. Audio #15

  330. ID : 16

  331. Format : AC-3

  332. Format/Info : Audio Coding 3

  333. Commercial name : Dolby Digital

  334. Codec ID : A_AC3

  335. Duration : 2 h 41 min

  336. Bit rate mode : Constant

  337. Bit rate : 640 kb/s

  338. Channel(s) : 6 channels

  339. Channel layout : L R C LFE Ls Rs

  340. Sampling rate : 48.0 kHz

  341. Frame rate : 31.250 FPS (1536 SPF)

  342. Compression mode : Lossy

  343. Delay relative to video : 15 ms

  344. Stream size : 739 MiB (1%)

  345. Title : DD 5.1

  346. Language : Spanish

  347. Service kind : Complete Main

  348. Default : No

  349. Forced : No


  350. Audio #16

  351. ID : 17

  352. Format : AC-3

  353. Format/Info : Audio Coding 3

  354. Commercial name : Dolby Digital

  355. Codec ID : A_AC3

  356. Duration : 2 h 41 min

  357. Bit rate mode : Constant

  358. Bit rate : 640 kb/s

  359. Channel(s) : 6 channels

  360. Channel layout : L R C LFE Ls Rs

  361. Sampling rate : 48.0 kHz

  362. Frame rate : 31.250 FPS (1536 SPF)

  363. Compression mode : Lossy

  364. Delay relative to video : 15 ms

  365. Stream size : 739 MiB (1%)

  366. Title : DD 5.1

  367. Language : Spanish

  368. Service kind : Complete Main

  369. Default : No

  370. Forced : No


  371. Text #1

  372. ID : 18

  373. Format : UTF-8

  374. Codec ID : S_TEXT/UTF8

  375. Codec ID/Info : UTF-8 Plain Text

  376. Duration : 2 h 34 min

  377. Bit rate : 44 b/s

  378. Count of elements : 1304

  379. Stream size : 50.2 KiB (0%)

  380. Language : English

  381. Default : Yes

  382. Forced : No


  383. Text #2

  384. ID : 19

  385. ID in the original source medium : 4608 (0x1200)

  386. Format : PGS

  387. Muxing mode : zlib

  388. Codec ID : S_HDMV/PGS

  389. Codec ID/Info : Picture based subtitle format used on BDs/HD-DVDs

  390. Duration : 2 h 34 min

  391. Bit rate : 26.1 kb/s

  392. Count of elements : 2706

  393. Stream size : 29.0 MiB (0%)

  394. Language : English

  395. Default : No

  396. Forced : No

  397. Original source medium : Blu-ray


  398. Text #3

  399. ID : 20

  400. ID in the original source medium : 4609 (0x1201)

  401. Format : PGS

  402. Muxing mode : zlib

  403. Codec ID : S_HDMV/PGS

  404. Codec ID/Info : Picture based subtitle format used on BDs/HD-DVDs

  405. Duration : 2 h 34 min

  406. Bit rate : 26.1 kb/s

  407. Count of elements : 2714

  408. Stream size : 29.0 MiB (0%)

  409. Language : English

  410. Default : No

  411. Forced : No

  412. Original source medium : Blu-ray


  413. Text #4

  414. ID : 21

  415. ID in the original source medium : 4610 (0x1202)

  416. Format : PGS

  417. Muxing mode : zlib

  418. Codec ID : S_HDMV/PGS

  419. Codec ID/Info : Picture based subtitle format used on BDs/HD-DVDs

  420. Duration : 2 h 35 min

  421. Bit rate : 17.4 kb/s

  422. Count of elements : 2003

  423. Stream size : 19.3 MiB (0%)

  424. Language : Japanese

  425. Default : No

  426. Forced : No

  427. Original source medium : Blu-ray


  428. Text #5

  429. ID : 22

  430. ID in the original source medium : 4611 (0x1203)

  431. Format : PGS

  432. Muxing mode : zlib

  433. Codec ID : S_HDMV/PGS

  434. Codec ID/Info : Picture based subtitle format used on BDs/HD-DVDs

  435. Duration : 2 h 34 min

  436. Bit rate : 23.3 kb/s

  437. Count of elements : 2637

  438. Stream size : 25.8 MiB (0%)

  439. Language : Czech

  440. Default : No

  441. Forced : No

  442. Original source medium : Blu-ray


  443. Text #6

  444. ID : 23

  445. ID in the original source medium : 4612 (0x1204)

  446. Format : PGS

  447. Muxing mode : zlib

  448. Codec ID : S_HDMV/PGS

  449. Codec ID/Info : Picture based subtitle format used on BDs/HD-DVDs

  450. Duration : 2 h 34 min

  451. Bit rate : 19.3 kb/s

  452. Count of elements : 2646

  453. Stream size : 21.4 MiB (0%)

  454. Language : Hungarian

  455. Default : No

  456. Forced : No

  457. Original source medium : Blu-ray


  458. Text #7

  459. ID : 24

  460. ID in the original source medium : 4613 (0x1205)

  461. Format : PGS

  462. Muxing mode : zlib

  463. Codec ID : S_HDMV/PGS

  464. Codec ID/Info : Picture based subtitle format used on BDs/HD-DVDs

  465. Duration : 2 h 34 min

  466. Bit rate : 18.4 kb/s

  467. Count of elements : 2644

  468. Stream size : 20.4 MiB (0%)

  469. Language : Polish

  470. Default : No

  471. Forced : No

  472. Original source medium : Blu-ray


  473. Text #8

  474. ID : 25

  475. ID in the original source medium : 4614 (0x1206)

  476. Format : PGS

  477. Muxing mode : zlib

  478. Codec ID : S_HDMV/PGS

  479. Codec ID/Info : Picture based subtitle format used on BDs/HD-DVDs

  480. Duration : 2 h 34 min

  481. Bit rate : 12.6 kb/s

  482. Count of elements : 2660

  483. Stream size : 13.9 MiB (0%)

  484. Language : Arabic

  485. Default : No

  486. Forced : No

  487. Original source medium : Blu-ray


  488. Text #9

  489. ID : 26

  490. ID in the original source medium : 4615 (0x1207)

  491. Format : PGS

  492. Muxing mode : zlib

  493. Codec ID : S_HDMV/PGS

  494. Codec ID/Info : Picture based subtitle format used on BDs/HD-DVDs

  495. Duration : 2 h 34 min

  496. Bit rate : 23.5 kb/s

  497. Count of elements : 2727

  498. Stream size : 26.1 MiB (0%)

  499. Language : Chinese

  500. Default : No

  501. Forced : No

  502. Original source medium : Blu-ray


  503. Text #10

  504. ID : 27

  505. ID in the original source medium : 4616 (0x1208)

  506. Format : PGS

  507. Muxing mode : zlib

  508. Codec ID : S_HDMV/PGS

  509. Codec ID/Info : Picture based subtitle format used on BDs/HD-DVDs

  510. Duration : 2 h 36 min

  511. Bit rate : 18.6 kb/s

  512. Count of elements : 2623

  513. Stream size : 20.8 MiB (0%)

  514. Language : Chinese

  515. Default : No

  516. Forced : No

  517. Original source medium : Blu-ray


  518. Text #11

  519. ID : 28

  520. ID in the original source medium : 4617 (0x1209)

  521. Format : PGS

  522. Muxing mode : zlib

  523. Codec ID : S_HDMV/PGS

  524. Codec ID/Info : Picture based subtitle format used on BDs/HD-DVDs

  525. Duration : 2 h 34 min

  526. Bit rate : 24.1 kb/s

  527. Count of elements : 2687

  528. Stream size : 26.8 MiB (0%)

  529. Language : Croatian

  530. Default : No

  531. Forced : No

  532. Original source medium : Blu-ray


  533. Text #12

  534. ID : 29

  535. ID in the original source medium : 4618 (0x120A)

  536. Format : PGS

  537. Muxing mode : zlib

  538. Codec ID : S_HDMV/PGS

  539. Codec ID/Info : Picture based subtitle format used on BDs/HD-DVDs

  540. Duration : 2 h 36 min

  541. Bit rate : 19.8 kb/s

  542. Count of elements : 2662

  543. Stream size : 22.2 MiB (0%)

  544. Language : Greek

  545. Default : No

  546. Forced : No

  547. Original source medium : Blu-ray


  548. Text #13

  549. ID : 30

  550. ID in the original source medium : 4619 (0x120B)

  551. Format : PGS

  552. Muxing mode : zlib

  553. Codec ID : S_HDMV/PGS

  554. Codec ID/Info : Picture based subtitle format used on BDs/HD-DVDs

  555. Duration : 2 h 34 min

  556. Bit rate : 18.8 kb/s

  557. Count of elements : 2683

  558. Stream size : 20.8 MiB (0%)

  559. Language : Hebrew

  560. Default : No

  561. Forced : No

  562. Original source medium : Blu-ray


  563. Text #14

  564. ID : 31

  565. ID in the original source medium : 4620 (0x120C)

  566. Format : PGS

  567. Muxing mode : zlib

  568. Codec ID : S_HDMV/PGS

  569. Codec ID/Info : Picture based subtitle format used on BDs/HD-DVDs

  570. Duration : 2 h 34 min

  571. Bit rate : 22.2 kb/s

  572. Count of elements : 2644

  573. Stream size : 24.6 MiB (0%)

  574. Language : Hindi

  575. Default : No

  576. Forced : No

  577. Original source medium : Blu-ray


  578. Text #15

  579. ID : 32

  580. ID in the original source medium : 4621 (0x120D)

  581. Format : PGS

  582. Muxing mode : zlib

  583. Codec ID : S_HDMV/PGS

  584. Codec ID/Info : Picture based subtitle format used on BDs/HD-DVDs

  585. Duration : 2 h 34 min

  586. Bit rate : 29.5 kb/s

  587. Count of elements : 2749

  588. Stream size : 32.7 MiB (0%)

  589. Language : Indonesian

  590. Default : No

  591. Forced : No

  592. Original source medium : Blu-ray


  593. Text #16

  594. ID : 33

  595. ID in the original source medium : 4622 (0x120E)

  596. Format : PGS

  597. Muxing mode : zlib

  598. Codec ID : S_HDMV/PGS

  599. Codec ID/Info : Picture based subtitle format used on BDs/HD-DVDs

  600. Duration : 2 h 38 min

  601. Bit rate : 17.0 kb/s

  602. Count of elements : 2660

  603. Stream size : 19.3 MiB (0%)

  604. Language : Korean

  605. Default : No

  606. Forced : No

  607. Original source medium : Blu-ray


  608. Text #17

  609. ID : 34

  610. ID in the original source medium : 4623 (0x120F)

  611. Format : PGS

  612. Muxing mode : zlib

  613. Codec ID : S_HDMV/PGS

  614. Codec ID/Info : Picture based subtitle format used on BDs/HD-DVDs

  615. Duration : 2 h 34 min

  616. Bit rate : 24.3 kb/s

  617. Count of elements : 2725

  618. Stream size : 27.0 MiB (0%)

  619. Language : Slovak

  620. Default : No

  621. Forced : No

  622. Original source medium : Blu-ray


  623. Text #18

  624. ID : 35

  625. ID in the original source medium : 4624 (0x1210)

  626. Format : PGS

  627. Muxing mode : zlib

  628. Codec ID : S_HDMV/PGS

  629. Codec ID/Info : Picture based subtitle format used on BDs/HD-DVDs

  630. Duration : 2 h 34 min

  631. Bit rate : 22.1 kb/s

  632. Count of elements : 2639

  633. Stream size : 24.5 MiB (0%)

  634. Language : Slovenian

  635. Default : No

  636. Forced : No

  637. Original source medium : Blu-ray


  638. Text #19

  639. ID : 36

  640. ID in the original source medium : 4625 (0x1211)

  641. Format : PGS

  642. Muxing mode : zlib

  643. Codec ID : S_HDMV/PGS

  644. Codec ID/Info : Picture based subtitle format used on BDs/HD-DVDs

  645. Duration : 2 h 35 min

  646. Bit rate : 21.2 kb/s

  647. Count of elements : 1978

  648. Stream size : 23.6 MiB (0%)

  649. Language : Thai

  650. Default : No

  651. Forced : No

  652. Original source medium : Blu-ray


  653. Text #20

  654. ID : 37

  655. ID in the original source medium : 4626 (0x1212)

  656. Format : PGS

  657. Muxing mode : zlib

  658. Codec ID : S_HDMV/PGS

  659. Codec ID/Info : Picture based subtitle format used on BDs/HD-DVDs

  660. Duration : 2 h 34 min

  661. Bit rate : 26.1 kb/s

  662. Count of elements : 2690

  663. Stream size : 28.9 MiB (0%)

  664. Language : Turkish

  665. Default : No

  666. Forced : No

  667. Original source medium : Blu-ray


  668. Text #21

  669. ID : 38

  670. ID in the original source medium : 4627 (0x1213)

  671. Format : PGS

  672. Muxing mode : zlib

  673. Codec ID : S_HDMV/PGS

  674. Codec ID/Info : Picture based subtitle format used on BDs/HD-DVDs

  675. Duration : 2 h 38 min

  676. Bit rate : 16.8 kb/s

  677. Count of elements : 2641

  678. Stream size : 19.1 MiB (0%)

  679. Language : Chinese

  680. Default : No

  681. Forced : No

  682. Original source medium : Blu-ray


  683. Text #22

  684. ID : 39

  685. Format : PGS

  686. Muxing mode : zlib

  687. Codec ID : S_HDMV/PGS

  688. Codec ID/Info : Picture based subtitle format used on BDs/HD-DVDs

  689. Duration : 2 h 35 min

  690. Bit rate : 23.8 kb/s

  691. Count of elements : 2286

  692. Stream size : 26.4 MiB (0%)

  693. Language : Danish

  694. Default : No

  695. Forced : No


  696. Text #23

  697. ID : 40

  698. Format : PGS

  699. Muxing mode : zlib

  700. Codec ID : S_HDMV/PGS

  701. Codec ID/Info : Picture based subtitle format used on BDs/HD-DVDs

  702. Duration : 2 h 35 min

  703. Bit rate : 20.9 kb/s

  704. Count of elements : 1998

  705. Stream size : 23.2 MiB (0%)

  706. Language : Dutch

  707. Default : No

  708. Forced : No


  709. Text #24

  710. ID : 41

  711. Format : PGS

  712. Muxing mode : zlib

  713. Codec ID : S_HDMV/PGS

  714. Codec ID/Info : Picture based subtitle format used on BDs/HD-DVDs

  715. Duration : 2 h 34 min

  716. Bit rate : 20.3 kb/s

  717. Count of elements : 1789

  718. Stream size : 22.5 MiB (0%)

  719. Language : Finnish

  720. Default : No

  721. Forced : No


  722. Text #25

  723. ID : 42

  724. Format : PGS

  725. Muxing mode : zlib

  726. Codec ID : S_HDMV/PGS

  727. Codec ID/Info : Picture based subtitle format used on BDs/HD-DVDs

  728. Duration : 2 h 36 min

  729. Bit rate : 22.5 kb/s

  730. Count of elements : 2609

  731. Stream size : 25.3 MiB (0%)

  732. Language : French

  733. Default : No

  734. Forced : No


  735. Text #26

  736. ID : 43

  737. Format : PGS

  738. Muxing mode : zlib

  739. Codec ID : S_HDMV/PGS

  740. Codec ID/Info : Picture based subtitle format used on BDs/HD-DVDs

  741. Duration : 2 h 35 min

  742. Bit rate : 27.4 kb/s

  743. Count of elements : 2768

  744. Stream size : 30.4 MiB (0%)

  745. Language : German

  746. Default : No

  747. Forced : No


  748. Text #27

  749. ID : 44

  750. Format : PGS

  751. Muxing mode : zlib

  752. Codec ID : S_HDMV/PGS

  753. Codec ID/Info : Picture based subtitle format used on BDs/HD-DVDs

  754. Duration : 2 h 35 min

  755. Bit rate : 19.6 kb/s

  756. Count of elements : 2716

  757. Stream size : 21.7 MiB (0%)

  758. Language : Hungarian

  759. Default : No

  760. Forced : No


  761. Text #28

  762. ID : 45

  763. Format : PGS

  764. Muxing mode : zlib

  765. Codec ID : S_HDMV/PGS

  766. Codec ID/Info : Picture based subtitle format used on BDs/HD-DVDs

  767. Duration : 2 h 35 min

  768. Bit rate : 24.5 kb/s

  769. Count of elements : 2784

  770. Stream size : 27.2 MiB (0%)

  771. Language : Italian

  772. Default : No

  773. Forced : No


  774. Text #29

  775. ID : 46

  776. Format : PGS

  777. Muxing mode : zlib

  778. Codec ID : S_HDMV/PGS

  779. Codec ID/Info : Picture based subtitle format used on BDs/HD-DVDs

  780. Duration : 2 h 38 min

  781. Bit rate : 19.5 kb/s

  782. Count of elements : 2784

  783. Stream size : 22.1 MiB (0%)

  784. Language : Korean

  785. Default : No

  786. Forced : No


  787. Text #30

  788. ID : 47

  789. Format : PGS

  790. Muxing mode : zlib

  791. Codec ID : S_HDMV/PGS

  792. Codec ID/Info : Picture based subtitle format used on BDs/HD-DVDs

  793. Duration : 2 h 35 min

  794. Bit rate : 18.6 kb/s

  795. Count of elements : 1754

  796. Stream size : 20.6 MiB (0%)

  797. Language : Norwegian

  798. Default : No

  799. Forced : No


  800. Text #31

  801. ID : 48

  802. Format : PGS

  803. Muxing mode : zlib

  804. Codec ID : S_HDMV/PGS

  805. Codec ID/Info : Picture based subtitle format used on BDs/HD-DVDs

  806. Duration : 2 h 38 min

  807. Bit rate : 22.4 kb/s

  808. Count of elements : 2778

  809. Stream size : 25.4 MiB (0%)

  810. Language : Portuguese

  811. Default : No

  812. Forced : No


  813. Text #32

  814. ID : 49

  815. Format : PGS

  816. Muxing mode : zlib

  817. Codec ID : S_HDMV/PGS

  818. Codec ID/Info : Picture based subtitle format used on BDs/HD-DVDs

  819. Duration : 2 h 34 min

  820. Bit rate : 21.6 kb/s

  821. Count of elements : 2703

  822. Stream size : 24.0 MiB (0%)

  823. Language : Spanish

  824. Default : No

  825. Forced : No


  826. Text #33

  827. ID : 50

  828. Format : PGS

  829. Muxing mode : zlib

  830. Codec ID : S_HDMV/PGS

  831. Codec ID/Info : Picture based subtitle format used on BDs/HD-DVDs

  832. Duration : 2 h 40 min

  833. Bit rate : 164 b/s

  834. Count of elements : 24

  835. Stream size : 193 KiB (0%)

  836. Language : Russian

  837. Default : No

  838. Forced : No


  839. Menu

  840. 00:00:00.000 : en:Chapter 01

  841. 00:10:54.487 : en:Chapter 02

  842. 00:21:01.134 : en:Chapter 03

  843. 00:31:05.989 : en:Chapter 04

  844. 00:38:43.404 : en:Chapter 05

  845. 00:50:24.271 : en:Chapter 06

  846. 01:00:10.607 : en:Chapter 07

  847. 01:09:43.179 : en:Chapter 08

  848. 01:20:59.271 : en:Chapter 09

  849. 01:32:47.728 : en:Chapter 10

  850. 01:41:14.318 : en:Chapter 11

  851. 01:50:34.461 : en:Chapter 12

  852. 02:03:20.226 : en:Chapter 13

  853. 02:14:36.818 : en:Chapter 14

  854. 02:24:38.044 : en:Chapter 15

  855. 02:32:33.102 : en:Chapter 16

复制代码

桂河大桥[国语音轨/中文字幕].The.Bridge.on.the.River.Kwai.1957.1080p.BluRay.REMUX.AVC.DTS HD.MA.TrueHD.7.1.Atmos   欧美电影  第3张 桂河大桥[国语音轨/中文字幕].The.Bridge.on.the.River.Kwai.1957.1080p.BluRay.REMUX.AVC.DTS HD.MA.TrueHD.7.1.Atmos   欧美电影  第4张 桂河大桥[国语音轨/中文字幕].The.Bridge.on.the.River.Kwai.1957.1080p.BluRay.REMUX.AVC.DTS HD.MA.TrueHD.7.1.Atmos   欧美电影  第5张



文件下载


除非特别注明,本文『桂河大桥[国语音轨/中文字幕].The.Bridge.on.the.River.Kwai.1957.1080p.BluRay.REMUX.AVC.DTS-HD.MA.TrueHD.7.1.Atmos-』来源于互联网机器人自动抓取,非本站原创。 浮游电影网不对本文拥有版权,如有侵犯,请联系邮箱:fuyouu#yandex.com[#换成@]投诉。我们会在15个工作日内删除。 但烦请转载时请标明出处:“本文转载于『浮游电影网』,原文地址:https://www.fuyouu.com/22137.html

评论吧骚年!

发表你的见解   

昵称*

E-mail*(建议输入,以便收到博主回复的提示邮件)

验证码*

您可以使用eMule或eMule Mod(Windows)、aMule(Win、Linux、Mac)等软件下载eD2k链接。。
eMule收藏集(.emulecollection)文件是您选中的所有链接的列表文件。eMule可以直接下载它们。
按住SHIFT键选择可以选中多个选择框。
可用文件名和大小选择器来选择文件。
文件名选择器帮您根据文件名称或后缀来选择文件。不分大小写。
符号使用:
和:空格( )、+
不包含:-
或:|
转义:一对英文引号("");
匹配开头:^
匹配结尾:$
例如:
选中所有名称中包含有“eMule”或“0.49c”字眼,但不包含有“exe”字眼的:emule|0.49c -exe
选中所有名称的开头是“eMule”,结尾是“0.49c”的:^emule 0.49c$
选中所有名称中带有“eMule 0.49c”的(必须是“eMule 0.49c”,中间没有别的字符,不能是“eMule fake 0.49c”),需要转义:"emule 0.49c"
大小选择器帮您根据文件大小选择文件。