当前位置: 首页 >> 港台电影 >> 谜一样的双眼[中文字幕].The.Secret.in.Their.Eyes.2009.SPANISH.1080p.BluRay.REMUX.AVC.DTS-HD.MA.5.1-FGT 19.43GB >> 正文

谜一样的双眼[中文字幕].The.Secret.in.Their.Eyes.2009.SPANISH.1080p.BluRay.REMUX.AVC.DTS-HD.MA.5.1-FGT 19.43GB

2022年05月14日 14:04:25     电影发布:来源于网络     电影分类:港台电影     评论(0)    

谜一样的双眼[中文字幕].The.Secret.in.Their.Eyes.2009.SPANISH.1080p.BluRay.REMUX.AVC.DTS HD.MA.5.1 FGT 19.43GB  港台电影  第1张

谜一样的双眼[中文字幕].The.Secret.in.Their.Eyes.2009.SPANISH.1080p.BluRay.REMUX.AVC.DTS HD.MA.5.1 FGT 19.43GB  港台电影  第2张

◎译 名 谜一样的双眼 / 他们眼中的秘密 / 谜情追凶(港) / 谜样的双眼 / The Secret in Their Eyes

◎片 名 El secreto de sus ojos

◎年 代 2009

◎产 地 阿根廷 / 西班牙

◎类 别 剧情 / 爱情 / 悬疑 / 犯罪

◎语 言 西班牙语

◎上映日期 2009-08-13

◎IMDb链接 https://www.imdb.com/title/tt1305806/

◎豆瓣评分 8.2/10 (84810人评价)

◎豆瓣链接 https://movie.douban.com/subject/4066125/

◎片 长 129分钟

◎导 演 胡安·何塞·坎帕内利亚 Juan José Campanella (id:1009386)

◎编 剧 胡安·何塞·坎帕内利亚 Juan José Campanella (id:1009386)

爱德华多·萨切里 Eduardo Sacheri (id:1334164)

◎演 员 里卡多·达林 Ricardo Darín (id:1013967)

索蕾达·维拉米尔 Soledad Villamil (id:1018087)

巴勃罗·拉戈 Pablo Rago (id:1027560)

哈维尔·戈迪诺 Javier Godino (id:1192364)

古勒莫·法兰塞拉 Guillermo Francella (id:1005003)

何塞·路易斯·加尔西 José Luis Garci (id:1008075)

卡拉·奎沃多 Carla Quevedo (id:1047890)

费尔南多·帕多 Fernando Pardo (id:1293931)

曼诺罗·索洛 Manolo Solo (id:1365968)

胡安·何塞·坎帕内利亚 Juan José Campanella (id:1009386)

Emilio Kauderer Emilio Kauderer (id:1288216)

Félix Monti Félix Monti (id:1292374)

胡安·何塞·坎帕内利亚 Juan José Campanella (id:1009386)

Cecilia Monti Cecilia Monti (id:1302230)

Araceli Farace Araceli Farace (id:1302583)

◎简 介

本杰明·艾斯玻希多(里卡杜·达林 Ricardo Darín 饰)是一名退休的检察官,几十年的司法工作经验让他积攒下诸多素材,而多年前一起奸杀案始终让他念念不忘,他希望将其付梓出版,了却心愿。25年前,23岁的美丽女教师莉莉安娜·科洛托(Carla Quevedo 饰)和银行职员里杜卡·莫拉莱斯(帕博罗·拉格 Pablo Rago 饰)相识相恋,然而就在两人已谈婚论嫁之际,莉莉安娜在公寓被人残忍强暴并杀害。是时司法腐败,为求尽快结案,本杰明的同事甚至随便找个外来移民顶罪。也许是为莉莉安娜死亡现场所震撼,本杰明执着地展开调查,从此卷入这桩扑朔迷离的爱恨疑案之中……

本片荣获2010年第82届奥斯卡金像奖最佳外语片奖;2009年哈瓦那电影节观众奖、最佳男主角奖(Ricardo Darín)、最佳导演奖、最佳音乐奖、评审团特别奖。

◎获奖情况 (共14项)

第82届奥斯卡金像奖 (2010)

最佳外语片

└──胡安·何塞·坎帕内利亚 (id:1009386)

第23届欧洲电影奖 (2010)

最佳影片(提名)

第24届西班牙戈雅奖 (2010)

最佳影片(提名)

最佳导演(提名)

└──胡安·何塞·坎帕内利亚 (id:1009386)

最佳男主角(提名)

└──里卡多·达林 (id:1013967)

最佳新人女演员

└──索蕾达·维拉米尔 (id:1018087)

最佳改编剧本(提名)

最佳摄影(提名)

└──Félix Monti (id:1292374)

最佳艺术指导(提名)

└──Marcelo Pont Vergés (id:1126261)

最佳原创音乐(提名)

└──费德里科·尤希德 (id:1048508)

最佳西班牙语外国片

└──胡安·何塞·坎帕内利亚 (id:1009386)

第55届意大利大卫奖 (2011)

最佳欧洲电影(提名)

└──胡安·何塞·坎帕内利亚 (id:1009386)

第57届圣塞巴斯蒂安国际电影节 (2009)

金贝壳奖(提名)

└──胡安·何塞·坎帕内利亚 (id:1009386)

第10届凤凰城影评人协会奖 (2010)

最佳外语片(提名)

  1. Video

  2. ID : 1

  3. ID in the original source medium : 4113 (0x1011)

  4. Format : AVC

  5. Format/Info : Advanced Video Codec

  6. Format profile : [email protected]

  7. Format settings : CABAC / 4 Ref Frames

  8. Format settings, CABAC : Yes

  9. Format settings, Reference frames : 4 frames

  10. Codec ID : V_MPEG4/ISO/AVC

  11. Duration : 2 h 9 min

  12. Bit rate mode : Variable

  13. Bit rate : 19.4 Mb/s

  14. Maximum bit rate : 30.0 Mb/s

  15. Width : 1 920 pixels

  16. Height : 1 080 pixels

  17. Display aspect ratio : 16:9

  18. Frame rate mode : Constant

  19. Frame rate : 23.976 (24000/1001/53354) FPS

  20. Standard : NTSC

  21. Color space : YUV

  22. Chroma subsampling : 4:2:0

  23. Bit depth : 8 bits

  24. Scan type : Progressive

  25. Bits/(Pixel*Frame) : 0.390

  26. Stream size : 17.5 GiB (90%)

  27. Language : English

  28. Default : No

  29. Forced : No

  30. Color range : Limited

  31. Color primaries : BT.709

  32. Transfer characteristics : BT.709

  33. Matrix coefficients : BT.709

  34. Original source medium : Blu-ray


  35. Audio

  36. ID : 2

  37. ID in the original source medium : 4352 (0x1100)

  38. Format : DTS XLL

  39. Format/Info : Digital Theater Systems

  40. Commercial name : DTS-HD Master Audio

  41. Codec ID : A_DTS

  42. Duration : 2 h 9 min

  43. Bit rate mode : Variable

  44. Bit rate : 2 080 kb/s

  45. Channel(s) : 6 channels

  46. Channel layout : C L R Ls Rs LFE

  47. Sampling rate : 48.0 kHz

  48. Frame rate : 93.750 FPS (512 SPF)

  49. Bit depth : 16 bits

  50. Compression mode : Lossless

  51. Stream size : 1.88 GiB (10%)

  52. Title : DTS-HD MA 5.1

  53. Language : Spanish

  54. Default : Yes

  55. Forced : No

  56. Original source medium : Blu-ray


  57. Text #1

  58. ID : 3

  59. Format : UTF-8

  60. Codec ID : S_TEXT/UTF8

  61. Codec ID/Info : UTF-8 Plain Text

  62. Duration : 2 h 2 min

  63. Bit rate : 53 b/s

  64. Count of elements : 1581

  65. Stream size : 48.3 KiB (0%)

  66. Language : English

  67. Default : Yes

  68. Forced : No


  69. Text #2

  70. ID : 4

  71. ID in the original source medium : 4608 (0x1200)

  72. Format : PGS

  73. Muxing mode : zlib

  74. Codec ID : S_HDMV/PGS

  75. Codec ID/Info : Picture based subtitle format used on BDs/HD-DVDs

  76. Duration : 2 h 2 min

  77. Bit rate : 32.0 kb/s

  78. Count of elements : 2710

  79. Stream size : 28.0 MiB (0%)

  80. Language : Dutch

  81. Default : No

  82. Forced : No

  83. Original source medium : Blu-ray


  84. Text #3

  85. ID : 5

  86. ID in the original source medium : 4609 (0x1201)

  87. Format : PGS

  88. Muxing mode : zlib

  89. Codec ID : S_HDMV/PGS

  90. Codec ID/Info : Picture based subtitle format used on BDs/HD-DVDs

  91. Duration : 2 h 4 min

  92. Bit rate : 29.2 kb/s

  93. Count of elements : 2756

  94. Stream size : 26.0 MiB (0%)

  95. Language : Chinese

  96. Default : No

  97. Forced : No

  98. Original source medium : Blu-ray


  99. Menu

  100. 00:00:00.000 : en:Chapter 01

  101. 00:10:15.448 : en:Chapter 02

  102. 00:21:14.773 : en:Chapter 03

  103. 00:31:56.623 : en:Chapter 04

  104. 00:41:55.095 : en:Chapter 05

  105. 00:52:39.990 : en:Chapter 06

  106. 01:00:48.227 : en:Chapter 07

  107. 01:07:16.741 : en:Chapter 08

  108. 01:23:46.396 : en:Chapter 09

  109. 01:32:03.059 : en:Chapter 10

  110. 01:41:57.569 : en:Chapter 11

  111. 01:55:38.932 : en:Chapter 12

复制代码

谜一样的双眼[中文字幕].The.Secret.in.Their.Eyes.2009.SPANISH.1080p.BluRay.REMUX.AVC.DTS HD.MA.5.1 FGT 19.43GB  港台电影  第3张 谜一样的双眼[中文字幕].The.Secret.in.Their.Eyes.2009.SPANISH.1080p.BluRay.REMUX.AVC.DTS HD.MA.5.1 FGT 19.43GB  港台电影  第4张 谜一样的双眼[中文字幕].The.Secret.in.Their.Eyes.2009.SPANISH.1080p.BluRay.REMUX.AVC.DTS HD.MA.5.1 FGT 19.43GB  港台电影  第5张




文件下载


除非特别注明,本文『谜一样的双眼[中文字幕].The.Secret.in.Their.Eyes.2009.SPANISH.1080p.BluRay.REMUX.AVC.DTS-HD.MA.5.1-FGT 19.43GB』来源于互联网机器人自动抓取,非本站原创。 浮游电影网不对本文拥有版权,如有侵犯,请联系邮箱:fuyouu#yandex.com[#换成@]投诉。我们会在15个工作日内删除。 但烦请转载时请标明出处:“本文转载于『浮游电影网』,原文地址:https://www.fuyouu.com/22136.html

评论吧骚年!

发表你的见解   

昵称*

E-mail*(建议输入,以便收到博主回复的提示邮件)

验证码*

您可以使用eMule或eMule Mod(Windows)、aMule(Win、Linux、Mac)等软件下载eD2k链接。。
eMule收藏集(.emulecollection)文件是您选中的所有链接的列表文件。eMule可以直接下载它们。
按住SHIFT键选择可以选中多个选择框。
可用文件名和大小选择器来选择文件。
文件名选择器帮您根据文件名称或后缀来选择文件。不分大小写。
符号使用:
和:空格( )、+
不包含:-
或:|
转义:一对英文引号("");
匹配开头:^
匹配结尾:$
例如:
选中所有名称中包含有“eMule”或“0.49c”字眼,但不包含有“exe”字眼的:emule|0.49c -exe
选中所有名称的开头是“eMule”,结尾是“0.49c”的:^emule 0.49c$
选中所有名称中带有“eMule 0.49c”的(必须是“eMule 0.49c”,中间没有别的字符,不能是“eMule fake 0.49c”),需要转义:"emule 0.49c"
大小选择器帮您根据文件大小选择文件。