当前位置: 首页 >> 欧美电影 >> 深海浩劫[国英多音轨/中英字幕].Deepwater.Horizont.2016.BluRay.1080p.x265.10bit.2Audio-MiniHD 4.82GB >> 正文

深海浩劫[国英多音轨/中英字幕].Deepwater.Horizont.2016.BluRay.1080p.x265.10bit.2Audio-MiniHD 4.82GB

2022年05月13日 23:54:54     电影发布:来源于网络     电影分类:欧美电影     评论(0)    

◎译 名 深海浩劫 / 深水地平线 / 怒火地平线(台)

◎片 名 Deepwater Horizon

◎年 代 2016

◎产 地 美国 / 中国香港

◎类 别 剧情 / 冒险 / 灾难

◎语 言 英语

◎上映日期 2016-11-15(中国大陆) / 2016-09-30(美国)

◎IMDb链接 https://www.imdb.com/title/tt1860357/

◎豆瓣评分 7.0/10 (49732人评价)

◎豆瓣链接 https://movie.douban.com/subject/22266320/

◎片 长 108分钟

◎导 演 彼得·博格 Peter Berg (id:1031938)

◎编 剧 马修·迈克尔·卡纳汉 Matthew Michael Carnahan (id:1327625)

马修·萨德 Matthew Sand (id:1362910)

◎演 员 马克·沃尔伯格 Mark Wahlberg (id:1035674)

迪伦·奥布莱恩 Dylan O'Brien (id:1314963)

约翰·马尔科维奇 John Malkovich (id:1041013)

库尔特·拉塞尔 Kurt Russell (id:1031814)

吉娜·罗德里格兹 Gina Rodriguez (id:1328190)

凯特·哈德森 Kate Hudson (id:1035673)

J·D·埃弗摩尔 J.D. Evermore (id:1086542)

乔·克里斯特 Joe Chrest (id:1338883)

约翰·阿米乔 John L. Armijo (id:1341028)

布拉德·利兰 Brad Leland (id:1118902)

道格拉斯·M·格里芬 Douglas M. Griffin (id:1093003)

克里斯·阿斯沃思 Chris Ashworth (id:1056708)

穆斯塔法·哈里斯 Mustafa Harris (id:1331417)

伊桑·苏普利 Ethan Suplee (id:1017960)

詹姆斯·杜蒙特 James DuMont (id:1025390)

朱莉娅·霍特 Julia Holt (id:1414787)

罗伯特·沃克·布兰乔德 Robert Walker Branchaud (id:1360137)

斯蒂夫·贾布隆斯基 Steve Jablonsky (id:1027591)

卡西娅·瓦利卡-麦蒙 Kasia Walicka-Maimone (id:1290762)

瓦伦·哈德卡 Varun Hadkar (id:1409231)

杰森·比林顿 Jason Billington (id:1369621)

杰森·H·斯内尔 Jason H. Snell (id:1369620)

◎简 介

麦克(马克·沃尔伯格 Mark Wahlberg 饰)是位于墨西哥湾的石油钻塔深水地平线号上的安全维修人员,在和妻子弗里西亚(凯特·哈德森 Kate Hudson 饰)告别之后,麦克将再度面对长达21天的连续作业。麦克的工作经验非常的丰富,在他任职期间,钻塔上没有发生过任何的生产事故,他因此深受上司和同事们的信赖。

项目负责人唐纳德(约翰·马尔科维奇 John Malkovich 饰)希望能够加快开采的进程,但麦克表示这将带来很大的安全隐患。唐纳德并没有听取麦克的警告,而是一意孤行,导致钻塔中发声了剧烈的爆炸。霎时间,火海淹没了工人们,126名钻井工人被困在死亡的边缘线上。

◎获奖情况 (共6项)

第89届奥斯卡金像奖 (2017)

最佳视觉效果(提名)

最佳音效剪辑(提名)

第70届英国电影学院奖 (2017)

电影奖 最佳音效(提名)

第44届动画安妮奖 (2017)

最佳真人电影动画效果(提名)

第15届美国视觉效果协会奖 (2017)

最佳电影辅助视觉效果

最佳电影模型

  1. ##### MediaInfo ######

  2. General

  3. Unique ID : 215187065356924545306682109975937795794 (0xA1E38572B5853F09AC3B2A01C1ADC6D2)

  4. Complete name : Deepwater.Horizont.2016.BluRay.1080p.x265.10bit.2Audio-MiniHD.mkv

  5. Format : Matroska

  6. Format version : Version 4

  7. File size : 4.81 GiB

  8. Duration : 1 h 48 min

  9. Overall bit rate : 6 362 kb/s

  10. Encoded date : UTC 2017-01-22 03:06:02

  11. Writing application : mkvmerge v9.7.1 ('Pandemonium') 64bit

  12. Writing library : libebml v1.3.4 + libmatroska v1.4.5

  13. Video

  14. ID : 1

  15. Format : HEVC

  16. Format/Info : High Efficiency Video Coding

  17. Format profile : Main [email protected]@Main

  18. Codec ID : V_MPEGH/ISO/HEVC

  19. Duration : 1 h 48 min

  20. Bit rate : 5 416 kb/s

  21. Width : 1 920 pixels

  22. Height : 800 pixels

  23. Display aspect ratio : 2.40:1

  24. Frame rate mode : Constant

  25. Frame rate : 23.976 (24000/1001/53354) FPS

  26. Color space : YUV

  27. Chroma subsampling : 4:2:0

  28. Bit depth : 10 bits

  29. Bits/(Pixel*Frame) : 0.147

  30. Stream size : 4.10 GiB (85%)

  31. Writing library : x265 2.1+36-d216cb9b3b47:[Windows][GCC 6.2.0][64 bit] 10bit

  32. Encoding settings : wpp / ctu=32 / min-cu-size=8 / max-tu-size=16 / tu-intra-depth=2 / tu-inter-depth=2 / me=3 / subme=5 / merange=25 / rect / no-amp / max-merge=3 / temporal-mvp / no-early-skip / rskip / rdpenalty=1 / no-tskip / no-tskip-fast / no-strong-intra-smoothing / no-lossless / no-cu-lossless / no-constrained-intra / no-fast-intra / no-open-gop / no-temporal-layers / interlace=0 / keyint=360 / min-keyint=1 / NTMzNTQ=uuDQuD2mJt9fsCf / scenecut=40 / bias-for-scenecut=0.05 / rc-lookahead=60 / lookahead-slices=4 / bframes=8 / bframe-bias=0 / b-adapt=2 / ref=5 / limit-refs=3 / limit-modes / weightp / weightb / aq-mode=3 / qg-size=16 / aq-strength=0.90 / cbqpoffs=-2 / crqpoffs=-2 / rd=4 / psy-rd=1.00 / rdoq-level=2 / psy-rdoq=5.00 / log2-max-poc-lsb=8 / limit-tu=0 / no-rd-refine / signhide / deblock=-1:-1 / no-sao / no-sao-non-deblock / b-pyramid / cutree / no-intra-refresh / rc=crf / crf=20.0 / qcomp=0.70 / qpmin=0 / qpmax=69 / qpstep=4 / ipratio=1.40 / pbratio=1.30

  33. Language : English

  34. Default : Yes

  35. Forced : No

  36. Color range : Limited

  37. Color primaries : BT.709

  38. Audio #1

  39. ID : 2

  40. Format : AC-3

  41. Format/Info : Audio Coding 3

  42. Commercial name : Dolby Digital

  43. Codec ID : A_AC3

  44. Duration : 1 h 47 min

  45. Bit rate mode : Constant

  46. Bit rate : 640 kb/s

  47. Channel(s) : 6 channels

  48. Channel layout : L R C LFE Ls Rs

  49. Sampling rate : 48.0 kHz

  50. Frame rate : 31.250 FPS (1536 SPF)

  51. Compression mode : Lossy

  52. Stream size : 491 MiB (10%)

  53. Language : English

  54. Service kind : Complete Main

  55. Default : Yes

  56. Forced : No

  57. Audio #2

  58. ID : 3

  59. Format : AC-3

  60. Format/Info : Audio Coding 3

  61. Commercial name : Dolby Digital

  62. Codec ID : A_AC3

  63. Duration : 1 h 47 min

  64. Bit rate mode : Constant

  65. Bit rate : 192 kb/s

  66. Channel(s) : 2 channels

  67. Channel layout : L R

  68. Sampling rate : 48.0 kHz

  69. Frame rate : 31.250 FPS (1536 SPF)

  70. Compression mode : Lossy

  71. Stream size : 147 MiB (3%)

  72. Language : Chinese

  73. Service kind : Complete Main

  74. Default : No

  75. Forced : No

  76. Text #1

  77. ID : 4

  78. Format : PGS

  79. Muxing mode : zlib

  80. Codec ID : S_HDMV/PGS

  81. Codec ID/Info : Picture based subtitle format used on BDs/HD-DVDs

  82. Duration : 1 h 36 min

  83. Bit rate : 18.5 kb/s

  84. Count of elements : 2997

  85. Stream size : 12.8 MiB (0%)

  86. Language : English

  87. Default : Yes

  88. Forced : No

  89. Text #2

  90. ID : 5

  91. Format : PGS

  92. Muxing mode : zlib

  93. Codec ID : S_HDMV/PGS

  94. Codec ID/Info : Picture based subtitle format used on BDs/HD-DVDs

  95. Duration : 1 h 38 min

  96. Bit rate : 26.5 kb/s

  97. Count of elements : 2851

  98. Stream size : 18.6 MiB (0%)

  99. Language : Chinese

  100. Default : No

  101. Forced : No

  102. Text #3

  103. ID : 6

  104. Format : PGS

  105. Muxing mode : zlib

  106. Codec ID : S_HDMV/PGS

  107. Codec ID/Info : Picture based subtitle format used on BDs/HD-DVDs

  108. Duration : 1 h 38 min

  109. Bit rate : 27.3 kb/s

  110. Count of elements : 2851

  111. Stream size : 19.2 MiB (0%)

  112. Language : Chinese

  113. Default : No

  114. Forced : No

  115. Text #4

  116. ID : 7

  117. Format : PGS

  118. Muxing mode : zlib

  119. Codec ID : S_HDMV/PGS

  120. Codec ID/Info : Picture based subtitle format used on BDs/HD-DVDs

  121. Duration : 1 h 38 min

  122. Bit rate : 28.6 kb/s

  123. Count of elements : 2851

  124. Stream size : 20.2 MiB (0%)

  125. Language : Chinese

  126. Default : No

  127. Forced : No

  128. Text #5

  129. ID : 8

  130. Format : PGS

  131. Muxing mode : zlib

  132. Codec ID : S_HDMV/PGS

  133. Codec ID/Info : Picture based subtitle format used on BDs/HD-DVDs

  134. Duration : 1 h 38 min

  135. Bit rate : 29.4 kb/s

  136. Count of elements : 2851

  137. Stream size : 20.7 MiB (0%)

  138. Language : Chinese

  139. Default : No

  140. Forced : No

  141. Menu

  142. 00:00:00.000 : en:Chapter 01

  143. 00:07:01.212 : en:Chapter 02

  144. 00:12:32.626 : en:Chapter 03

  145. 00:19:34.464 : en:Chapter 04

  146. 00:27:17.218 : en:Chapter 05

  147. 00:34:52.632 : en:Chapter 06

  148. 00:44:29.833 : en:Chapter 07

  149. 00:48:04.923 : en:Chapter 08

  150. 00:53:47.599 : en:Chapter 09

  151. 00:58:05.148 : en:Chapter 10

  152. 01:05:44.607 : en:Chapter 11

  153. 01:10:06.869 : en:Chapter 12

  154. 01:16:02.933 : en:Chapter 13

  155. 01:20:44.381 : en:Chapter 14

  156. 01:27:37.668 : en:Chapter 15

  157. 01:31:37.825 : en:Chapter 16


复制代码



文件下载


除非特别注明,本文『深海浩劫[国英多音轨/中英字幕].Deepwater.Horizont.2016.BluRay.1080p.x265.10bit.2Audio-MiniHD 4.82GB』来源于互联网机器人自动抓取,非本站原创。 浮游电影网不对本文拥有版权,如有侵犯,请联系邮箱:fuyouu#yandex.com[#换成@]投诉。我们会在15个工作日内删除。 但烦请转载时请标明出处:“本文转载于『浮游电影网』,原文地址:https://www.fuyouu.com/22135.html

评论吧骚年!

发表你的见解   

昵称*

E-mail*(建议输入,以便收到博主回复的提示邮件)

验证码*

您可以使用eMule或eMule Mod(Windows)、aMule(Win、Linux、Mac)等软件下载eD2k链接。。
eMule收藏集(.emulecollection)文件是您选中的所有链接的列表文件。eMule可以直接下载它们。
按住SHIFT键选择可以选中多个选择框。
可用文件名和大小选择器来选择文件。
文件名选择器帮您根据文件名称或后缀来选择文件。不分大小写。
符号使用:
和:空格( )、+
不包含:-
或:|
转义:一对英文引号("");
匹配开头:^
匹配结尾:$
例如:
选中所有名称中包含有“eMule”或“0.49c”字眼,但不包含有“exe”字眼的:emule|0.49c -exe
选中所有名称的开头是“eMule”,结尾是“0.49c”的:^emule 0.49c$
选中所有名称中带有“eMule 0.49c”的(必须是“eMule 0.49c”,中间没有别的字符,不能是“eMule fake 0.49c”),需要转义:"emule 0.49c"
大小选择器帮您根据文件大小选择文件。