当前位置: 首页 >> 国产电影 >> 青面修罗[国语配音/中文字幕].Song.of.the.Assassins.2022.2160p.WEB-DL.H265.AAC-CTRLWEB 3.43GB >> 正文

青面修罗[国语配音/中文字幕].Song.of.the.Assassins.2022.2160p.WEB-DL.H265.AAC-CTRLWEB 3.43GB

2022年05月13日 23:53:17     电影发布:来源于网络     电影分类:国产电影     评论(0)    

◎译 名 青面修罗 / 刺局电影 / 刺局 / Song of the Assassins

◎年 代 2022

◎产 地 中国大陆 / 中国香港

◎类 别 剧情 / 动作 / 悬疑

◎语 言 汉语普通话

◎上映日期 2022-05-13(中国大陆网络)

◎IMDb链接 https://www.imdb.com/title/tt8032932/

◎豆瓣链接 https://movie.douban.com/subject/26926448/

◎片 长 90分钟

◎导 演 李仁港 Daniel Lee (id:1275585)

◎编 剧 李仁港 Daniel Lee (id:1275585)

杨惠晴 Ravine Yang (id:1423442)

◎演 员 冯绍峰 Shaofeng Feng (id:1275721)

胡军 Jun Hu (id:1032540)

金晨 Gina Jin (id:1315103)

王庆祥 Qingxiang Wang (id:1300406)

吕良伟 Ray Lui (id:1037706)

曾江 Kenneth Tsang (id:1275451)

高捷 Jack Kao (id:1276076)

吴岱融 Hugo Ng Doi-Yung (id:1275524)

盛鉴 Chien Sheng (id:1316991)

徐少强 Norman Chu (id:1048469)

修庆 Qing Xiu (id:1314476)

杜玉明 Yuming Du (id:1317188)

袁祥仁 Cheung-Yan Yuen (id:1301574)

闵正 Zheng Min (id:1471457)

马小茜 Xiaoqian Ma (id:1351721)

王彦懿 Lele Wang (id:1335316)

李沛泽 Peize Li (id:1412432)

籍翀 Chong Ji (id:1383709)

张浩 Hao Zhang (id:1387705)

卜冠今 Guanjin Bu (id:1362971)

侯勇 Yong Hou (id:1274228)

屈菁菁 Jingjing Qu (id:1316540)

邬靖靖 Jingjing Wu (id:1317916)

曲哲明 Zheming Qu (id:1355411)

洪天照 Sammy Hung Tin Chiu (id:1316889)

徐歆雨 Xinyu Xu (id:1426572)

曾佩珊 Susanna Tsang (id:1418333)

李仁港 Daniel Lee (id:1275585)

张理忠 Lizhong Zhang (id:1393214)

李艳美 Amy (id:1440949)

杨惠晴 Ravine Yang (id:1423442)

彭瑛朝 Penny (id:1430873)

◎简 介

影片讲述的是在古代刺客组织离恨谷中,一位少年侠客如何成为天下第一刺客的惊险故事。

  1. ##### MediaInfo ######

  2. General

  3. Complete name : Song.of.the.Assassins.2022.2160p.WEB-DL.H265.AAC-CTRLWEB.mp4

  4. Format : MPEG-4

  5. Format profile : Base Media

  6. Codec ID : isom (isom/iso2/mp41)

  7. File size : 3.43 GiB

  8. Duration : 1 h 57 min

  9. Overall bit rate mode : Variable

  10. Overall bit rate : 4 167 kb/s

  11. Writing application : Lavf59.16.100

  12. Video

  13. ID : 1

  14. Format : HEVC

  15. Format/Info : High Efficiency Video Coding

  16. Format profile : Main [email protected]@Main

  17. Codec ID : hev1

  18. Codec ID/Info : High Efficiency Video Coding

  19. Duration : 1 h 57 min

  20. Bit rate : 4 035 kb/s

  21. Width : 3 840 pixels

  22. Height : 1 604 pixels

  23. Display aspect ratio : 2.40:1

  24. Original display aspect ratio : 2.40:1

  25. Frame rate mode : Constant

  26. Frame rate : 24.000 FPS

  27. Color space : YUV

  28. Chroma subsampling : 4:2:0

  29. Bit depth : 10 bits

  30. Bits/(Pixel*Frame) : 0.027

  31. Stream size : 3.32 GiB (97%)

  32. Color range : Limited

  33. Color primaries : BT.709

  34. Transfer characteristics : BT.709

  35. Matrix coefficients : BT.709

  36. Codec configuration box : hvcC

  37. Audio

  38. ID : 2

  39. Format : AAC LC

  40. Format/Info : Advanced Audio Codec Low Complexity

  41. Codec ID : mp4a-40-2

  42. Duration : 1 h 57 min

  43. Bit rate mode : Variable

  44. Bit rate : 126 kb/s

  45. Maximum bit rate : 128 kb/s / 128 kb/s

  46. Channel(s) : 2 channels

  47. Channel layout : L R

  48. Sampling rate : 44.1 kHz

  49. Frame rate : 43.066 FPS (1024 SPF)

  50. Compression mode : Lossy

  51. Stream size : 106 MiB (3%)

  52. Default : Yes

  53. Alternate group : 1


复制代码



文件下载


除非特别注明,本文『青面修罗[国语配音/中文字幕].Song.of.the.Assassins.2022.2160p.WEB-DL.H265.AAC-CTRLWEB 3.43GB』来源于互联网机器人自动抓取,非本站原创。 浮游电影网不对本文拥有版权,如有侵犯,请联系邮箱:fuyouu#yandex.com[#换成@]投诉。我们会在15个工作日内删除。 但烦请转载时请标明出处:“本文转载于『浮游电影网』,原文地址:https://www.fuyouu.com/22133.html

评论吧骚年!

发表你的见解   

昵称*

E-mail*(建议输入,以便收到博主回复的提示邮件)

验证码*

您可以使用eMule或eMule Mod(Windows)、aMule(Win、Linux、Mac)等软件下载eD2k链接。。
eMule收藏集(.emulecollection)文件是您选中的所有链接的列表文件。eMule可以直接下载它们。
按住SHIFT键选择可以选中多个选择框。
可用文件名和大小选择器来选择文件。
文件名选择器帮您根据文件名称或后缀来选择文件。不分大小写。
符号使用:
和:空格( )、+
不包含:-
或:|
转义:一对英文引号("");
匹配开头:^
匹配结尾:$
例如:
选中所有名称中包含有“eMule”或“0.49c”字眼,但不包含有“exe”字眼的:emule|0.49c -exe
选中所有名称的开头是“eMule”,结尾是“0.49c”的:^emule 0.49c$
选中所有名称中带有“eMule 0.49c”的(必须是“eMule 0.49c”,中间没有别的字符,不能是“eMule fake 0.49c”),需要转义:"emule 0.49c"
大小选择器帮您根据文件大小选择文件。