当前位置: 首页 >> 海外电影 >> 海蒂和爷爷[中文字幕].Heidi.2015.BluRay.1080p.x265.10bit-MiniHD 5.31GB >> 正文

海蒂和爷爷[中文字幕].Heidi.2015.BluRay.1080p.x265.10bit-MiniHD 5.31GB

2022年05月13日 23:50:09     电影发布:来源于网络     电影分类:海外电影     评论(0)    

◎译 名 海蒂和爷爷 / 飘零燕(港) / 海蒂 / 阿尔卑斯山少女海蒂

◎片 名 Heidi

◎年 代 2015

◎产 地 德国 / 瑞士

◎类 别 剧情 / 家庭 / 冒险

◎语 言 南非语 / 德语 / 瑞士德语

◎上映日期 2019-05-16(中国大陆) / 2015-12-10(德国)

◎IMDb链接 https://www.imdb.com/title/tt3700392/

◎豆瓣评分 9.3/10 (488479人评价)

◎豆瓣链接 https://movie.douban.com/subject/25958717/

◎片 长 111分钟

◎导 演 阿兰·葛斯彭纳 Alain Gsponer (id:1033402)

◎编 剧 约翰娜·施皮里 Johanna Spyri (id:1019724)

佩特拉·比翁迪娜·沃尔普 Petra Biondina Volpe (id:1335044)

◎演 员 阿努克·斯特芬 Anuk Steffen (id:1359966)

布鲁诺·冈茨 Bruno Ganz (id:1000247)

昆林·艾格匹 Quirin Agrippi (id:1360719)

安娜·申茨 Anna Schinz (id:1360716)

伊莎贝尔·奥特曼 Isabelle Ottmann (id:1360723)

莉莲·奈福 Lilian Naef (id:1360717)

彼得·杰克林 Peter Jecklin (id:1211659)

克里斯托夫·高格勒 Christoph Gaugler (id:1360718)

丽贝卡·因德穆 Rebecca Indermaur (id:1360720)

莫妮卡·古布瑟 Monica Gubser (id:1360721)

阿瑟·比勒 Arthur Bühler (id:1360722)

玛丽埃塔·耶米 Marietta Jemmi (id:1344430)

彼得·洛迈尔 Peter Lohmeyer (id:1007205)

卡塔琳娜·舒特勒 Katharina Schüttler (id:1028596)

杰拉·哈斯 Jella Haase (id:1340874)

迈克尔·克兰茨 Michael Kranz (id:1377994)

劳拉·帕克 Laura Parker (id:1377995)

马库斯·赫林 Markus Hering (id:1100644)

马克西姆·梅米特 Maxim Mehmet (id:1009648)

汉娜洛蕾·赫格 Hannelore Hoger (id:1092541)

◎简 介

孤儿海蒂(阿努克·斯特芬 饰)被姨母迪蒂(安娜·希恩斯 饰)送上了阿尔卑斯山,与远离小镇独居于高山的祖父(布鲁诺·甘茨 饰)一同生活。活泼的海蒂在这里如鱼得水,不仅收获了羊倌彼得(奎林·阿格里皮 饰)的友情和孤僻祖父的亲情,还与山下彼得的家人打成一片。一天,海蒂同彼得在山上放羊,姨母突然出现,连哄带骗将海蒂卖到法兰克福的泽塞曼家。从此,目不识A的海蒂成为了小姐克拉拉(伊莎贝尔·奥特曼 饰)的伴读。克拉拉幼年丧母,大病一场再不能站立,只能被困在豪宅中与轮椅相伴。父亲(马克西姆·梅米特 饰)常年在外很少回家,寂寞的克拉拉把海蒂当成了救命稻草。海蒂能适应泽塞曼家的新生活吗?远在天边的祖父和彼得还能再见吗?克拉拉的腿还有好起来的希望吗?

◎获奖情况 (共1项)

第3届豆瓣电影年度榜单 (2016)

年度冷门佳片

  1. ##### MediaInfo ######

  2. General

  3. Unique ID : 178167039744875051810354708143266897959 (0x8609B9440F1D5F79936E3C9595A4A027)

  4. Complete name : Heidi.2015.BluRay.1080p.x265.10bit-MiniHD.mkv

  5. Format : Matroska

  6. Format version : Version 4

  7. File size : 5.31 GiB

  8. Duration : 1 h 50 min

  9. Overall bit rate : 6 854 kb/s

  10. Encoded date : UTC 2016-09-09 11:03:46

  11. Writing application : mkvmerge v9.2.0 ('Photograph') 32bit

  12. Writing library : libebml v1.3.3 + libmatroska v1.4.4

  13. Video

  14. ID : 1

  15. Format : HEVC

  16. Format/Info : High Efficiency Video Coding

  17. Format profile : Main [email protected]@Main

  18. Codec ID : V_MPEGH/ISO/HEVC

  19. Duration : 1 h 50 min

  20. Bit rate : 6 077 kb/s

  21. Width : 1 920 pixels

  22. Height : 804 pixels

  23. Display aspect ratio : 2.40:1

  24. Frame rate mode : Constant

  25. Frame rate : 24.000 FPS

  26. Color space : YUV

  27. Chroma subsampling : 4:2:0

  28. Bit depth : 10 bits

  29. Bits/(Pixel*Frame) : 0.164

  30. Stream size : 4.71 GiB (89%)

  31. Writing library : x265 2.0+10-5a0e139e2938:[Windows][GCC 6.1.0][64 bit] 10bit

  32. Encoding settings : wpp / ctu=32 / min-cu-size=8 / max-tu-size=16 / tu-intra-depth=2 / tu-inter-depth=2 / me=3 / subme=5 / merange=25 / rect / no-amp / max-merge=3 / temporal-mvp / no-early-skip / rskip / rdpenalty=1 / no-tskip / no-tskip-fast / no-strong-intra-smoothing / no-lossless / no-cu-lossless / no-constrained-intra / no-fast-intra / no-open-gop / no-temporal-layers / interlace=0 / keyint=360 / min-keyint=1 / NTMzNTQ=uuDQuD2mJt9fsCf / scenecut=40 / rc-lookahead=60 / lookahead-slices=4 / bframes=8 / bframe-bias=0 / b-adapt=2 / ref=5 / limit-refs=3 / limit-modes / weightp / weightb / aq-mode=3 / qg-size=16 / aq-strength=0.90 / cbqpoffs=-3 / crqpoffs=-3 / rd=4 / psy-rd=1.00 / rdoq-level=2 / psy-rdoq=5.00 / no-rd-refine / signhide / deblock=-1:-1 / no-sao / no-sao-non-deblock / b-pyramid / cutree / no-intra-refresh / rc=crf / crf=20.0 / qcomp=0.65 / qpmin=0 / qpmax=69 / qpstep=4 / ipratio=1.40 / pbratio=1.30

  33. Default : Yes

  34. Forced : No

  35. Color range : Limited

  36. Color primaries : BT.709

  37. Audio

  38. ID : 2

  39. Format : AC-3

  40. Format/Info : Audio Coding 3

  41. Commercial name : Dolby Digital

  42. Codec ID : A_AC3

  43. Duration : 1 h 50 min

  44. Bit rate mode : Constant

  45. Bit rate : 640 kb/s

  46. Channel(s) : 6 channels

  47. Channel layout : L R C LFE Ls Rs

  48. Sampling rate : 48.0 kHz

  49. Frame rate : 31.250 FPS (1536 SPF)

  50. Compression mode : Lossy

  51. Stream size : 507 MiB (9%)

  52. Language : German

  53. Service kind : Complete Main

  54. Default : Yes

  55. Forced : No

  56. Text #1

  57. ID : 3

  58. Format : PGS

  59. Muxing mode : zlib

  60. Codec ID : S_HDMV/PGS

  61. Codec ID/Info : Picture based subtitle format used on BDs/HD-DVDs

  62. Language : English

  63. Default : Yes

  64. Forced : No

  65. Text #2

  66. ID : 4

  67. Format : PGS

  68. Muxing mode : zlib

  69. Codec ID : S_HDMV/PGS

  70. Codec ID/Info : Picture based subtitle format used on BDs/HD-DVDs

  71. Language : Chinese

  72. Default : No

  73. Forced : No

  74. Text #3

  75. ID : 5

  76. Format : PGS

  77. Muxing mode : zlib

  78. Codec ID : S_HDMV/PGS

  79. Codec ID/Info : Picture based subtitle format used on BDs/HD-DVDs

  80. Language : Chinese

  81. Default : No

  82. Forced : No

  83. Text #4

  84. ID : 6

  85. Format : PGS

  86. Muxing mode : zlib

  87. Codec ID : S_HDMV/PGS

  88. Codec ID/Info : Picture based subtitle format used on BDs/HD-DVDs

  89. Language : Chinese

  90. Default : No

  91. Forced : No

  92. Text #5

  93. ID : 7

  94. Format : PGS

  95. Muxing mode : zlib

  96. Codec ID : S_HDMV/PGS

  97. Codec ID/Info : Picture based subtitle format used on BDs/HD-DVDs

  98. Language : Chinese

  99. Default : No

  100. Forced : No

  101. Menu

  102. 00:00:00.000 : en:Chapter 01

  103. 00:10:13.791 : en:Chapter 02

  104. 00:19:48.083 : en:Chapter 03

  105. 00:30:40.750 : en:Chapter 04

  106. 00:42:06.375 : en:Chapter 05

  107. 00:49:25.250 : en:Chapter 06

  108. 00:59:43.375 : en:Chapter 07

  109. 01:11:07.458 : en:Chapter 08

  110. 01:20:23.041 : en:Chapter 09

  111. 01:30:42.833 : en:Chapter 10

  112. 01:41:53.833 : en:Chapter 11

  113. 01:44:55.375 : en:Chapter 12


复制代码




文件下载


除非特别注明,本文『海蒂和爷爷[中文字幕].Heidi.2015.BluRay.1080p.x265.10bit-MiniHD 5.31GB』来源于互联网机器人自动抓取,非本站原创。 浮游电影网不对本文拥有版权,如有侵犯,请联系邮箱:fuyouu#yandex.com[#换成@]投诉。我们会在15个工作日内删除。 但烦请转载时请标明出处:“本文转载于『浮游电影网』,原文地址:https://www.fuyouu.com/22130.html

评论吧骚年!

发表你的见解   

昵称*

E-mail*(建议输入,以便收到博主回复的提示邮件)

验证码*

您可以使用eMule或eMule Mod(Windows)、aMule(Win、Linux、Mac)等软件下载eD2k链接。。
eMule收藏集(.emulecollection)文件是您选中的所有链接的列表文件。eMule可以直接下载它们。
按住SHIFT键选择可以选中多个选择框。
可用文件名和大小选择器来选择文件。
文件名选择器帮您根据文件名称或后缀来选择文件。不分大小写。
符号使用:
和:空格( )、+
不包含:-
或:|
转义:一对英文引号("");
匹配开头:^
匹配结尾:$
例如:
选中所有名称中包含有“eMule”或“0.49c”字眼,但不包含有“exe”字眼的:emule|0.49c -exe
选中所有名称的开头是“eMule”,结尾是“0.49c”的:^emule 0.49c$
选中所有名称中带有“eMule 0.49c”的(必须是“eMule 0.49c”,中间没有别的字符,不能是“eMule fake 0.49c”),需要转义:"emule 0.49c"
大小选择器帮您根据文件大小选择文件。