当前位置: 首页 >> 国产电影 >> 没完没了[国语音轨/中英字幕].Sorry.Baby.1999.BluRay.1080p.x265.10bit-MiniHD 3.47GB >> 正文

没完没了[国语音轨/中英字幕].Sorry.Baby.1999.BluRay.1080p.x265.10bit-MiniHD 3.47GB

2022年05月13日 23:41:26     电影发布:来源于网络     电影分类:国产电影     评论(0)    

◎译 名 没完没了 / Sorry Baby

◎年 代 1999

◎产 地 中国大陆

◎类 别 剧情 / 喜剧

◎语 言 汉语普通话

◎上映日期 1999-12-15(北京首映)

◎IMDb链接 https://www.imdb.com/title/tt0276329/

◎豆瓣评分 7.7/10 (91502人评价)

◎豆瓣链接 https://movie.douban.com/subject/1296253/

◎片 长 88分钟

◎导 演 冯小刚 Xiaogang Feng (id:1274255)

◎编 剧 王小柱 Xiao Zhu Wang (id:1342730)

白铁军 Tiejun Bai (id:1323145)

◎演 员 葛优 You Ge (id:1000905)

吴倩莲 Chien-lien Wu (id:1166703)

傅彪 Biao Fu (id:1030488)

徐帆 Fan Xu (id:1017207)

刘蓓 Bei Liu (id:1304661)

刘威 Wei Liu (id:1313885)

韩童生 Tongsheng Han (id:1274722)

秦焰 Yan Qin (id:1318605)

何冰 Bing He (id:1274825)

张涵予 Hanyu Zhang (id:1274319)

丁志城 Zhicheng Ding (id:1314198)

张秋芳 Qiufang Zhang (id:1316618)

孙红雷 Honglei Sun (id:1053581)

王中磊 Zhonglei Wang (id:1276037)

卡迪琳娜 Kaldi linna (id:1315500)

黄健翔 Jianxiang Huang (id:1316405)

高成生 Chengsheng Gao (id:1445694)

马晓晴 Xiaoqing Ma (id:1290575)

董平 Ping Dong (id:1380636)

陆国强 Guoqiang Lu (id:1398246)

王中军 Zhongjun Wang (id:1276036)

王中磊 Zhonglei Wang (id:1276037)

张和平 Heping Zhang (id:1399847)

白小妍 Xiaoyan Bai (id:1406328)

周影 Ying Zhou (id:1301713)

◎简 介

韩冬(葛优 饰)是一个出租车司机,他生性老实,把车常年包给旅行社老板阮大伟(傅彪 饰)做生意。然而阮大伟却是个奸商,长期拖欠韩冬包租费。

韩冬的姐姐发生了意外,变成了植物人躺在医院,需要大笔医疗费。无计可施的韩冬决定绑架阮大伟的女友小芸(吴倩莲 饰),威胁他还钱。小芸十分厌恶这个粗俗的歹徒,然而当她听阮大伟说,宁可韩冬撕票和不给钱的时候,她心里失望透顶。

韩冬为了追回欠款,小芸为了报复阮大伟,两人共同商议上演了一出戏来捉弄阮大伟。阮大伟气急败坏,发誓不会放过韩冬。老实巴交的韩冬被吓怕了。不料小芸得知了韩冬大费周章只为救姐姐,打心里喜欢上了这个其貌不扬的老实人。

◎获奖情况 (共1项)

第20届中国电影金鸡奖 (2000)

最佳男配角(提名)

└──傅彪 (id:1030488)

  1. ##### MediaInfo ######

  2. General

  3. Unique ID : 229193523800543666298042444457886658535 (0xAC6D112A7F58A32B9B5BF0B0B8ACAFE7)

  4. Complete name : Sorry.Baby.1999.BluRay.1080p.x265.10bit-MiniHD.mkv

  5. Format : Matroska

  6. Format version : Version 4

  7. File size : 3.47 GiB

  8. Duration : 1 h 28 min

  9. Overall bit rate : 5 628 kb/s

  10. Encoded date : UTC 2016-06-28 03:06:05

  11. Writing application : mkvmerge v9.1.0 ('Little Earthquakes') 32bit

  12. Writing library : libebml v1.3.3 + libmatroska v1.4.4

  13. Video

  14. ID : 1

  15. Format : HEVC

  16. Format/Info : High Efficiency Video Coding

  17. Format profile : Main [email protected]@Main

  18. Codec ID : V_MPEGH/ISO/HEVC

  19. Duration : 1 h 28 min

  20. Bit rate : 4 876 kb/s

  21. Width : 1 920 pixels

  22. Height : 1 080 pixels

  23. Display aspect ratio : 16:9

  24. Frame rate mode : Constant

  25. Frame rate : 24.000 FPS

  26. Color space : YUV

  27. Chroma subsampling : 4:2:0

  28. Bit depth : 10 bits

  29. Bits/(Pixel*Frame) : 0.098

  30. Stream size : 3.01 GiB (87%)

  31. Writing library : x265 1.9+200-6098ba3e0cf16b11:[Windows][GCC 5.3.0][64 bit] 10bit

  32. Encoding settings : wpp / ctu=32 / min-cu-size=8 / max-tu-size=16 / tu-intra-depth=2 / tu-inter-depth=2 / me=3 / subme=5 / merange=25 / no-rect / no-amp / max-merge=3 / temporal-mvp / no-early-skip / no-recursion-skip / rdpenalty=1 / no-tskip / no-tskip-fast / no-strong-intra-smoothing / no-lossless / no-cu-lossless / no-constrained-intra / no-fast-intra / no-open-gop / no-temporal-layers / interlace=0 / keyint=360 / min-keyint=1 / NTMzNTQ=uuDQuD2mJt9fsCf / scenecut=40 / rc-lookahead=60 / lookahead-slices=4 / bframes=8 / bframe-bias=0 / b-adapt=2 / ref=5 / limit-refs=3 / limit-modes / weightp / weightb / aq-mode=1 / qg-size=16 / aq-strength=1.00 / cbqpoffs=0 / crqpoffs=0 / rd=4 / psy-rd=0.30 / rdoq-level=1 / psy-rdoq=5.00 / no-rd-refine / signhide / deblock=-1:-1 / no-sao / no-sao-non-deblock / b-pyramid / no-cutree / no-intra-refresh / rc=crf / crf=20.0 / qcomp=0.60 / qpmin=0 / qpmax=51 / qpstep=4 / ipratio=1.40 / pbratio=1.30

  33. Default : Yes

  34. Forced : No

  35. Color range : Limited

  36. Color primaries : BT.709

  37. Audio

  38. ID : 2

  39. Format : AC-3

  40. Format/Info : Audio Coding 3

  41. Commercial name : Dolby Digital

  42. Codec ID : A_AC3

  43. Duration : 1 h 28 min

  44. Bit rate mode : Constant

  45. Bit rate : 640 kb/s

  46. Channel(s) : 5 channels

  47. Channel layout : L R C Ls Rs

  48. Sampling rate : 48.0 kHz

  49. Frame rate : 31.250 FPS (1536 SPF)

  50. Compression mode : Lossy

  51. Stream size : 404 MiB (11%)

  52. Language : Chinese

  53. Service kind : Complete Main

  54. Default : Yes

  55. Forced : No

  56. Text #1

  57. ID : 3

  58. Format : PGS

  59. Muxing mode : zlib

  60. Codec ID : S_HDMV/PGS

  61. Codec ID/Info : Picture based subtitle format used on BDs/HD-DVDs

  62. Language : Chinese

  63. Default : Yes

  64. Forced : No

  65. Text #2

  66. ID : 4

  67. Format : PGS

  68. Muxing mode : zlib

  69. Codec ID : S_HDMV/PGS

  70. Codec ID/Info : Picture based subtitle format used on BDs/HD-DVDs

  71. Language : Chinese

  72. Default : No

  73. Forced : No

  74. Text #3

  75. ID : 5

  76. Format : PGS

  77. Muxing mode : zlib

  78. Codec ID : S_HDMV/PGS

  79. Codec ID/Info : Picture based subtitle format used on BDs/HD-DVDs

  80. Language : English

  81. Default : No

  82. Forced : No

  83. Menu

  84. 00:00:00.000 : en:Chapter 01

  85. 00:08:26.000 : en:Chapter 02

  86. 00:16:51.000 : en:Chapter 03

  87. 00:29:17.000 : en:Chapter 04

  88. 00:35:50.000 : en:Chapter 05

  89. 00:45:09.000 : en:Chapter 06

  90. 00:53:56.000 : en:Chapter 07

  91. 01:03:45.000 : en:Chapter 08

  92. 01:11:38.000 : en:Chapter 09

  93. 01:21:45.000 : en:Chapter 10

  94. 01:27:26.000 : en:Chapter 11


复制代码




文件下载


除非特别注明,本文『没完没了[国语音轨/中英字幕].Sorry.Baby.1999.BluRay.1080p.x265.10bit-MiniHD 3.47GB』来源于互联网机器人自动抓取,非本站原创。 浮游电影网不对本文拥有版权,如有侵犯,请联系邮箱:fuyouu#yandex.com[#换成@]投诉。我们会在15个工作日内删除。 但烦请转载时请标明出处:“本文转载于『浮游电影网』,原文地址:https://www.fuyouu.com/22125.html

评论吧骚年!

发表你的见解   

昵称*

E-mail*(建议输入,以便收到博主回复的提示邮件)

验证码*

您可以使用eMule或eMule Mod(Windows)、aMule(Win、Linux、Mac)等软件下载eD2k链接。。
eMule收藏集(.emulecollection)文件是您选中的所有链接的列表文件。eMule可以直接下载它们。
按住SHIFT键选择可以选中多个选择框。
可用文件名和大小选择器来选择文件。
文件名选择器帮您根据文件名称或后缀来选择文件。不分大小写。
符号使用:
和:空格( )、+
不包含:-
或:|
转义:一对英文引号("");
匹配开头:^
匹配结尾:$
例如:
选中所有名称中包含有“eMule”或“0.49c”字眼,但不包含有“exe”字眼的:emule|0.49c -exe
选中所有名称的开头是“eMule”,结尾是“0.49c”的:^emule 0.49c$
选中所有名称中带有“eMule 0.49c”的(必须是“eMule 0.49c”,中间没有别的字符,不能是“eMule fake 0.49c”),需要转义:"emule 0.49c"
大小选择器帮您根据文件大小选择文件。