当前位置: 首页 >> 国产电影 >> 狄仁杰之神都龙王[国语配音/中文字幕].Young.Detective.Dee.Rise.of.the.Sea.Dragon.2013.2160p.WEB-DL.H265.AAC-CTRLWEB 11 >> 正文

狄仁杰之神都龙王[国语配音/中文字幕].Young.Detective.Dee.Rise.of.the.Sea.Dragon.2013.2160p.WEB-DL.H265.AAC-CTRLWEB 11

2022年05月13日 23:40:19     电影发布:来源于网络     电影分类:国产电影     评论(0)    

◎译 名 狄仁杰之神都龙王 / 狄仁杰前传 / Young Detective Dee: Rise of the Sea Dragon

◎年 代 2013

◎产 地 中国大陆 / 中国香港

◎类 别 动作 / 悬疑 / 古装

◎语 言 汉语普通话

◎上映日期 2013-09-28(中国大陆)

◎IMDb链接 https://www.imdb.com/title/tt2992146/

◎豆瓣评分 6.5/10 (206199人评价)

◎豆瓣链接 https://movie.douban.com/subject/5996801/

◎片 长 133分钟

◎导 演 徐克 Hark Tsui (id:1007152)

◎编 剧 张家鲁 Chia-lu Chang (id:1274308)

徐克 Hark Tsui (id:1007152)

陈国富 Kuo-fu Chen (id:1075862)

◎演 员 赵又廷 Mark Chao (id:1274608)

冯绍峰 Shaofeng Feng (id:1275721)

林更新 Gengxin Lin (id:1314535)

金汎 Beom Kim (id:1274845)

杨颖 Angelababy (id:1033011)

刘嘉玲 Carina Lau (id:1036905)

胡东 Dong Hu (id:1315368)

马京京 Jingjing Ma (id:1328097)

盛鉴 Chien Sheng (id:1316991)

林朝绪 Chao-hsu Lin (id:1334242)

陈坤 Kun Chen (id:1053618)

言杰 Jie Yan (id:1334288)

汪汐潮 Xichao Wang (id:1326518)

陈国义 Guoyi Chen (id:1390435)

呈让 Cheng Rang (id:1348503)

张山 Shan Zhang (id:1313545)

铁男 Nan Tie (id:1390434)

周婷 Ting Zhou (id:1398378)

张浩 Hao Zhang (id:1420246)

郭辉 Hui Guo (id:1348505)

张优 You Zhang (id:1348506)

徐小琴 Xiaoqin Xu (id:1350010)

杨景诚 Jingcheng Yang (id:1391522)

许建 Jian Xu (id:1359626)

杨庭恺 Bernard Yang (id:1443208)

詹德发 James Tsim Tak-Fat (id:1417076)

任雅静 Léa Ren (id:1383828)

川井宪次 Kenji Kawai (id:1048442)

蔡崇晖 Johnny Choi (id:1318724)

缪健辉 Tony Miu (id:1378532)

于柏杨 Boyang Yu (id:1352368)

李坤龙 Kwan Lung Lee (id:1349085)

麦国强 Kenneth Mak (id:1290782)

余家安 Bruce Yu (id:1301555)

黄迪 Marina Huang (id:1427970)

赵楠 Nan Zhao (id:1325307)

曾景祥 Kinson Tsang (id:1299575)

李庸基 Yong-Gi Lee (id:1314650)

金钟铉 Jonghyun Jin (id:1386949)

朴英秀 Young-soo Park (id:1386957)

赵力 Li Zhao (id:1446262)

黄海 Hai Huang (id:1401245)

◎简 介

唐朝麟德年间,唐高宗(盛鉴 饰)与武则天(刘嘉玲 饰)强硬派出大军远征,谁知舰队在大海中遇袭,遭到重挫。该事件震惊洛阳,都城百姓狂热祭拜龙王,缭乱众生的“花魁”银睿姬(杨颖 饰)更惹来各方势力觊觎。狄仁杰(赵又廷 饰)奉武后之命调查龙王一案,偏巧卷入绑架银睿姬的案件之中。在与劫匪搏杀过程中,狄仁杰遭遇亦敌亦友的大理寺卿尉迟真金(冯绍峰 饰),遂被对方投入大牢。银睿姬一案内龙王身影再现,使洛阳上空更添一道疑云。狱中狄仁杰凭借缜密推理博取回纥医工沙陀忠(林更新 饰)的信任,逃出大牢同查龙王真相。

两起案件错综复杂,相互纠缠,引向全然未知的方向……

◎获奖情况 (共26项)

第51届台北金马影展 (2014)

金马奖 最佳美术设计(提名)

└──麦国强 (id:1290782)

金马奖 最佳造型设计(提名)

金马奖 最佳动作设计(提名)

金马奖 最佳原创配乐(提名)

└──川井宪次 (id:1048442)

金马奖 最佳视觉效果(提名)

第33届香港电影金像奖 (2014)

最佳女配角(提名)

└──刘嘉玲 (id:1036905)

最佳新演员(提名)

└──林更新 (id:1314535)

最佳美术指导(提名)

└──麦国强 (id:1290782)

最佳服装造型设计(提名)

最佳动作设计(提名)

└──元彬 (id:1278657)

最佳原创电影音乐(提名)

└──川井宪次 (id:1048442)

最佳音响效果(提名)

└──曾景祥 (id:1299575)

最佳视觉效果(提名)

└──金旭 (id:1330584)

第30届中国电影金鸡奖 (2015)

最佳录音(提名)

└──曾景祥 (id:1299575)

第8届亚洲电影大奖 (2014)

最佳美术指导(提名)

└──麦国强 (id:1290782)

最佳造型设计(提名)

最佳视觉效果(提名)

第12届中国长春电影节 (2014)

金鹿奖 最佳视觉效果奖

第14届华语电影传媒大奖 (2014)

观众票选最受瞩目男演员(提名)

└──冯绍峰 (id:1275721)

观众票选最受瞩目女演员(提名)

└──杨颖 (id:1033011)

观众票选最受瞩目表现(提名)

└──林更新 (id:1314535)

第21届北京大学生电影节 (2014)

最佳观赏效果奖

最受大学生欢迎男演员

└──冯绍峰 (id:1275721)

最受大学生欢迎女演员

└──杨颖 (id:1033011)

第4届豆瓣电影鑫像奖 (2014)

鑫豆单元 最佳导演(华语)(提名)

└──徐克 (id:1007152)

豆渣单元 最渣男演员(华语)(提名)

└──赵又廷 (id:1274608)

  1. ##### MediaInfo ######

  2. General

  3. Complete name : Young.Detective.Dee.Rise.of.the.Sea.Dragon.2013.2160p.WEB-DL.H265.AAC-CTRLWEB.mp4

  4. Format : MPEG-4

  5. Format profile : Base Media

  6. Codec ID : isom (isom/iso2/mp41)

  7. File size : 11.9 GiB

  8. Duration : 2 h 8 min

  9. Overall bit rate : 13.3 Mb/s

  10. Recorded date : 2022-05-12T10:30:58.9087191+08:00

  11. Writing application : Lavf59.16.100

  12. Video

  13. ID : 1

  14. Format : HEVC

  15. Format/Info : High Efficiency Video Coding

  16. Format profile : [email protected]@Main

  17. Codec ID : hev1

  18. Codec ID/Info : High Efficiency Video Coding

  19. Duration : 2 h 8 min

  20. Bit rate : 13.1 Mb/s

  21. Width : 3 840 pixels

  22. Height : 1 640 pixels

  23. Display aspect ratio : 2.35:1

  24. Frame rate mode : Constant

  25. Frame rate : 25.000 FPS

  26. Color space : YUV

  27. Chroma subsampling : 4:2:0

  28. Bit depth : 8 bits

  29. Bits/(Pixel*Frame) : 0.083

  30. Stream size : 11.7 GiB (99%)

  31. Codec configuration box : hvcC

  32. Audio

  33. ID : 2

  34. Format : AAC LC

  35. Format/Info : Advanced Audio Codec Low Complexity

  36. Codec ID : mp4a-40-2

  37. Duration : 2 h 8 min

  38. Bit rate mode : Constant

  39. Bit rate : 192 kb/s

  40. Channel(s) : 2 channels

  41. Channel layout : L R

  42. Sampling rate : 44.1 kHz

  43. Frame rate : 43.066 FPS (1024 SPF)

  44. Compression mode : Lossy

  45. Stream size : 174 MiB (1%)

  46. Default : Yes

  47. Alternate group : 1


复制代码



文件下载


除非特别注明,本文『狄仁杰之神都龙王[国语配音/中文字幕].Young.Detective.Dee.Rise.of.the.Sea.Dragon.2013.2160p.WEB-DL.H265.AAC-CTRLWEB 11』来源于互联网机器人自动抓取,非本站原创。 浮游电影网不对本文拥有版权,如有侵犯,请联系邮箱:fuyouu#yandex.com[#换成@]投诉。我们会在15个工作日内删除。 但烦请转载时请标明出处:“本文转载于『浮游电影网』,原文地址:https://www.fuyouu.com/22124.html

评论吧骚年!

发表你的见解   

昵称*

E-mail*(建议输入,以便收到博主回复的提示邮件)

验证码*

您可以使用eMule或eMule Mod(Windows)、aMule(Win、Linux、Mac)等软件下载eD2k链接。。
eMule收藏集(.emulecollection)文件是您选中的所有链接的列表文件。eMule可以直接下载它们。
按住SHIFT键选择可以选中多个选择框。
可用文件名和大小选择器来选择文件。
文件名选择器帮您根据文件名称或后缀来选择文件。不分大小写。
符号使用:
和:空格( )、+
不包含:-
或:|
转义:一对英文引号("");
匹配开头:^
匹配结尾:$
例如:
选中所有名称中包含有“eMule”或“0.49c”字眼,但不包含有“exe”字眼的:emule|0.49c -exe
选中所有名称的开头是“eMule”,结尾是“0.49c”的:^emule 0.49c$
选中所有名称中带有“eMule 0.49c”的(必须是“eMule 0.49c”,中间没有别的字符,不能是“eMule fake 0.49c”),需要转义:"emule 0.49c"
大小选择器帮您根据文件大小选择文件。