当前位置: 首页 >> 欧美电影 >> 桂河大桥[国英多音轨/中英字幕].The.Bridge.on.the.River.Kwai.1957.WEB-DL.2160p.x265.10bit.2Audio-MiniHD 38.05GB >> 正文

桂河大桥[国英多音轨/中英字幕].The.Bridge.on.the.River.Kwai.1957.WEB-DL.2160p.x265.10bit.2Audio-MiniHD 38.05GB

2022年05月13日 23:38:23     电影发布:来源于网络     电影分类:欧美电影     评论(0)    

◎译 名 桂河大桥 / 桂河桥

◎片 名 The Bridge on the River Kwai

◎年 代 1957

◎产 地 英国 / 美国

◎类 别 剧情 / 历史 / 战争

◎语 言 英语 / 日语 / 泰语

◎上映日期 1957-10-02(英国)

◎IMDb链接 https://www.imdb.com/title/tt0050212/

◎豆瓣评分 8.4/10 (22881人评价)

◎豆瓣链接 https://movie.douban.com/subject/1294958/

◎片 长 161分钟

◎导 演 大卫·里恩 David Lean (id:1002783)

◎编 剧 迈克尔·威尔逊 Michael Wilson (id:1160972)

卡尔·福尔曼 Carl Foreman (id:1023370)

◎演 员 威廉·霍尔登 William Holden (id:1002737)

亚历克·吉尼斯 Alec Guinness (id:1000109)

杰克·霍金斯 Jack Hawkins (id:1049902)

早川雪洲 Sessue Hayakawa (id:1019196)

詹姆斯·唐纳德 James Donald (id:1089546)

杰弗里·霍尔内 Geoffrey Horne (id:1100732)

特德·斯特吉斯 Ted Sturgis (id:1298585)

Gus Agosti Gus Agosti (id:1276854)

◎简 介

二战期间,日军占领了缅甸边境的一个战俘营。出于战略需要,日军将在缅甸与泰国交界修建一条大桥,同时希望战俘营里战俘出力,但英军战俘代表尼科森上校(亚利克·基尼斯 Alec Guinness 饰)认为这违反日内瓦公约拒不执行。于是尼科森等人被关了禁闭,但是没了尼科森的带领, 战俘们表现消极,而且因日本设计方面的不足,建桥工作陷入了停滞。日军无奈只好放出了尼科森等人,获释后尼科森感到在破坏一切的战争里何不做点建设,于是开始投入到建桥的工作。与此同时,逃出去的美军俘虏希尔兹(威廉?霍尔登 William Holden 饰)接受盟军一个特别任务,就是大桥建成之日将它炸毁。

◎获奖情况 (共12项)

第30届奥斯卡金像奖 (1958)

最佳影片

└──萨姆·斯皮格尔 (id:1041774)

最佳导演

└──大卫·里恩 (id:1002783)

最佳男主角

└──亚历克·吉尼斯 (id:1000109)

最佳男配角(提名)

└──早川雪洲 (id:1019196)

最佳改编剧本

最佳摄影

└──杰克·希尔德亚德 (id:1033673)

最佳剪辑

└──彼得·泰勒 (id:1153387)

最佳配乐

└──马尔科姆·阿诺德 (id:1028893)

第15届金球奖 (1958)

电影类 最佳剧情片

电影类 最佳导演

└──大卫·里恩 (id:1002783)

电影类 剧情片最佳男主角

└──亚历克·吉尼斯 (id:1000109)

电影类 最佳男配角(提名)

└──早川雪洲 (id:1019196)

  1. ##### MediaInfo ######

  2. General

  3. Unique ID : 172627464808146248261007131389721194140 (0x81DED7227916A446B3E9A363750A2E9C)

  4. Complete name : The.Bridge.on.the.River.Kwai.1957.WEB-DL.2160p.x265.10bit.2Audio-MiniHD.mkv

  5. Format : Matroska

  6. Format version : Version 4

  7. File size : 38.1 GiB

  8. Duration : 2 h 41 min

  9. Overall bit rate : 33.7 Mb/s

  10. Encoded date : UTC 2015-12-21 05:08:42

  11. Writing application : mkvmerge v7.5.0 ('Glass Culture') 64bit built on Jan 4 2015 16:48:44

  12. Writing library : libebml v1.3.1 + libmatroska v1.4.2

  13. Video

  14. ID : 1

  15. Format : HEVC

  16. Format/Info : High Efficiency Video Coding

  17. Codec ID : V_MPEGH/ISO/HEVC

  18. Duration : 2 h 41 min

  19. Bit rate : 31.6 Mb/s

  20. Width : 3 840 pixels

  21. Height : 1 512 pixels

  22. Display aspect ratio : 2.540

  23. Frame rate mode : Constant

  24. Frame rate : 23.976 (24000/1001/53354) FPS

  25. Bits/(Pixel*Frame) : 0.227

  26. Stream size : 35.7 GiB (94%)

  27. Default : Yes

  28. Forced : No

  29. Audio #1

  30. ID : 2

  31. Format : DTS

  32. Format/Info : Digital Theater Systems

  33. Codec ID : A_DTS

  34. Duration : 2 h 41 min

  35. Bit rate mode : Constant

  36. Bit rate : 1 509 kb/s

  37. Channel(s) : 6 channels

  38. Channel layout : C L R Ls Rs LFE

  39. Sampling rate : 48.0 kHz

  40. Frame rate : 93.750 FPS (512 SPF)

  41. Bit depth : 24 bits

  42. Compression mode : Lossy

  43. Delay relative to video : 9 ms

  44. Stream size : 1.70 GiB (4%)

  45. Language : English

  46. Default : Yes

  47. Forced : No

  48. Audio #2

  49. ID : 3

  50. Format : AC-3

  51. Format/Info : Audio Coding 3

  52. Commercial name : Dolby Digital

  53. Codec ID : A_AC3

  54. Duration : 2 h 41 min

  55. Bit rate mode : Constant

  56. Bit rate : 448 kb/s

  57. Channel(s) : 6 channels

  58. Channel layout : L R C LFE Ls Rs

  59. Sampling rate : 48.0 kHz

  60. Frame rate : 31.250 FPS (1536 SPF)

  61. Compression mode : Lossy

  62. Delay relative to video : 20 ms

  63. Stream size : 517 MiB (1%)

  64. Language : Chinese

  65. Service kind : Complete Main

  66. Default : No

  67. Forced : No

  68. Text #1

  69. ID : 4

  70. Format : PGS

  71. Muxing mode : zlib

  72. Codec ID : S_HDMV/PGS

  73. Codec ID/Info : Picture based subtitle format used on BDs/HD-DVDs

  74. Duration : 2 h 34 min

  75. Bit rate : 11.1 kb/s

  76. Count of elements : 2706

  77. Stream size : 12.3 MiB (0%)

  78. Language : English

  79. Default : Yes

  80. Forced : No

  81. Text #2

  82. ID : 5

  83. Format : PGS

  84. Muxing mode : zlib

  85. Codec ID : S_HDMV/PGS

  86. Codec ID/Info : Picture based subtitle format used on BDs/HD-DVDs

  87. Duration : 2 h 34 min

  88. Bit rate : 11.1 kb/s

  89. Count of elements : 2714

  90. Stream size : 12.3 MiB (0%)

  91. Language : English

  92. Default : No

  93. Forced : No

  94. Text #3

  95. ID : 6

  96. Format : PGS

  97. Muxing mode : zlib

  98. Codec ID : S_HDMV/PGS

  99. Codec ID/Info : Picture based subtitle format used on BDs/HD-DVDs

  100. Duration : 2 h 34 min

  101. Bit rate : 11.3 kb/s

  102. Count of elements : 2727

  103. Stream size : 12.5 MiB (0%)

  104. Language : Chinese

  105. Default : No

  106. Forced : No

  107. Text #4

  108. ID : 7

  109. Format : PGS

  110. Muxing mode : zlib

  111. Codec ID : S_HDMV/PGS

  112. Codec ID/Info : Picture based subtitle format used on BDs/HD-DVDs

  113. Duration : 2 h 36 min

  114. Bit rate : 11.4 kb/s

  115. Count of elements : 2623

  116. Stream size : 12.7 MiB (0%)

  117. Language : Chinese

  118. Default : No

  119. Forced : No

  120. Text #5

  121. ID : 8

  122. Format : PGS

  123. Muxing mode : zlib

  124. Codec ID : S_HDMV/PGS

  125. Codec ID/Info : Picture based subtitle format used on BDs/HD-DVDs

  126. Duration : 2 h 38 min

  127. Bit rate : 8 117 b/s

  128. Count of elements : 2641

  129. Stream size : 9.22 MiB (0%)

  130. Language : Chinese

  131. Default : No

  132. Forced : No

  133. Text #6

  134. ID : 9

  135. Format : PGS

  136. Muxing mode : zlib

  137. Codec ID : S_HDMV/PGS

  138. Codec ID/Info : Picture based subtitle format used on BDs/HD-DVDs

  139. Duration : 2 h 38 min

  140. Bit rate : 8 487 b/s

  141. Count of elements : 2641

  142. Stream size : 9.64 MiB (0%)

  143. Language : Chinese

  144. Default : No

  145. Forced : No

  146. Text #7

  147. ID : 10

  148. Format : PGS

  149. Muxing mode : zlib

  150. Codec ID : S_HDMV/PGS

  151. Codec ID/Info : Picture based subtitle format used on BDs/HD-DVDs

  152. Duration : 2 h 38 min

  153. Bit rate : 14.2 kb/s

  154. Count of elements : 2641

  155. Stream size : 16.1 MiB (0%)

  156. Language : Chinese

  157. Default : No

  158. Forced : No

  159. Text #8

  160. ID : 11

  161. Format : PGS

  162. Muxing mode : zlib

  163. Codec ID : S_HDMV/PGS

  164. Codec ID/Info : Picture based subtitle format used on BDs/HD-DVDs

  165. Duration : 2 h 38 min

  166. Bit rate : 14.6 kb/s

  167. Count of elements : 2641

  168. Stream size : 16.5 MiB (0%)

  169. Language : Chinese

  170. Default : No

  171. Forced : No

  172. Menu

  173. 00:00:00.000 : :Chapter 01

  174. 00:10:54.737 : :Chapter 02

  175. 00:21:00.801 : :Chapter 03

  176. 00:31:06.114 : :Chapter 04

  177. 00:38:43.237 : :Chapter 05

  178. 00:50:24.271 : :Chapter 06

  179. 01:00:10.607 : :Chapter 07

  180. 01:09:42.803 : :Chapter 08

  181. 01:20:59.271 : :Chapter 09

  182. 01:32:47.853 : :Chapter 10

  183. 01:41:14.109 : :Chapter 11

  184. 01:50:34.628 : :Chapter 12

  185. 02:03:20.267 : :Chapter 13

  186. 02:14:36.693 : :Chapter 14

  187. 02:24:37.960 : :Chapter 15

  188. 02:32:33.102 : :Chapter 16


复制代码



文件下载


除非特别注明,本文『桂河大桥[国英多音轨/中英字幕].The.Bridge.on.the.River.Kwai.1957.WEB-DL.2160p.x265.10bit.2Audio-MiniHD 38.05GB』来源于互联网机器人自动抓取,非本站原创。 浮游电影网不对本文拥有版权,如有侵犯,请联系邮箱:fuyouu#yandex.com[#换成@]投诉。我们会在15个工作日内删除。 但烦请转载时请标明出处:“本文转载于『浮游电影网』,原文地址:https://www.fuyouu.com/22122.html

评论吧骚年!

发表你的见解   

昵称*

E-mail*(建议输入,以便收到博主回复的提示邮件)

验证码*

您可以使用eMule或eMule Mod(Windows)、aMule(Win、Linux、Mac)等软件下载eD2k链接。。
eMule收藏集(.emulecollection)文件是您选中的所有链接的列表文件。eMule可以直接下载它们。
按住SHIFT键选择可以选中多个选择框。
可用文件名和大小选择器来选择文件。
文件名选择器帮您根据文件名称或后缀来选择文件。不分大小写。
符号使用:
和:空格( )、+
不包含:-
或:|
转义:一对英文引号("");
匹配开头:^
匹配结尾:$
例如:
选中所有名称中包含有“eMule”或“0.49c”字眼,但不包含有“exe”字眼的:emule|0.49c -exe
选中所有名称的开头是“eMule”,结尾是“0.49c”的:^emule 0.49c$
选中所有名称中带有“eMule 0.49c”的(必须是“eMule 0.49c”,中间没有别的字符,不能是“eMule fake 0.49c”),需要转义:"emule 0.49c"
大小选择器帮您根据文件大小选择文件。