当前位置: 首页 >> 国产电影 >> 一步之遥[国语配音/中文字幕].Gone.With.The.Bullets.2014.2160p.WEB-DL.H265.AAC-CTRLWEB 14.30GB >> 正文

一步之遥[国语配音/中文字幕].Gone.With.The.Bullets.2014.2160p.WEB-DL.H265.AAC-CTRLWEB 14.30GB

2022年05月13日 23:36:03     电影发布:来源于网络     电影分类:国产电影     评论(0)    

◎译 名 一步之遥 / 随子弹去 / Gone With The Bullets

◎年 代 2014

◎产 地 中国大陆 / 美国 / 中国香港

◎类 别 剧情 / 喜剧 / 动作

◎语 言 汉语普通话 / 英语 / 上海话 / 法语 / 日语 / 满语 / 越南语 / 拉丁语

◎上映日期 2014-12-18(中国大陆)

◎IMDb链接 https://www.imdb.com/title/tt2168000/

◎豆瓣评分 6.6/10 (291417人评价)

◎豆瓣链接 https://movie.douban.com/subject/6126442/

◎片 长 140分钟

◎导 演 姜文 Wen Jiang (id:1021999)

◎编 剧 姜文 Wen Jiang (id:1021999)

郭俊立 Junli Guo (id:1274911)

王朔 Shuo Wang (id:1274389)

廖一梅 Yimei Liao (id:1315580)

述平 Shuping (id:1275245)

顿河 He Dun (id:1417592)

孙悦 Yue Sun (id:1344618)

孙睿 Rui Sun (id:1327152)

于勇敢 Yonggan Yu (id:1419542)

◎演 员 姜文 Wen Jiang (id:1021999)

葛优 You Ge (id:1000905)

周韵 Yun Zhou (id:1037851)

舒淇 Qi Shu (id:1138320)

文章 Zhang Wen (id:1011513)

王志文 Zhiwen Wang (id:1010208)

洪晃 Huang Hung (id:1313288)

刘利年 Harrison Liu (id:1333805)

那英 Ying Na (id:1040056)

刘索拉 Sola Liu (id:1326544)

牛犇 Ben Niu (id:1275893)

姜洪齐 Hongqi Jiang (id:1344685)

陶虹 Hong Tao (id:1015199)

刘陆 Lu Liu (id:1340364)

安地 Andy Friend (id:1397205)

田岷 Min Tian (id:1316741)

吴冬妮 Nina Wu (id:1379180)

魏小欢 Xiaohuan Wei (id:1381873)

穆乐恩 Le'En Mu (id:1365328)

阮金佳 Jinjia Ruan (id:1379175)

朱莉·施密德 Julie Schmid (id:1379179)

道格·佩尼卡斯 Doug Penikas (id:1314216)

斯塔塞·L·皮罗莉齐 Stacey L. Pirozzi (id:1379181)

布鲁诺·恩斯堡 Bruno Gensburger (id:1379176)

多米尼克·凯利 Dominique Kelley (id:1379177)

马修·雷·鲁格斯 Matthew Ray Ruggles (id:1379178)

魏冠男 Joseph Wei (id:1411265)

阿古 Gu A (id:1413696)

姜文 Wen Jiang (id:1021999)

李菲 Fei Li (id:1400568)

利雅博 Albert Lee (id:1326683)

龚宇 Yu Gong (id:1406734)

久石让 Joe Hisaishi (id:1035647)

窦鹏 Peng Dou (id:1331830)

舒楠 Nan Shu (id:1332977)

张镒麟 Yilin Zhang (id:1402439)

谢征宇 Zhengyu Xie (id:1397414)

李强 Qiang Li (id:1397776)

高虎 Hu Gao (id:1450156)

姜文 Wen Jiang (id:1021999)

曹伟杰 Weijie Cao (id:1328031)

张琪 Qi Zhang (id:1386934)

周韵 Yun Zhou (id:1037851)

柳青 Qing Liu (id:1332960)

徐鸥 Ou Xu (id:1397778)

韩良 Liang Han (id:1400689)

张叔平 William Chang (id:1274369)

崔紫雄 Zixiong Cui (id:1384153)

克里斯多夫·佐林格 Christoph Zollinger (id:1378377)

罗礼贤 Bruce Law (id:1289542)

◎简 介

北洋政府统治时期,盘踞上海的军阀武大帅之子武七(文章 饰)为洗刷耻辱,辗转找到了前清遗老马走日(姜文 饰)求助。在此之后,马走日和在法租界当警督的发小项飞田(葛优 饰)联手策划了名为“花域总统选举”的大型选美活动,和马从小就认识的现总统完颜英(舒淇 饰)成功卫冕。谁知就在繁华喧嚣的最顶点,命运之车竟急转直下驶向深渊。在一个平凡的早上,完颜陈尸郊野,张皇失措的马走日找到武七的姐姐武六(周韵 饰)及其母亲齐老师(洪晃 饰),希望通过大帅帮自己洗刷杀人犯的罪名,结果却盲打误撞救下了险些被整死的项飞田。背负杀人犯之名的马绝路逃亡,而武六则以该事件拍摄了名为《枪毙马走日》的电影,马的命运愈加扑朔迷离……

本片根据民国奇案“阎瑞生案”改编。

◎获奖情况 (共12项)

第65届柏林国际电影节 (2015)

金熊奖 最佳影片(提名)

└──姜文 (id:1021999)

第52届台北金马影展 (2015)

金马奖 最佳美术设计(提名)

└──柳青 (id:1332960)

金马奖 最佳造型设计(提名)

└──张叔平 (id:1274369)

金马奖 最佳视觉效果(提名)

第9届亚洲电影大奖 (2015)

最佳原创音乐(提名)

最佳美术指导

└──柳青 (id:1332960)

最佳造型设计

最佳视觉效果

第22届北京大学生电影节 (2015)

最佳导演奖(提名)

└──姜文 (id:1021999)

最佳观赏效果奖(提名)

艺术探索奖(提名)

第1届豆瓣电影年度榜单 (2014)

12月最受关注电影

  1. ##### MediaInfo ######

  2. General

  3. Complete name : Gone.With.The.Bullets.2014.2160p.WEB-DL.H265.AAC-CTRLWEB.mp4

  4. Format : MPEG-4

  5. Format profile : Base Media

  6. Codec ID : isom (isom/iso2/mp41)

  7. File size : 14.3 GiB

  8. Duration : 2 h 20 min

  9. Overall bit rate mode : Variable

  10. Overall bit rate : 14.6 Mb/s

  11. Recorded date : 2022-05-12T12:33:55.8527587+08:00

  12. Writing application : Lavf59.16.100

  13. Video

  14. ID : 1

  15. Format : HEVC

  16. Format/Info : High Efficiency Video Coding

  17. Format profile : [email protected]@Main

  18. Codec ID : hev1

  19. Codec ID/Info : High Efficiency Video Coding

  20. Duration : 2 h 20 min

  21. Bit rate : 14.4 Mb/s

  22. Width : 3 840 pixels

  23. Height : 1 600 pixels

  24. Display aspect ratio : 2.40:1

  25. Frame rate mode : Constant

  26. Frame rate : 24.000 FPS

  27. Color space : YUV

  28. Chroma subsampling : 4:2:0

  29. Bit depth : 8 bits

  30. Bits/(Pixel*Frame) : 0.097

  31. Stream size : 14.1 GiB (99%)

  32. Codec configuration box : hvcC

  33. Audio

  34. ID : 2

  35. Format : AAC LC

  36. Format/Info : Advanced Audio Codec Low Complexity

  37. Codec ID : mp4a-40-2

  38. Duration : 2 h 20 min

  39. Bit rate mode : Variable

  40. Bit rate : 192 kb/s

  41. Channel(s) : 2 channels

  42. Channel layout : L R

  43. Sampling rate : 44.1 kHz

  44. Frame rate : 43.066 FPS (1024 SPF)

  45. Compression mode : Lossy

  46. Stream size : 191 MiB (1%)

  47. Default : Yes

  48. Alternate group : 1


复制代码



文件下载


除非特别注明,本文『一步之遥[国语配音/中文字幕].Gone.With.The.Bullets.2014.2160p.WEB-DL.H265.AAC-CTRLWEB 14.30GB』来源于互联网机器人自动抓取,非本站原创。 浮游电影网不对本文拥有版权,如有侵犯,请联系邮箱:fuyouu#yandex.com[#换成@]投诉。我们会在15个工作日内删除。 但烦请转载时请标明出处:“本文转载于『浮游电影网』,原文地址:https://www.fuyouu.com/22120.html

评论吧骚年!

发表你的见解   

昵称*

E-mail*(建议输入,以便收到博主回复的提示邮件)

验证码*

您可以使用eMule或eMule Mod(Windows)、aMule(Win、Linux、Mac)等软件下载eD2k链接。。
eMule收藏集(.emulecollection)文件是您选中的所有链接的列表文件。eMule可以直接下载它们。
按住SHIFT键选择可以选中多个选择框。
可用文件名和大小选择器来选择文件。
文件名选择器帮您根据文件名称或后缀来选择文件。不分大小写。
符号使用:
和:空格( )、+
不包含:-
或:|
转义:一对英文引号("");
匹配开头:^
匹配结尾:$
例如:
选中所有名称中包含有“eMule”或“0.49c”字眼,但不包含有“exe”字眼的:emule|0.49c -exe
选中所有名称的开头是“eMule”,结尾是“0.49c”的:^emule 0.49c$
选中所有名称中带有“eMule 0.49c”的(必须是“eMule 0.49c”,中间没有别的字符,不能是“eMule fake 0.49c”),需要转义:"emule 0.49c"
大小选择器帮您根据文件大小选择文件。