当前位置: 首页 >> 港台电影 >> 一杯上路[简繁英字幕].One.For.The.Road.2022.1080p.Netflix.WEB-DL.H264.DDP5.1-HDBWEB 4.25GB >> 正文

一杯上路[简繁英字幕].One.For.The.Road.2022.1080p.Netflix.WEB-DL.H264.DDP5.1-HDBWEB 4.25GB

2022年05月13日 23:33:55     电影发布:来源于网络     电影分类:港台电影     评论(0)    

◎译 名 一杯上路 / ??????????..??????????

◎片 名 One For The Road

◎年 代 2021

◎产 地 中国香港 / 泰国

◎类 别 剧情

◎语 言 泰语

◎上映日期 2021-01-28(圣丹斯电影节) / 2022-02-10(泰国)

◎IMDb链接 https://www.imdb.com/title/tt11508438/

◎豆瓣链接 https://movie.douban.com/subject/34913315/

◎片 长 136分钟

◎导 演 纳塔吾·彭皮里亚 Nattawut Poonpiriya (id:1331673)

◎编 剧 Puangsoi Aksornsawang Puangsoi Aksornsawang (id:1452463)

诺塔彭·邦帕卡布 Nottapon Boonprakob (id:1337586)

纳塔吾·彭皮里亚 Nattawut Poonpiriya (id:1331673)

◎演 员 朋抔·里拉塔纳卡邹 Thanapob Leeratanakajorn (id:1342141)

纳塔拉·诺帕卢塔亚朋 Nattarat Nopparuttayaporn (id:1428267)

茱蒂蒙·琼查容苏因 Chutimon Chuengcharoensukying (id:1378772)

瓦尔蕾特·瓦帖儿 Violette Wautier (id:1345611)

Ploi Horwang Ploi Horwang (id:1455928)

斯拉潘·瓦塔纳金达 Siraphan Wattanajinda (id:1309877)

芮塔·彭安 Rhatha Phongam (id:1328945)

刘艺 Yi Liu (id:1351338)

Lissa Carandang-Sweeney Lissa Carandang-Sweeney (id:1460146)

Daniel Hirsh Daniel Hirsh (id:1046600)

王家卫 Kar Wai Wong (id:1041024)

◎简 介

《一杯上路》将聚焦一对好兄弟,跨越14万公里,进行一场笑泪齐飞的另类告别之旅。

◎获奖情况 (共2项)

第37届圣丹斯电影节 (2021)

评审团大奖 世界电影单元剧情片(提名)

└──纳塔吾·彭皮里亚 (id:1331673)

评审团特别奖 最佳创意叙事奖

└──纳塔吾·彭皮里亚 (id:1331673)

  1. ##### MediaInfo ######

  2. General

  3. Unique ID : 128117185862412841186761545951693074736 (0x606278F36BB0C04D34F1D8F0A1157130)

  4. Complete name : 一杯上路.One.For.The.Road.2022.1080p.Netflix.WEB-DL.H264.DDP5.1-HDBWEB.mkv

  5. Format : Matroska

  6. Format version : Version 4

  7. File size : 4.25 GiB

  8. Duration : 2 h 8 min

  9. Overall bit rate mode : Variable

  10. Overall bit rate : 4 736 kb/s

  11. Movie name : 一杯上路

  12. Description : 酒吧老闆與摯友其中一人患了絕症,他們於是相約在泰國,展開最後一場公路之旅。

  13. Writing application : Lavf58.76.100

  14. Writing library : Lavf58.76.100

  15. ErrorDetectionType : Per level 1

  16. DATE : 2021

  17. Video

  18. ID : 1

  19. Format : AVC

  20. Format/Info : Advanced Video Codec

  21. Format profile : [email protected]

  22. Format settings : CABAC / 4 Ref Frames

  23. Format settings, CABAC : Yes

  24. Format settings, Reference frames : 4 frames

  25. Codec ID : V_MPEG4/ISO/AVC

  26. Duration : 2 h 8 min

  27. Bit rate mode : Variable

  28. Bit rate : 4 002 kb/s

  29. Maximum bit rate : 20.0 Mb/s

  30. Width : 1 920 pixels

  31. Height : 1 080 pixels

  32. Display aspect ratio : 16:9

  33. Frame rate mode : Constant

  34. Frame rate : 24.000 FPS

  35. Color space : YUV

  36. Chroma subsampling : 4:2:0

  37. Bit depth : 8 bits

  38. Scan type : Progressive

  39. Bits/(Pixel*Frame) : 0.080

  40. Stream size : 3.59 GiB (84%)

  41. Title : 264:moovts=-1:fps=24:deps:[email protected]

  42. Writing library : x264 core 148 r2727 7d026e8

  43. Encoding settings : cabac=1 / ref=4 / deblock=1:0:0 / analyse=0x3:0x111 / me=umh / subme=10 / psy=1 / psy_rd=1.00:0.00 / mixed_ref=1 / me_range=120 / chroma_me=1 / trellis=2 / 8x8dct=1 / cqm=0 / deadzone=21,11 / fast_pskip=1 / chroma_qp_offset=-2 / threads=8 / lookahead_threads=2 / sliced_threads=0 / nr=0 / decimate=1 / interlaced=0 / NTMzNTQ= / bluray_compat=0 / stitchable=1 / constrained_intra=0 / bframes=16 / b_pyramid=2 / b_adapt=2 / b_bias=0 / direct=3 / weightb=1 / open_gop=0 / weightp=2 / keyint=240 / keyint_min=121 / scenecut=0 / intra_refresh=0 / rc_lookahead=240 / rc=crf / mbtree=1 / crf=16.0 / qcomp=0.50 / qpmin=6 / qpmax=51 / qpstep=4 / vbv_maxrate=20000 / vbv_bufsize=25000 / crf_max=0.0 / nal_hrd=vbr / filler=0 / NTMzNTQ=LmsMAP37EqsCpk / ip_ratio=1.40 / aq=1:0.80

  44. Default : Yes

  45. Forced : No

  46. VENDOR_ID : [0][0][0][0]

  47. Audio

  48. ID : 2

  49. Format : E-AC-3

  50. Format/Info : Enhanced AC-3

  51. Commercial name : Dolby Digital Plus

  52. Codec ID : A_EAC3

  53. Duration : 2 h 8 min

  54. Bit rate mode : Constant

  55. Bit rate : 640 kb/s

  56. Channel(s) : 6 channels

  57. Channel layout : L R C LFE Ls Rs

  58. Sampling rate : 48.0 kHz

  59. Frame rate : 31.250 FPS (1536 SPF)

  60. Bit depth : 32 bits

  61. Compression mode : Lossy

  62. Stream size : 588 MiB (14%)

  63. Title : 泰文 [原始]

  64. Language : Thai

  65. Service kind : Complete Main

  66. Default : Yes

  67. Forced : No

  68. VENDOR_ID : [0][0][0][0]

  69. Text #1

  70. ID : 3

  71. Format : UTF-8

  72. Codec ID : S_TEXT/UTF8

  73. Codec ID/Info : UTF-8 Plain Text

  74. Duration : 2 h 3 min

  75. Title : 英文

  76. Writing library : Lavc58.134.100 srt

  77. Language : English

  78. Default : Yes

  79. Forced : No

  80. Text #2

  81. ID : 4

  82. Format : UTF-8

  83. Codec ID : S_TEXT/UTF8

  84. Codec ID/Info : UTF-8 Plain Text

  85. Duration : 2 h 8 min

  86. Title : 印尼語

  87. Writing library : Lavc58.134.100 srt

  88. Language : Indonesian

  89. Default : No

  90. Forced : No

  91. Text #3

  92. ID : 5

  93. Format : UTF-8

  94. Codec ID : S_TEXT/UTF8

  95. Codec ID/Info : UTF-8 Plain Text

  96. Duration : 2 h 8 min

  97. Title : 韓文

  98. Writing library : Lavc58.134.100 srt

  99. Language : Korean

  100. Default : No

  101. Forced : No

  102. Text #4

  103. ID : 6

  104. Format : UTF-8

  105. Codec ID : S_TEXT/UTF8

  106. Codec ID/Info : UTF-8 Plain Text

  107. Duration : 2 h 8 min

  108. Title : 馬來文

  109. Writing library : Lavc58.134.100 srt

  110. Language : Malay

  111. Default : No

  112. Forced : No

  113. Text #5

  114. ID : 7

  115. Format : UTF-8

  116. Codec ID : S_TEXT/UTF8

  117. Codec ID/Info : UTF-8 Plain Text

  118. Duration : 2 h 8 min

  119. Title : 泰文

  120. Writing library : Lavc58.134.100 srt

  121. Language : Thai

  122. Default : No

  123. Forced : No

  124. Text #6

  125. ID : 8

  126. Format : UTF-8

  127. Codec ID : S_TEXT/UTF8

  128. Codec ID/Info : UTF-8 Plain Text

  129. Duration : 2 h 4 min

  130. Title : 泰文 [CC]

  131. Writing library : Lavc58.134.100 srt

  132. Language : Thai

  133. Default : No

  134. Forced : No

  135. Text #7

  136. ID : 9

  137. Format : UTF-8

  138. Codec ID : S_TEXT/UTF8

  139. Codec ID/Info : UTF-8 Plain Text

  140. Duration : 2 h 8 min

  141. Title : 越南文

  142. Writing library : Lavc58.134.100 srt

  143. Language : Vietnamese

  144. Default : No

  145. Forced : No

  146. Text #8

  147. ID : 10

  148. Format : UTF-8

  149. Codec ID : S_TEXT/UTF8

  150. Codec ID/Info : UTF-8 Plain Text

  151. Duration : 2 h 8 min

  152. Title : 簡體中文

  153. Writing library : Lavc58.134.100 srt

  154. Language : Chinese

  155. Default : No

  156. Forced : No

  157. Text #9

  158. ID : 11

  159. Format : UTF-8

  160. Codec ID : S_TEXT/UTF8

  161. Codec ID/Info : UTF-8 Plain Text

  162. Duration : 2 h 8 min

  163. Title : 繁體中文

  164. Writing library : Lavc58.134.100 srt

  165. Language : Chinese

  166. Default : No

  167. Forced : No


复制代码



文件下载


除非特别注明,本文『一杯上路[简繁英字幕].One.For.The.Road.2022.1080p.Netflix.WEB-DL.H264.DDP5.1-HDBWEB 4.25GB』来源于互联网机器人自动抓取,非本站原创。 浮游电影网不对本文拥有版权,如有侵犯,请联系邮箱:fuyouu#yandex.com[#换成@]投诉。我们会在15个工作日内删除。 但烦请转载时请标明出处:“本文转载于『浮游电影网』,原文地址:https://www.fuyouu.com/22119.html

评论吧骚年!

发表你的见解   

昵称*

E-mail*(建议输入,以便收到博主回复的提示邮件)

验证码*

您可以使用eMule或eMule Mod(Windows)、aMule(Win、Linux、Mac)等软件下载eD2k链接。。
eMule收藏集(.emulecollection)文件是您选中的所有链接的列表文件。eMule可以直接下载它们。
按住SHIFT键选择可以选中多个选择框。
可用文件名和大小选择器来选择文件。
文件名选择器帮您根据文件名称或后缀来选择文件。不分大小写。
符号使用:
和:空格( )、+
不包含:-
或:|
转义:一对英文引号("");
匹配开头:^
匹配结尾:$
例如:
选中所有名称中包含有“eMule”或“0.49c”字眼,但不包含有“exe”字眼的:emule|0.49c -exe
选中所有名称的开头是“eMule”,结尾是“0.49c”的:^emule 0.49c$
选中所有名称中带有“eMule 0.49c”的(必须是“eMule 0.49c”,中间没有别的字符,不能是“eMule fake 0.49c”),需要转义:"emule 0.49c"
大小选择器帮您根据文件大小选择文件。