当前位置: 首页 >> 欧美电影 >> 神奇燕尾服[国英多音轨/简繁英字幕].The.Tuxedo.2002.1080p.BluRay.DD5.1.4Audio.x265-10bit-ENTHD 8.26GB >> 正文

神奇燕尾服[国英多音轨/简繁英字幕].The.Tuxedo.2002.1080p.BluRay.DD5.1.4Audio.x265-10bit-ENTHD 8.26GB

2022年05月13日 23:32:08     电影发布:来源于网络     电影分类:欧美电影     评论(0)    

◎译 名 神奇燕尾服 / 燕尾服(台) / 特务踢死兔(港) / 神奇西服 / T.U.X.

◎片 名 The Tuxedo

◎年 代 2002

◎产 地 美国

◎类 别 喜剧 / 动作 / 科幻 / 惊悚

◎语 言 英语 / 粤语

◎上映日期 2002-09-27(美国)

◎IMDb链接 https://www.imdb.com/title/tt0290095/

◎豆瓣评分 6.4/10 (44608人评价)

◎豆瓣链接 https://movie.douban.com/subject/1305183/

◎片 长 98 分钟

◎导 演 凯文·多诺万 Kevin Donovan (id:1319572)

◎编 剧 马特·曼弗莱迪 Matt Manfredi (id:1290866)

迈克尔·J·威尔森 Michael J. Wilson (id:1361292)

迈克尔·利森 Michael Leeson (id:1289721)

费尔·海伊 Phil Hay (id:1276624)

◎演 员 成龙 Jackie Chan (id:1054531)

詹妮弗·洛芙·休伊特 Jennifer Love Hewitt (id:1027777)

詹森·艾萨克 Jason Isaacs (id:1017916)

黛比·玛扎 Debi Mazar (id:1025222)

Brian Rhodes Brian Rhodes (id:1033497)

鲍勃·巴拉班 Bob Balaban (id:1022775)

John Catucci John Catucci (id:1304940)

乔丹·马德丽 Jordan Madley (id:1333778)

米娅·柯泰特 Mia Cottet (id:1014161)

詹姆斯·布朗 James Brown (id:1068856)

保罗·布朗斯坦 Paul Braunstein (id:1383398)

塞西尔·克里斯托巴尔 Cecile Cristobal (id:1439017)

柯林·莫齐里 Colin Mochrie (id:1036584)

罗曼尼·马尔可 Romany Malco (id:1040583)

斯科特·雅菲 Scott Yaphe (id:1205367)

Scotty Cook Scotty Cook (id:1196030)

Christian Potenza Christian Potenza (id:1130094)

迈克尔·布尼恩 Michael Bunin (id:1174944)

罗伯特·丁克勒 Robert Tinkler (id:1151578)

Fred Lee Fred Lee (id:1110359)

丹尼尔·卡什 Daniel Kash (id:1108474)

Jack Duffy Jack Duffy (id:1089768)

诺亚·丹比 Noah Danby (id:1077519)

里特奇·科斯特 Ritchie Coster (id:1071529)

博伊德·班克斯 Boyd Banks (id:1000548)

彼得·斯特曼 Peter Stormare (id:1049549)

童自荣 Zirong Tong (id:1318216)

劳里·麦克唐纳 Laurie MacDonald (id:1290620)

陈自强 Willie Chan (id:1280445)

大卫·科茨沃斯 David Coatsworth (id:1280930)

苏志鸿 Solon So (id:1297999)

沃尔特·F·帕克斯 Walter F. Parkes (id:1000634)

约翰?亨利?威廉姆斯 John H. Williams (id:1300968)

约翰·戴布尼 John Debney (id:1025369)

克里斯托弗·贝克 Christophe Beck (id:1278180)

斯蒂芬·F·温顿 Stephen F. Windon (id:1301075)

Lisa Beach Lisa Beach (id:1278137)

罗宾·D·库克 Robin D. Cook (id:1281195)

Erica Edell Phillips Erica Edell Phillips (id:1294458)

Bonita DeHaven Bonita DeHaven (id:1282150)

马修·W.蒙格儿 Matthew W. Mungle (id:1131227)

Marie Nardella Marie Nardella (id:1276443)

克林顿·维恩 Clinton Wayne (id:1055970)

Mario Cacioppo Mario Cacioppo (id:1279826)

Gerrod Shully Gerrod Shully (id:1139395)

Janet Zdyb Janet Zdyb (id:1055089)

李·克利里 Lee Cleary (id:1014594)

Ken Lam Ken Lam (id:1289300)

派特·迈克朗 Pat McClung (id:1291484)

福尔图纳托·弗拉塔西奥 Fortunato Frattasio (id:1052531)

Kristopher Kasper Kristopher Kasper (id:1108916)

特拉维斯·鲍曼 Travis Baumann (id:1048779)

罗伯特·斯科塔克 Robert Skotak (id:1297751)

迪昂·哈奇 Dion Hatch (id:1286215)

David Taritero David Taritero (id:1298923)

Gayle Busby Gayle Busby (id:1279716)

保罗·麦吉 Paul McGhee (id:1118678)

琳达·德雷克 Linda Drake (id:1282708)

格雷戈里·克里泽 Gregory Creaser (id:1219802)

安东尼·哈里斯 Anthony Harris (id:1017246)

汤米·陈 Tommy Tran (id:1299471)

◎简 介

出租车司机吉米·唐(成龙 饰)是个在自己心仪女子面前缺乏自信的家伙,所经反复排练但还是会在上阵时手足无措。飚出租车是他唯一所长,拥有因超速被九次吊扣执照的光荣记录,也因这一点被富翁戴弗林(Jason Isaacs 饰)的助手选中,担任戴弗林的司机。

戴弗林的另一身份是情报局局长,此时正全力调查一宗饮用水公司的商业阴谋。唐被戴弗林优雅的举动深深折服,两人合作融洽,不料一日两人遭滑板炸弹袭击,戴弗林重伤,昏迷前将家中严禁触碰的燕尾服交予唐使用,并留下“沃特史崔达”的莫名词句。

唐无奈之下只得扮演戴弗林的角色,接受安全部门的指令,但他很快发现那件燕尾服不同寻常!用腕表调控相关模式便可以让着衣者拥有超人般的身手。唐要仰仗这件高科技战衣与美丽的菜鸟探员黛儿·布兰妮(Jennifer Love Hewitt 饰)合作,用他们的乌龙方式查清班尼公司的真相……

  1. ##### MediaInfo ######

  2. General

  3. Unique ID : 112287239890420333840871277789251873984 (0x5479BC5B468EA7E79FF0BCEAC34BACC0)

  4. Complete name : The.Tuxedo.2002.1080p.BluRay.DD5.1.4Audio.x265-10bit-ENTHD.mkv

  5. Format : Matroska

  6. Format version : Version 4

  7. File size : 8.26 GiB

  8. Duration : 1 h 38 min

  9. Overall bit rate : 12.0 Mb/s

  10. Movie name : The Tuxedo 2002 1080p BluRay DD5.1 4Audio x265-10bit-HDS

  11. Encoded date : UTC 2022-05-12 05:45:26

  12. Writing application : mkvmerge v67.0.0 ('Under Stars') 64-bit

  13. Writing library : libebml v1.4.2 + libmatroska v1.6.4

  14. Video

  15. ID : 1

  16. Format : HEVC

  17. Format/Info : High Efficiency Video Coding

  18. Format profile : Main [email protected]@High

  19. Codec ID : V_MPEGH/ISO/HEVC

  20. Duration : 1 h 38 min

  21. Bit rate : 10.0 Mb/s

  22. Width : 1 920 pixels

  23. Height : 1 036 pixels

  24. Display aspect ratio : 1.85:1

  25. Frame rate mode : Constant

  26. Frame rate : 23.976 (24000/1001/53354) FPS

  27. Color space : YUV

  28. Chroma subsampling : 4:2:0

  29. Bit depth : 10 bits

  30. Bits/(Pixel*Frame) : 0.210

  31. Stream size : 6.92 GiB (84%)

  32. Title : @HDSky

  33. Writing library : x265 - H.265/HEVC codec

  34. Default : Yes

  35. Forced : No

  36. Audio #1

  37. ID : 2

  38. Format : AC-3

  39. Format/Info : Audio Coding 3

  40. Commercial name : Dolby Digital

  41. Codec ID : A_AC3

  42. Duration : 1 h 38 min

  43. Bit rate mode : Constant

  44. Bit rate : 640 kb/s

  45. Channel(s) : 6 channels

  46. Channel layout : L R C LFE Ls Rs

  47. Sampling rate : 48.0 kHz

  48. Frame rate : 31.250 FPS (1536 SPF)

  49. Compression mode : Lossy

  50. Stream size : 452 MiB (5%)

  51. Title : English

  52. Language : English

  53. Service kind : Complete Main

  54. Default : Yes

  55. Forced : No

  56. Audio #2

  57. ID : 3

  58. Format : AC-3

  59. Format/Info : Audio Coding 3

  60. Commercial name : Dolby Digital

  61. Codec ID : A_AC3

  62. Duration : 1 h 38 min

  63. Bit rate mode : Constant

  64. Bit rate : 192 kb/s

  65. Channel(s) : 2 channels

  66. Channel layout : L R

  67. Sampling rate : 48.0 kHz

  68. Frame rate : 31.250 FPS (1536 SPF)

  69. Compression mode : Lossy

  70. Stream size : 136 MiB (2%)

  71. Title : Mandarin

  72. Language : Chinese

  73. Service kind : Complete Main

  74. Default : Yes

  75. Forced : No

  76. Audio #3

  77. ID : 4

  78. Format : MPEG Audio

  79. Format version : Version 1

  80. Format profile : Layer 2

  81. Codec ID : A_MPEG/L2

  82. Codec ID/Hint : MP2

  83. Duration : 1 h 38 min

  84. Bit rate mode : Constant

  85. Bit rate : 384 kb/s

  86. Channel(s) : 2 channels

  87. Sampling rate : 48.0 kHz

  88. Frame rate : 41.667 FPS (1152 SPF)

  89. Compression mode : Lossy

  90. Stream size : 271 MiB (3%)

  91. Title : Mandarin

  92. Language : Chinese

  93. Default : Yes

  94. Forced : No

  95. Audio #4

  96. ID : 5

  97. Format : AC-3

  98. Format/Info : Audio Coding 3

  99. Commercial name : Dolby Digital

  100. Codec ID : A_AC3

  101. Duration : 1 h 38 min

  102. Bit rate mode : Constant

  103. Bit rate : 448 kb/s

  104. Channel(s) : 6 channels

  105. Channel layout : L R C LFE Ls Rs

  106. Sampling rate : 48.0 kHz

  107. Frame rate : 31.250 FPS (1536 SPF)

  108. Compression mode : Lossy

  109. Stream size : 316 MiB (4%)

  110. Title : Mandarin

  111. Language : Chinese

  112. Service kind : Complete Main

  113. Default : Yes

  114. Forced : No

  115. Text #1

  116. ID : 6

  117. Format : PGS

  118. Muxing mode : zlib

  119. Codec ID : S_HDMV/PGS

  120. Codec ID/Info : Picture based subtitle format used on BDs/HD-DVDs

  121. Duration : 1 h 32 min

  122. Bit rate : 40.4 kb/s

  123. Count of elements : 2336

  124. Stream size : 26.7 MiB (0%)

  125. Title : ENG

  126. Language : English

  127. Default : Yes

  128. Forced : No

  129. Text #2

  130. ID : 7

  131. Format : PGS

  132. Muxing mode : zlib

  133. Codec ID : S_HDMV/PGS

  134. Codec ID/Info : Picture based subtitle format used on BDs/HD-DVDs

  135. Duration : 1 h 34 min

  136. Bit rate : 74.8 kb/s

  137. Count of elements : 4093

  138. Stream size : 50.8 MiB (1%)

  139. Title : CHS

  140. Language : Chinese

  141. Default : Yes

  142. Forced : No

  143. Text #3

  144. ID : 8

  145. Format : PGS

  146. Muxing mode : zlib

  147. Codec ID : S_HDMV/PGS

  148. Codec ID/Info : Picture based subtitle format used on BDs/HD-DVDs

  149. Duration : 1 h 34 min

  150. Bit rate : 77.6 kb/s

  151. Count of elements : 4094

  152. Stream size : 52.7 MiB (1%)

  153. Title : CHT

  154. Language : Chinese

  155. Default : Yes

  156. Forced : No

  157. Text #4

  158. ID : 9

  159. Format : PGS

  160. Muxing mode : zlib

  161. Codec ID : S_HDMV/PGS

  162. Codec ID/Info : Picture based subtitle format used on BDs/HD-DVDs

  163. Duration : 1 h 34 min

  164. Bit rate : 75.0 kb/s

  165. Count of elements : 4201

  166. Stream size : 51.0 MiB (1%)

  167. Title : CHS

  168. Language : Chinese

  169. Default : Yes

  170. Forced : No

  171. Text #5

  172. ID : 10

  173. Format : PGS

  174. Muxing mode : zlib

  175. Codec ID : S_HDMV/PGS

  176. Codec ID/Info : Picture based subtitle format used on BDs/HD-DVDs

  177. Duration : 1 h 34 min

  178. Bit rate : 78.0 kb/s

  179. Count of elements : 4201

  180. Stream size : 53.0 MiB (1%)

  181. Title : CHT

  182. Language : Chinese

  183. Default : Yes

  184. Forced : No

  185. Text #6

  186. ID : 11

  187. Format : PGS

  188. Muxing mode : zlib

  189. Codec ID : S_HDMV/PGS

  190. Codec ID/Info : Picture based subtitle format used on BDs/HD-DVDs

  191. Duration : 1 h 34 min

  192. Bit rate : 109 kb/s

  193. Count of elements : 4093

  194. Stream size : 73.8 MiB (1%)

  195. Title : CHS&ENG

  196. Language : Chinese

  197. Default : Yes

  198. Forced : No

  199. Text #7

  200. ID : 12

  201. Format : PGS

  202. Muxing mode : zlib

  203. Codec ID : S_HDMV/PGS

  204. Codec ID/Info : Picture based subtitle format used on BDs/HD-DVDs

  205. Duration : 1 h 34 min

  206. Bit rate : 111 kb/s

  207. Count of elements : 4094

  208. Stream size : 75.6 MiB (1%)

  209. Title : CHT&ENG

  210. Language : Chinese

  211. Default : Yes

  212. Forced : No

  213. Menu

  214. 00:00:00.000 : en:第 01 章

  215. 00:03:36.341 : en:第 02 章

  216. 00:08:11.700 : en:第 03 章

  217. 00:10:51.985 : en:第 04 章

  218. 00:13:17.088 : en:第 05 章

  219. 00:19:14.320 : en:第 06 章

  220. 00:24:43.857 : en:第 07 章

  221. 00:27:08.168 : en:第 08 章

  222. 00:31:22.547 : en:第 09 章

  223. 00:35:34.049 : en:第 10 章

  224. 00:41:21.688 : en:第 11 章

  225. 00:44:48.060 : en:第 12 章

  226. 00:49:03.983 : en:第 13 章

  227. 00:57:12.054 : en:第 14 章

  228. 01:05:19.124 : en:第 15 章

  229. 01:12:30.179 : en:第 16 章

  230. 01:17:32.898 : en:第 17 章

  231. 01:22:41.623 : en:第 18 章

  232. 01:28:34.726 : en:第 19 章

  233. 01:33:09.793 : en:第 20 章


复制代码



文件下载


除非特别注明,本文『神奇燕尾服[国英多音轨/简繁英字幕].The.Tuxedo.2002.1080p.BluRay.DD5.1.4Audio.x265-10bit-ENTHD 8.26GB』来源于互联网机器人自动抓取,非本站原创。 浮游电影网不对本文拥有版权,如有侵犯,请联系邮箱:fuyouu#yandex.com[#换成@]投诉。我们会在15个工作日内删除。 但烦请转载时请标明出处:“本文转载于『浮游电影网』,原文地址:https://www.fuyouu.com/22118.html

评论吧骚年!

发表你的见解   

昵称*

E-mail*(建议输入,以便收到博主回复的提示邮件)

验证码*

您可以使用eMule或eMule Mod(Windows)、aMule(Win、Linux、Mac)等软件下载eD2k链接。。
eMule收藏集(.emulecollection)文件是您选中的所有链接的列表文件。eMule可以直接下载它们。
按住SHIFT键选择可以选中多个选择框。
可用文件名和大小选择器来选择文件。
文件名选择器帮您根据文件名称或后缀来选择文件。不分大小写。
符号使用:
和:空格( )、+
不包含:-
或:|
转义:一对英文引号("");
匹配开头:^
匹配结尾:$
例如:
选中所有名称中包含有“eMule”或“0.49c”字眼,但不包含有“exe”字眼的:emule|0.49c -exe
选中所有名称的开头是“eMule”,结尾是“0.49c”的:^emule 0.49c$
选中所有名称中带有“eMule 0.49c”的(必须是“eMule 0.49c”,中间没有别的字符,不能是“eMule fake 0.49c”),需要转义:"emule 0.49c"
大小选择器帮您根据文件大小选择文件。