当前位置: 首页 >> 欧美电影 >> 正午[国英多音轨/中文字幕].High.Noon.1952.BluRay.1080p.x265.10bit.2Audio-MiniHD 3.43GB >> 正文

正午[国英多音轨/中文字幕].High.Noon.1952.BluRay.1080p.x265.10bit.2Audio-MiniHD 3.43GB

2022年05月13日 23:27:02     电影发布:来源于网络     电影分类:欧美电影     评论(0)    

◎译 名 正午 / 日正当中 / 龙城歼霸战(港)

◎片 名 High Noon

◎年 代 1952

◎产 地 美国

◎类 别 剧情 / 西部

◎语 言 英语

◎上映日期 1952-07-07(美国)

◎IMDb链接 https://www.imdb.com/title/tt0044706/

◎豆瓣评分 8.4/10 (21571人评价)

◎豆瓣链接 https://movie.douban.com/subject/1298521/

◎片 长 85分钟

◎导 演 弗雷德·金尼曼 Fred Zinnemann (id:1045186)

◎编 剧 卡尔·福尔曼 Carl Foreman (id:1023370)

◎演 员 加里·库珀 Gary Cooper (id:1048160)

格蕾丝·凯利 Grace Kelly (id:1041083)

托马斯·米切尔 Thomas Mitchell (id:1124117)

劳埃德·布里吉斯 Lloyd Bridges (id:1013897)

凯蒂·乔拉杜 Katy Jurado (id:1014171)

奥托·克鲁格 Otto Kruger (id:1104732)

小朗·钱尼 Lon Chaney Jr. (id:1007055)

李·范·克里夫 Lee Van Cleef (id:1013853)

伊恩·麦克唐纳 Ian MacDonald (id:1012638)

迪米特里·迪奥姆金 Dimitri Tiomkin (id:1048339)

儒道夫·斯特纳德 Rudolph Sternad (id:1298411)

◎简 介

小镇执法官威尔·凯恩(加里·库柏 Gary Cooper 饰)在卸任的当天,同未婚妻艾米(Grace Kelly 饰)举行了婚礼,两人预备开始蜜月旅行的当口,小镇迎来了三位不速之客,他们是皮尔斯、科比和本,三人在火车站等候五年前被威尔抓获的恶棍弗兰克·米勒。预感小镇将被卷入一场血腥仇杀的人们纷纷躲避,或者力劝威尔离开,但前任执法官执意留下,并开始在镇上寻找帮手,岂料不得升迁的员警哈维、当年审判弗兰克的法官等人全部与此事撇清了关系,新婚妻子亦不支持威尔的坚守,孤立无援的威尔只得拿起自己的枪战斗……

这部影片中的时间与真实世界中的时间步调一致。本片获1953年奥斯卡最佳男主角奖等十余项专业褒奖。

◎获奖情况 (共14项)

第25届奥斯卡金像奖 (1953)

最佳影片(提名)

└──斯坦利·克雷默 (id:1027460)

最佳导演(提名)

└──弗雷德·金尼曼 (id:1045186)

最佳男主角

└──加里·库珀 (id:1048160)

最佳编剧(提名)

└──卡尔·福尔曼 (id:1023370)

最佳剪辑

剧情/喜剧片最佳配乐

└──迪米特里·迪奥姆金 (id:1048339)

最佳原创歌曲

第10届金球奖 (1953)

电影类 最佳剧情片(提名)

电影类 剧情片最佳男主角

└──加里·库珀 (id:1048160)

电影类 最佳女配角

└──凯蒂·乔拉杜 (id:1014171)

电影类 最佳编剧(提名)

└──卡尔·福尔曼 (id:1023370)

电影类 最佳原创配乐

└──迪米特里·迪奥姆金 (id:1048339)

电影类 黑白片最佳摄影

└──弗洛伊德·克罗斯比 (id:1037801)

电影类 年度女新星(提名)

└──凯蒂·乔拉杜 (id:1014171)

  1. ##### MediaInfo ######

  2. General

  3. Unique ID : 197011235454718261523942599764573841056 (0x9436FBD8A1DE9D85BE651A84953666A0)

  4. Complete name : High.Noon.1952.BluRay.1080p.x265.10bit.2Audio-MiniHD.mkv

  5. Format : Matroska

  6. Format version : Version 4

  7. File size : 3.43 GiB

  8. Duration : 1 h 25 min

  9. Overall bit rate : 5 764 kb/s

  10. Encoded date : UTC 2016-12-22 07:20:35

  11. Writing application : mkvmerge v9.2.0 ('Photograph') 32bit

  12. Writing library : libebml v1.3.3 + libmatroska v1.4.4

  13. Video

  14. ID : 1

  15. Format : HEVC

  16. Format/Info : High Efficiency Video Coding

  17. Format profile : Main [email protected]@Main

  18. Codec ID : V_MPEGH/ISO/HEVC

  19. Duration : 1 h 25 min

  20. Bit rate : 5 233 kb/s

  21. Width : 1 454 pixels

  22. Height : 1 080 pixels

  23. Display aspect ratio : 4:3

  24. Frame rate mode : Constant

  25. Frame rate : 23.976 (24000/1001/53354) FPS

  26. Color space : YUV

  27. Chroma subsampling : 4:2:0

  28. Bit depth : 10 bits

  29. Bits/(Pixel*Frame) : 0.139

  30. Stream size : 3.11 GiB (91%)

  31. Writing library : x265 2.1+36-d216cb9b3b47:[Windows][GCC 6.2.0][64 bit] 10bit

  32. Encoding settings : wpp / ctu=32 / min-cu-size=8 / max-tu-size=16 / tu-intra-depth=2 / tu-inter-depth=2 / me=3 / subme=5 / merange=25 / rect / no-amp / max-merge=3 / temporal-mvp / no-early-skip / rskip / rdpenalty=1 / no-tskip / no-tskip-fast / no-strong-intra-smoothing / no-lossless / no-cu-lossless / no-constrained-intra / no-fast-intra / no-open-gop / no-temporal-layers / interlace=0 / keyint=360 / min-keyint=1 / NTMzNTQ=uuDQuD2mJt9fsCf / scenecut=40 / bias-for-scenecut=0.05 / rc-lookahead=60 / lookahead-slices=4 / bframes=8 / bframe-bias=0 / b-adapt=2 / ref=5 / limit-refs=3 / limit-modes / weightp / weightb / aq-mode=3 / qg-size=16 / aq-strength=0.90 / cbqpoffs=-2 / crqpoffs=-2 / rd=4 / psy-rd=1.00 / rdoq-level=2 / psy-rdoq=5.00 / log2-max-poc-lsb=8 / limit-tu=0 / no-rd-refine / signhide / deblock=-1:-1 / no-sao / no-sao-non-deblock / b-pyramid / cutree / no-intra-refresh / rc=crf / crf=21.0 / qcomp=0.65 / qpmin=0 / qpmax=69 / qpstep=4 / ipratio=1.40 / pbratio=1.30

  33. Default : Yes

  34. Forced : No

  35. Color range : Limited

  36. Color primaries : BT.709

  37. Audio #1

  38. ID : 2

  39. Format : AC-3

  40. Format/Info : Audio Coding 3

  41. Commercial name : Dolby Digital

  42. Codec ID : A_AC3

  43. Duration : 1 h 25 min

  44. Bit rate mode : Constant

  45. Bit rate : 224 kb/s

  46. Channel(s) : 1 channel

  47. Channel layout : C

  48. Sampling rate : 48.0 kHz

  49. Frame rate : 31.250 FPS (1536 SPF)

  50. Compression mode : Lossy

  51. Stream size : 136 MiB (4%)

  52. Language : English

  53. Service kind : Complete Main

  54. Default : Yes

  55. Forced : No

  56. Audio #2

  57. ID : 3

  58. Format : AC-3

  59. Format/Info : Audio Coding 3

  60. Commercial name : Dolby Digital

  61. Codec ID : A_AC3

  62. Duration : 1 h 25 min

  63. Bit rate mode : Constant

  64. Bit rate : 192 kb/s

  65. Channel(s) : 2 channels

  66. Channel layout : L R

  67. Sampling rate : 48.0 kHz

  68. Frame rate : 31.250 FPS (1536 SPF)

  69. Compression mode : Lossy

  70. Stream size : 117 MiB (3%)

  71. Language : Chinese

  72. Service kind : Complete Main

  73. Default : No

  74. Forced : No

  75. Text

  76. ID : 4

  77. Format : PGS

  78. Muxing mode : zlib

  79. Codec ID : S_HDMV/PGS

  80. Codec ID/Info : Picture based subtitle format used on BDs/HD-DVDs

  81. Language : Chinese

  82. Default : Yes

  83. Forced : No

  84. Menu

  85. 00:00:00.000 : en:Chapter 01

  86. 00:05:00.000 : en:Chapter 02

  87. 00:10:00.000 : en:Chapter 03

  88. 00:15:00.000 : en:Chapter 04

  89. 00:20:00.000 : en:Chapter 05

  90. 00:25:00.000 : en:Chapter 06

  91. 00:30:00.000 : en:Chapter 07

  92. 00:35:00.000 : en:Chapter 08

  93. 00:40:00.000 : en:Chapter 09

  94. 00:45:00.000 : en:Chapter 10

  95. 00:50:00.000 : en:Chapter 11

  96. 00:55:00.000 : en:Chapter 12

  97. 01:00:00.000 : en:Chapter 13

  98. 01:05:00.000 : en:Chapter 14

  99. 01:10:00.000 : en:Chapter 15

  100. 01:15:00.000 : en:Chapter 16

  101. 01:20:00.000 : en:Chapter 17

  102. 01:25:00.000 : en:Chapter 18


复制代码



文件下载


除非特别注明,本文『正午[国英多音轨/中文字幕].High.Noon.1952.BluRay.1080p.x265.10bit.2Audio-MiniHD 3.43GB』来源于互联网机器人自动抓取,非本站原创。 浮游电影网不对本文拥有版权,如有侵犯,请联系邮箱:fuyouu#yandex.com[#换成@]投诉。我们会在15个工作日内删除。 但烦请转载时请标明出处:“本文转载于『浮游电影网』,原文地址:https://www.fuyouu.com/22114.html

评论吧骚年!

发表你的见解   

昵称*

E-mail*(建议输入,以便收到博主回复的提示邮件)

验证码*

您可以使用eMule或eMule Mod(Windows)、aMule(Win、Linux、Mac)等软件下载eD2k链接。。
eMule收藏集(.emulecollection)文件是您选中的所有链接的列表文件。eMule可以直接下载它们。
按住SHIFT键选择可以选中多个选择框。
可用文件名和大小选择器来选择文件。
文件名选择器帮您根据文件名称或后缀来选择文件。不分大小写。
符号使用:
和:空格( )、+
不包含:-
或:|
转义:一对英文引号("");
匹配开头:^
匹配结尾:$
例如:
选中所有名称中包含有“eMule”或“0.49c”字眼,但不包含有“exe”字眼的:emule|0.49c -exe
选中所有名称的开头是“eMule”,结尾是“0.49c”的:^emule 0.49c$
选中所有名称中带有“eMule 0.49c”的(必须是“eMule 0.49c”,中间没有别的字符,不能是“eMule fake 0.49c”),需要转义:"emule 0.49c"
大小选择器帮您根据文件大小选择文件。