当前位置: 首页 >> 港台电影 >> 树大招风[国语配音/中文字幕].Trivisa.2016.BluRay.1080p.x265.10bit.2Audio-MiniHD 5.52GB >> 正文

树大招风[国语配音/中文字幕].Trivisa.2016.BluRay.1080p.x265.10bit.2Audio-MiniHD 5.52GB

2022年05月13日 23:25:15     电影发布:来源于网络     电影分类:港台电影     评论(0)    

◎标 题 树大招风

◎译 名 Trivisa

◎片 名 樹大招風

◎年 代 2016

◎产 地 中国香港 / 中国大陆

◎类 别 动作 / 犯罪

◎语 言 粤语 / 汉语普通话 / 泰语

◎上映日期 2016年4月7日

◎IMDb评分 6.9/10 (2022人评价)

◎IMDb链接 https://www.imdb.com/title/tt4379800/

◎豆瓣评分 8.1/10 (173642人评价)

◎豆瓣链接 https://movie.douban.com/subject/26265170/

◎片 长 分钟

◎导 演 许学文

欧文杰

黄伟杰

◎编 剧 龙文康

伍奇伟

麦天枢

◎演 员 林家栋

任贤齐

陈小春

黄光亮

姜皓文

尹扬明

杜燕歌

岳华

梁健平

熊欣欣

吴志雄

欧锦棠

林雪

张凯

乐子龙

Thimjapo Chattidu

马幸葵

刘宗勇

金来群

黄凯森

黄华和

袁富华

颜子菲

罗志星

何家铧

许秉珩

李英涛

赵志诚

李文标

◎简 介

空穴來風,未必無因。

1997年初,卓子強、葉國歡、季正雄互不相識,卻恰巧在同一家酒樓出現。此後,江湖上便風聲四起:香港犯罪史上最惡名昭彰的三大賊王,正密謀合作,做一件驚天大案!

眾人都以為他們要趁回歸前,成就犯罪界的最後輝煌。殊不知,身為主角的三人卻懵然不知……

  1. ##### MediaInfo ######

  2. General

  3. Unique ID : 230863558253866596544091835140788617228 (0xADAEB438BF3CF5A3B7946DBA5B9A800C)

  4. Complete name : Trivisa.2016.BluRay.1080p.x265.10bit.2Audio-MiniHD.mkv

  5. Format : Matroska

  6. Format version : Version 4

  7. File size : 5.51 GiB

  8. Duration : 1 h 37 min

  9. Overall bit rate : 8 113 kb/s

  10. Encoded date : UTC 2016-06-27 05:37:41

  11. Writing application : mkvmerge v9.1.0 ('Little Earthquakes') 32bit

  12. Writing library : libebml v1.3.3 + libmatroska v1.4.4

  13. Video

  14. ID : 1

  15. Format : HEVC

  16. Format/Info : High Efficiency Video Coding

  17. Format profile : Main [email protected]@Main

  18. Codec ID : V_MPEGH/ISO/HEVC

  19. Duration : 1 h 37 min

  20. Bit rate : 6 672 kb/s

  21. Width : 1 920 pixels

  22. Height : 816 pixels

  23. Display aspect ratio : 2.35:1

  24. Frame rate mode : Constant

  25. Frame rate : 24.000 FPS

  26. Color space : YUV

  27. Chroma subsampling : 4:2:0

  28. Bit depth : 10 bits

  29. Bits/(Pixel*Frame) : 0.177

  30. Stream size : 4.53 GiB (82%)

  31. Writing library : x265 1.9+200-6098ba3e0cf16b11:[Windows][GCC 5.3.0][64 bit] 10bit

  32. Encoding settings : wpp / ctu=32 / min-cu-size=8 / max-tu-size=16 / tu-intra-depth=2 / tu-inter-depth=2 / me=3 / subme=5 / merange=21 / no-rect / no-amp / max-merge=3 / temporal-mvp / no-early-skip / no-recursion-skip / rdpenalty=1 / no-tskip / no-tskip-fast / no-strong-intra-smoothing / no-lossless / no-cu-lossless / no-constrained-intra / no-fast-intra / no-open-gop / no-temporal-layers / interlace=0 / keyint=360 / min-keyint=1 / NTMzNTQ=uuDQuD2mJt9fsCf / scenecut=40 / rc-lookahead=60 / lookahead-slices=4 / bframes=8 / bframe-bias=0 / b-adapt=2 / ref=5 / limit-refs=3 / limit-modes / weightp / weightb / aq-mode=1 / qg-size=16 / aq-strength=1.00 / cbqpoffs=0 / crqpoffs=0 / rd=4 / psy-rd=0.30 / rdoq-level=1 / psy-rdoq=5.00 / no-rd-refine / signhide / deblock=-1:-1 / no-sao / no-sao-non-deblock / b-pyramid / no-cutree / no-intra-refresh / rc=crf / crf=19.0 / qcomp=0.60 / qpmin=0 / qpmax=51 / qpstep=4 / ipratio=1.40 / pbratio=1.30

  33. Default : Yes

  34. Forced : No

  35. Color range : Limited

  36. Color primaries : BT.709

  37. Audio #1

  38. ID : 2

  39. Format : AC-3

  40. Format/Info : Audio Coding 3

  41. Commercial name : Dolby Digital

  42. Codec ID : A_AC3

  43. Duration : 1 h 37 min

  44. Bit rate mode : Constant

  45. Bit rate : 640 kb/s

  46. Channel(s) : 6 channels

  47. Channel layout : L R C LFE Ls Rs

  48. Sampling rate : 48.0 kHz

  49. Frame rate : 31.250 FPS (1536 SPF)

  50. Compression mode : Lossy

  51. Stream size : 445 MiB (8%)

  52. Language : Chinese

  53. Service kind : Complete Main

  54. Default : Yes

  55. Forced : No

  56. Audio #2

  57. ID : 3

  58. Format : AC-3

  59. Format/Info : Audio Coding 3

  60. Commercial name : Dolby Digital

  61. Codec ID : A_AC3

  62. Duration : 1 h 37 min

  63. Bit rate mode : Constant

  64. Bit rate : 640 kb/s

  65. Channel(s) : 6 channels

  66. Channel layout : L R C LFE Ls Rs

  67. Sampling rate : 48.0 kHz

  68. Frame rate : 31.250 FPS (1536 SPF)

  69. Compression mode : Lossy

  70. Stream size : 445 MiB (8%)

  71. Language : Chinese

  72. Service kind : Complete Main

  73. Default : No

  74. Forced : No

  75. Text #1

  76. ID : 4

  77. Format : PGS

  78. Muxing mode : zlib

  79. Codec ID : S_HDMV/PGS

  80. Codec ID/Info : Picture based subtitle format used on BDs/HD-DVDs

  81. Language : Chinese

  82. Default : Yes

  83. Forced : No

  84. Text #2

  85. ID : 5

  86. Format : PGS

  87. Muxing mode : zlib

  88. Codec ID : S_HDMV/PGS

  89. Codec ID/Info : Picture based subtitle format used on BDs/HD-DVDs

  90. Language : Chinese

  91. Default : No

  92. Forced : No

  93. Text #3

  94. ID : 6

  95. Format : PGS

  96. Muxing mode : zlib

  97. Codec ID : S_HDMV/PGS

  98. Codec ID/Info : Picture based subtitle format used on BDs/HD-DVDs

  99. Language : English

  100. Default : No

  101. Forced : No

  102. Menu

  103. 00:00:00.000 : en:Chapter 01

  104. 00:03:14.125 : en:Chapter 02

  105. 00:08:04.125 : en:Chapter 03

  106. 00:14:10.958 : en:Chapter 04

  107. 00:18:31.000 : en:Chapter 05

  108. 00:24:32.250 : en:Chapter 06

  109. 00:29:54.375 : en:Chapter 07

  110. 00:32:29.416 : en:Chapter 08

  111. 00:37:28.708 : en:Chapter 09

  112. 00:41:45.416 : en:Chapter 10

  113. 00:47:34.625 : en:Chapter 11

  114. 00:52:17.833 : en:Chapter 12

  115. 00:59:10.833 : en:Chapter 13

  116. 01:06:37.750 : en:Chapter 14

  117. 01:10:54.625 : en:Chapter 15

  118. 01:14:45.166 : en:Chapter 16

  119. 01:17:47.458 : en:Chapter 17

  120. 01:22:26.708 : en:Chapter 18

  121. 01:28:27.750 : en:Chapter 19

  122. 01:33:16.000 : en:Chapter 20


复制代码



文件下载


除非特别注明,本文『树大招风[国语配音/中文字幕].Trivisa.2016.BluRay.1080p.x265.10bit.2Audio-MiniHD 5.52GB』来源于互联网机器人自动抓取,非本站原创。 浮游电影网不对本文拥有版权,如有侵犯,请联系邮箱:fuyouu#yandex.com[#换成@]投诉。我们会在15个工作日内删除。 但烦请转载时请标明出处:“本文转载于『浮游电影网』,原文地址:https://www.fuyouu.com/22112.html

评论吧骚年!

发表你的见解   

昵称*

E-mail*(建议输入,以便收到博主回复的提示邮件)

验证码*

您可以使用eMule或eMule Mod(Windows)、aMule(Win、Linux、Mac)等软件下载eD2k链接。。
eMule收藏集(.emulecollection)文件是您选中的所有链接的列表文件。eMule可以直接下载它们。
按住SHIFT键选择可以选中多个选择框。
可用文件名和大小选择器来选择文件。
文件名选择器帮您根据文件名称或后缀来选择文件。不分大小写。
符号使用:
和:空格( )、+
不包含:-
或:|
转义:一对英文引号("");
匹配开头:^
匹配结尾:$
例如:
选中所有名称中包含有“eMule”或“0.49c”字眼,但不包含有“exe”字眼的:emule|0.49c -exe
选中所有名称的开头是“eMule”,结尾是“0.49c”的:^emule 0.49c$
选中所有名称中带有“eMule 0.49c”的(必须是“eMule 0.49c”,中间没有别的字符,不能是“eMule fake 0.49c”),需要转义:"emule 0.49c"
大小选择器帮您根据文件大小选择文件。